<?xml version="1.0" standalone="no"?>
<!DOCTYPE svg PUBLIC "-//W3C//DTD SVG 1.1//EN" "http://www.w3.org/Graphics/SVG/1.1/DTD/svg11.dtd" >
<svg xmlns="http://www.w3.org/2000/svg" xmlns:xlink="http://www.w3.org/1999/xlink" version="1.1">
<metadata>
Created by FontForge 20170731 at Thu Jul 28 13:25:40 2022
 By Aleksey,,,
Copyright 2021 The Red Hat Project Authors (https://github.com/RedHatOfficial/RedHatFont)
</metadata>
<defs>
<font id="RedHatText-Italic" horiz-adv-x="600" >
  <font-face 
    font-family="Red Hat Text"
    font-weight="400"
    font-style="italic"
    font-stretch="normal"
    units-per-em="1000"
    panose-1="2 1 3 3 4 2 1 13 3 3"
    ascent="800"
    descent="-200"
    x-height="488"
    cap-height="700"
    bbox="-145 -274 1091 1006"
    underline-thickness="100"
    underline-position="-350"
    slope="-12"
    unicode-range="U+0020-FFFD"
  />
<missing-glyph horiz-adv-x="514" 
d="M60 -100v850h394v-850h-394z" />
    <glyph glyph-name=".notdef" horiz-adv-x="514" 
d="M60 -100v850h394v-850h-394z" />
    <glyph glyph-name=".null" horiz-adv-x="0" 
 />
    <glyph glyph-name="nonmarkingreturn" horiz-adv-x="333" 
 />
    <glyph glyph-name="space" unicode=" " horiz-adv-x="233" 
 />
    <glyph glyph-name="exclam" unicode="!" horiz-adv-x="215" 
d="M67 205l105 522h74l-122 -522h-57zM58 -8q-20 0 -33.5 14t-13.5 34q0 23 17.5 40.5t40.5 17.5q20 0 33 -13.5t13 -33.5q0 -15 -8 -28.5t-21 -22t-28 -8.5z" />
    <glyph glyph-name="quotedbl" unicode="&#x22;" horiz-adv-x="354" 
d="M129 530l33 220h72l-54 -220h-51zM272 530l33 220h72l-54 -220h-51z" />
    <glyph glyph-name="numbersign" unicode="#" horiz-adv-x="675" 
d="M-8 0l120 219h-94l12 58h114l80 146h-116l13 58h135l120 219h67l-120 -219h181l120 219h66l-120 -219h94l-13 -58h-113l-80 -146h115l-12 -58h-135l-120 -219h-66l120 219h-182l-120 -219h-66zM210 277h182l80 146h-181z" />
    <glyph glyph-name="dollar" unicode="$" horiz-adv-x="538" 
d="M175 -67l20 92q-95 16 -174 92l42 50q35 -33 71 -53t74 -28l52 245l-44 16q-53 21 -83.5 60t-30.5 86q0 89 63 138.5t169 49.5l18 86h48l-19 -91q44 -9 85.5 -31.5t76.5 -57.5l-46 -48q-29 29 -61.5 49t-67.5 27l-49 -231l37 -14q67 -26 98 -62t31 -86q0 -62 -31 -107.5
t-86 -70t-127 -24.5l-18 -87h-48zM273 397l48 224q-70 0 -111 -32t-41 -87q0 -31 19 -55t55 -39zM255 82q48 0 85 16t57.5 45t20.5 67q0 33 -22 56.5t-69 42.5l-22 9z" />
    <glyph glyph-name="percent" unicode="%" horiz-adv-x="761" 
d="M208 345q-57 0 -91 37.5t-34 100.5q0 61 23.5 111t62.5 80.5t86 30.5q57 0 91 -37.5t34 -100.5q0 -61 -23.5 -111t-62.5 -80.5t-86 -30.5zM213 391q32 0 59 24t43 64t16 87q0 44 -22 69t-60 25q-31 0 -58 -24t-43 -64t-16 -87q0 -44 22 -69t59 -25zM107 0l534 700h57
l-537 -700h-54zM547 -5q-57 0 -91 37.5t-34 100.5q0 61 23.5 111t62.5 80.5t86 30.5q57 0 91 -37.5t34 -100.5q0 -60 -23.5 -110.5t-62.5 -81t-86 -30.5zM552 41q32 0 59 24t43 64t16 87q0 44 -22 69t-60 25q-31 0 -58 -24t-43 -64t-16 -87q0 -44 22 -69t59 -25z" />
    <glyph glyph-name="ampersand" unicode="&#x26;" horiz-adv-x="656" 
d="M596 39l-49 -50q-22 18 -44 39.5t-45 44.5q-96 -84 -216 -84q-66 0 -116 23t-77.5 63.5t-27.5 95.5q0 48 18.5 86t62 72.5t118.5 68.5q-19 38 -27 67t-8 61q0 53 24 95t65 66t93 24q43 0 76 -16.5t51.5 -45.5t18.5 -67q0 -55 -34.5 -97.5t-111.5 -80.5l-56 -28
q35 -55 74.5 -107t79.5 -99q32 38 59.5 84t47.5 99l65 -18q-26 -63 -58.5 -115.5t-71.5 -95.5q23 -23 45 -44.5t44 -40.5zM253 531q0 -25 7.5 -49t24.5 -56l61 30q50 25 73.5 53t23.5 64t-22 58t-59 22q-47 0 -78 -34.5t-31 -87.5zM92 184q0 -60 43 -96.5t114 -36.5
q45 0 87.5 17.5t80.5 49.5q-41 47 -82.5 103t-86.5 126q-88 -39 -122 -77t-34 -86z" />
    <glyph glyph-name="quotesingle" unicode="'" horiz-adv-x="209" 
d="M129 530l33 220h72l-54 -220h-51z" />
    <glyph glyph-name="parenleft" unicode="(" horiz-adv-x="393" 
d="M210 -216q-74 61 -111.5 150t-37.5 203q0 125 41.5 237t117.5 199.5t179 137.5l28 -54q-66 -31 -120 -84.5t-94 -121.5t-61.5 -146.5t-21.5 -161.5q0 -208 128 -313z" />
    <glyph glyph-name="parenright" unicode=")" horiz-adv-x="393" 
d="M182 711q74 -61 111.5 -150t37.5 -203q0 -124 -41.5 -236.5t-117 -199.5t-179.5 -138l-28 54q66 32 120 85t94 121t61.5 147t21.5 161q0 208 -128 313z" />
    <glyph glyph-name="asterisk" unicode="*" horiz-adv-x="446" 
d="M216 341l32 139l-124 -66l-20 49l131 65l-97 79l35 41l93 -80l26 132h50l-28 -131l120 62l21 -47l-130 -64l100 -80l-37 -42l-93 80l-28 -137h-51z" />
    <glyph glyph-name="plus" unicode="+" horiz-adv-x="599" 
d="M247 145l39 181h-167l13 60h166l39 181h62l-39 -181h167l-13 -60h-166l-39 -181h-62z" />
    <glyph glyph-name="comma" unicode="," horiz-adv-x="250" 
d="M-39 -157l104 231h78l-125 -231h-57z" />
    <glyph glyph-name="hyphen" unicode="-" horiz-adv-x="447" 
d="M59 250l15 63h325l-14 -63h-326z" />
    <glyph glyph-name="period" unicode="." horiz-adv-x="250" 
d="M76 -8q-20 0 -33.5 14t-13.5 35q0 16 8 29.5t21.5 22t28.5 8.5q20 0 33 -14t13 -35q0 -15 -8 -29t-21 -22.5t-28 -8.5z" />
    <glyph glyph-name="slash" unicode="/" horiz-adv-x="460" 
d="M-145 -209l583 909h76l-584 -909h-75z" />
    <glyph glyph-name="zero" unicode="0" horiz-adv-x="654" 
d="M394 711q70 0 122 -34t80.5 -95.5t28.5 -144.5q0 -91 -25.5 -172t-70.5 -143t-103 -97.5t-124 -35.5q-70 0 -122 34t-80.5 95.5t-28.5 144.5q0 90 25.5 171t70.5 143.5t103.5 98t123.5 35.5zM385 647q-49 0 -92.5 -30.5t-77 -84t-53 -123t-19.5 -147.5q0 -97 45 -153
t123 -56q49 0 92.5 30.5t77 84t53 123t19.5 147.5q0 98 -44.5 153.5t-123.5 55.5z" />
    <glyph glyph-name="one" unicode="1" horiz-adv-x="301" 
d="M97 0l131 622l-120 -50l14 66l150 62h44l-149 -700h-70z" />
    <glyph glyph-name="two" unicode="2" horiz-adv-x="538" 
d="M-4 0l11 53l375 342q42 38 62 74.5t20 73.5q0 46 -36.5 75t-93.5 29q-44 0 -86 -18.5t-99 -60.5l-31 53q62 45 117.5 67.5t111.5 22.5t98 -20t66 -56t24 -83q0 -54 -25 -98.5t-86 -98.5l-322 -293l348 1l-13 -63h-441z" />
    <glyph glyph-name="three" unicode="3" horiz-adv-x="574" 
d="M254 -11q-76 0 -136.5 31.5t-107.5 90.5l54 44q42 -55 90.5 -79t106.5 -24q51 0 89.5 19t60 52.5t21.5 76.5q0 36 -17.5 65t-49.5 45.5t-77 16.5h-59l13 62h80q42 0 76.5 18.5t55 49t20.5 67.5q0 50 -37.5 86.5t-108.5 36.5q-50 0 -91 -15.5t-85 -51.5l-38 50
q44 40 98 60.5t117 20.5q71 0 119.5 -24.5t73.5 -64.5t25 -87q0 -60 -37 -109.5t-120 -74.5q53 -18 83 -58t30 -89q0 -62 -32 -111t-88.5 -76.5t-128.5 -27.5z" />
    <glyph glyph-name="four" unicode="4" horiz-adv-x="606" 
d="M354 0l40 187h-370l13 57l461 456h75l-96 -450h96l-14 -63h-95l-40 -187h-70zM123 250h284l76 357z" />
    <glyph glyph-name="five" unicode="5" horiz-adv-x="559" 
d="M241 -11q-73 0 -134 29t-100 82l49 46q38 -49 84.5 -72t104.5 -23q54 0 96 24t66.5 65.5t24.5 92.5q0 66 -42 103.5t-117 37.5q-31 0 -64 -7.5t-73 -24.5l-45 21l85 337h393l-14 -63h-331l-60 -233q35 15 66 21.5t65 6.5q65 0 112 -23t72.5 -66t25.5 -103
q0 -52 -20.5 -97.5t-57 -80t-84 -54t-102.5 -19.5z" />
    <glyph glyph-name="six" unicode="6" horiz-adv-x="611" 
d="M312 -11q-64 0 -119 33.5t-89 97.5t-34 155q0 101 27 181.5t75 137t110 87t132 30.5q57 0 102 -16.5t85 -47.5l-40 -59q-37 30 -73 44t-73 14q-68 0 -125.5 -37.5t-96 -105.5t-49.5 -161q42 47 93.5 72t108.5 25q65 0 114 -27t76 -73t27 -104q0 -56 -20 -101t-55 -77.5
t-80.5 -50t-95.5 -17.5zM321 53q48 0 86.5 23.5t61 64.5t22.5 93q0 65 -42 105.5t-116 40.5q-52 0 -102.5 -24t-89.5 -67q0 -76 23.5 -128.5t64 -80t92.5 -27.5z" />
    <glyph glyph-name="seven" unicode="7" horiz-adv-x="547" 
d="M42 0l483 637h-419l14 63h499l-12 -56l-481 -644h-84z" />
    <glyph glyph-name="eight" unicode="8" horiz-adv-x="602" 
d="M283 -10q-71 0 -125.5 25.5t-84.5 69t-30 96.5q0 48 23.5 88.5t66.5 69t101 39.5q-48 20 -73 57t-25 82q0 59 32 102.5t85 67.5t116 24q68 0 114.5 -23.5t71 -62.5t24.5 -84q0 -44 -19.5 -80t-56.5 -62t-88 -39q55 -22 89.5 -65t34.5 -98q0 -62 -35 -108.5t-93 -72.5
t-128 -26zM352 399q43 0 78.5 18t57 49t21.5 70q0 50 -35.5 83.5t-110.5 33.5q-43 0 -78.5 -18t-57 -48.5t-21.5 -70.5q0 -49 39.5 -83t106.5 -34zM289 47q80 0 129 42t49 108q0 39 -21 70.5t-59 50.5t-91 19q-82 0 -131.5 -41.5t-49.5 -106.5q0 -39 21 -71t60.5 -51.5
t92.5 -19.5z" />
    <glyph glyph-name="nine" unicode="9" horiz-adv-x="608" 
d="M333 711q64 0 119 -33.5t89 -97.5t34 -155q0 -100 -27 -181t-75 -137.5t-110 -87t-132 -30.5q-57 0 -101.5 16.5t-85.5 47.5l40 59q38 -30 73.5 -44t72.5 -14q68 0 125.5 37.5t96.5 106t49 160.5q-42 -46 -93.5 -71.5t-108.5 -25.5q-65 0 -114 27t-76 73.5t-27 103.5
q0 56 20 101t55 77.5t80.5 50t95.5 17.5zM324 647q-48 0 -86.5 -23.5t-61 -64.5t-22.5 -93q0 -65 42.5 -105.5t115.5 -40.5q53 0 103 24t89 67q0 76 -23.5 128.5t-64 80t-92.5 27.5z" />
    <glyph glyph-name="colon" unicode=":" horiz-adv-x="250" 
d="M76 -8q-20 0 -33.5 14t-13.5 35q0 16 8 29.5t21.5 22t28.5 8.5q20 0 33 -14t13 -35q0 -15 -8 -29t-21 -22.5t-28 -8.5zM161 389q-20 0 -33.5 14t-13.5 35q0 16 8 29.5t21.5 22t28.5 8.5q20 0 33 -14t13 -35q0 -15 -8 -29t-21 -22.5t-28 -8.5z" />
    <glyph glyph-name="semicolon" unicode=";" horiz-adv-x="250" 
d="M169 389q-20 0 -33.5 14t-13.5 35q0 16 8 29.5t21.5 22t28.5 8.5q20 0 33 -14t13 -35q0 -15 -8 -29t-21 -22.5t-28 -8.5zM-39 -157l104 231h78l-125 -231h-57z" />
    <glyph glyph-name="less" unicode="&#x3c;" horiz-adv-x="599" 
d="M408 103l-265 246l360 245l32 -52l-298 -199l215 -195z" />
    <glyph glyph-name="equal" unicode="=" 
d="M102 245l13 60h394l-13 -60h-394zM137 408l13 60h394l-13 -60h-394z" />
    <glyph glyph-name="greater" unicode="&#x3e;" 
d="M236 594l265 -246l-360 -245l-32 52l298 199l-215 195z" />
    <glyph glyph-name="question" unicode="?" horiz-adv-x="501" 
d="M172 -8q-20 0 -33 14t-13 34q0 23 17.5 40.5t40.5 17.5q20 0 32.5 -13.5t12.5 -33.5q0 -15 -8 -28.5t-21 -22t-28 -8.5zM177 207q11 66 37.5 107t78.5 71l62 36q41 25 63 57.5t22 66.5q0 42 -34 69t-89 27q-43 0 -85.5 -20.5t-79.5 -58.5l-45 41q48 50 105 77t115 27
q55 0 96 -19.5t64.5 -53.5t23.5 -80q0 -55 -30 -99t-96 -84l-59 -35q-40 -23 -60 -53t-28 -76h-61z" />
    <glyph glyph-name="at" unicode="@" horiz-adv-x="763" 
d="M393 -144q-73 0 -135 26.5t-108.5 74t-72 111.5t-25.5 139q0 79 25.5 146.5t71 117.5t107 77.5t133.5 27.5q68 0 126 -23t101 -64.5t67 -97.5t24 -122q0 -61 -22 -109.5t-60 -76.5t-86 -28q-64 0 -89 41q-24 -22 -49.5 -33.5t-51.5 -11.5q-39 0 -70 20t-49 54t-18 77
q0 49 22 89t58.5 64t81.5 24q28 0 53 -10t42 -29l5 26h55l-38 -192q-7 -36 7.5 -55.5t45.5 -19.5q34 0 60 22t41.5 60.5t15.5 85.5q0 76 -36 136t-97.5 94.5t-140.5 34.5q-61 0 -113.5 -24.5t-92 -69t-61.5 -103t-22 -126.5q0 -89 38.5 -158.5t106 -109.5t153.5 -40
q89 0 162 41l17 -41q-41 -22 -86.5 -33.5t-95.5 -11.5zM360 98q43 0 77 36q-1 10 -0.5 21t2.5 24l20 106q-13 22 -36 34t-51 12q-29 0 -53 -17t-38.5 -45.5t-14.5 -62.5q0 -48 26.5 -78t67.5 -30z" />
    <glyph glyph-name="A" unicode="A" horiz-adv-x="647" 
d="M-44 0l416 700h91l122 -700h-77l-36 220h-304l-127 -220h-85zM203 281h259l-58 350z" />
    <glyph glyph-name="B" unicode="B" horiz-adv-x="656" 
d="M34 0l149 700h259q57 0 98.5 -18.5t64 -53.5t22.5 -83q0 -68 -42 -118t-111 -68q54 -16 84.5 -52.5t30.5 -89.5q0 -62 -32 -111.5t-88 -77.5t-128 -28h-307zM193 394h202q69 0 112 38.5t43 99.5q0 47 -32 74.5t-89 27.5h-185zM123 66h217q51 0 90 19.5t61 53.5t22 79
q0 53 -36 83t-100 30h-198z" />
    <glyph glyph-name="C" unicode="C" horiz-adv-x="713" 
d="M401 -11q-69 0 -128.5 25t-103.5 69.5t-68.5 105t-24.5 131.5q0 80 29.5 150.5t81 124.5t119.5 84.5t145 30.5q83 0 149.5 -32t109.5 -94l-57 -50q-32 50 -86.5 78t-119.5 28q-61 0 -114.5 -24.5t-94 -68t-63 -101t-22.5 -123.5q0 -76 33 -136t90 -94.5t130 -34.5
q59 0 114.5 23.5t98.5 65.5l40 -52q-55 -51 -122 -78.5t-136 -27.5z" />
    <glyph glyph-name="D" unicode="D" horiz-adv-x="717" 
d="M34 0l149 700h199q90 0 157 -38.5t104.5 -108t37.5 -162.5q0 -81 -30.5 -151.5t-84 -124.5t-124 -84.5t-151.5 -30.5h-257zM379 631h-136l-119 -562h178q63 0 117.5 24.5t95.5 68.5t64.5 102t23.5 125q0 73 -28 127t-78.5 84.5t-117.5 30.5z" />
    <glyph glyph-name="E" unicode="E" horiz-adv-x="607" 
d="M34 0l149 700h468l-15 -67h-392l-53 -246h273l-14 -67h-273l-54 -253h397l-14 -67h-472z" />
    <glyph glyph-name="F" unicode="F" horiz-adv-x="598" 
d="M34 0l149 700h468l-15 -67h-392l-54 -251h269l-14 -67h-269l-67 -315h-75z" />
    <glyph glyph-name="G" unicode="G" horiz-adv-x="785" 
d="M394 -10q-68 0 -126.5 25t-102 70t-68 105.5t-24.5 130.5q0 80 29.5 150.5t81.5 124.5t120 84.5t144 30.5q87 0 157.5 -33.5t117.5 -98.5l-59 -50q-34 53 -93 82.5t-128 29.5q-61 0 -114 -24.5t-93.5 -68.5t-63.5 -101.5t-23 -123.5q0 -76 32.5 -135.5t89.5 -94
t128 -34.5q65 0 120 30.5t93.5 84.5t51.5 124h-231l11 68h308l-9 -52q-16 -94 -66 -167.5t-123 -115t-160 -41.5z" />
    <glyph glyph-name="H" unicode="H" horiz-adv-x="717" 
d="M32 0l149 700h76l-67 -313h394l67 313h76l-149 -700h-76l68 318h-394l-68 -318h-76z" />
    <glyph glyph-name="I" unicode="I" horiz-adv-x="247" 
d="M32 0l149 700h75l-149 -700h-75z" />
    <glyph glyph-name="J" unicode="J" horiz-adv-x="588" 
d="M235 -11q-88 0 -147.5 48.5t-76.5 133.5l68 25q14 -68 53 -102.5t103 -34.5q77 0 131 54t75 151l93 436h76l-94 -443q-18 -86 -57 -146t-95.5 -91t-128.5 -31z" />
    <glyph glyph-name="K" unicode="K" horiz-adv-x="597" 
d="M34 0l149 700h75l-69 -322l399 322h101l-426 -343l281 -357h-95l-267 344l-73 -344h-75z" />
    <glyph glyph-name="L" unicode="L" horiz-adv-x="595" 
d="M34 0l149 700h75l-135 -632h387l-14 -68h-462z" />
    <glyph glyph-name="M" unicode="M" horiz-adv-x="844" 
d="M34 0l149 700h101l125 -499l334 499h108l-149 -700h-70l129 609l-381 -559l-145 562l-130 -612h-71z" />
    <glyph glyph-name="N" unicode="N" horiz-adv-x="725" 
d="M34 0l148 700h78l280 -587l121 587h71l-148 -700h-68l-287 599l-124 -599h-71z" />
    <glyph glyph-name="O" unicode="O" horiz-adv-x="795" 
d="M392 -11q-67 0 -125 25t-101 70t-67 105.5t-24 130.5q0 80 29 150.5t79.5 124.5t117 85t141.5 31q68 0 125.5 -25t100.5 -70t67 -105t24 -131q0 -80 -29 -150.5t-79.5 -124.5t-117 -85t-141.5 -31zM397 59q59 0 110.5 25t91 68.5t62 101t22.5 122.5q0 76 -32 136
t-87.5 94.5t-125.5 34.5q-59 0 -111 -25t-91.5 -68.5t-62 -101t-22.5 -122.5q0 -75 32 -135t88 -95t126 -35z" />
    <glyph glyph-name="P" unicode="P" horiz-adv-x="641" 
d="M34 0l149 700h262q61 0 105 -22t68 -62t24 -96q0 -68 -31.5 -121t-87 -83t-126.5 -30h-227l-61 -286h-75zM184 352h210q51 0 90 20.5t61 57.5t22 85q0 55 -36 86t-99 31h-188z" />
    <glyph glyph-name="Q" unicode="Q" horiz-adv-x="795" 
d="M599 -26l-37 61q-38 -22 -81 -34t-89 -12q-67 0 -125 25t-101 70t-67 105.5t-24 130.5q0 80 29 150.5t79.5 124.5t117 85t141.5 31q68 0 125.5 -25t100.5 -70t67 -105t24 -131q0 -92 -38.5 -172t-102.5 -134l58 -95zM397 59q35 0 67.5 9t61.5 26l-78 128l76 4l57 -92
q47 44 74.5 106.5t27.5 135.5q0 76 -32 136t-87.5 94.5t-125.5 34.5q-59 0 -111 -25t-91.5 -68.5t-62 -101t-22.5 -122.5q0 -75 32 -135t88 -95t126 -35z" />
    <glyph glyph-name="R" unicode="R" horiz-adv-x="634" 
d="M34 0l149 700h263q60 0 103.5 -21.5t67 -61.5t23.5 -94q0 -56 -24 -102t-66.5 -76.5t-98.5 -40.5l91 -304h-79l-88 299h-202l-64 -299h-75zM186 363h211q49 0 87 20t59.5 55t21.5 80q0 53 -35 83.5t-95 30.5h-191z" />
    <glyph glyph-name="S" unicode="S" horiz-adv-x="612" 
d="M306 -10q-82 0 -155.5 35.5t-133.5 105.5l51 52q60 -65 118.5 -97t121.5 -32q53 0 94 18.5t65 51.5t24 74q0 44 -30.5 70t-104.5 47l-107 27q-78 20 -117.5 63t-39.5 106q0 60 30 104.5t84.5 69t126.5 24.5q80 0 152 -28.5t127 -81.5l-48 -55q-49 48 -109.5 74t-124.5 26
q-74 0 -119 -33.5t-45 -89.5q0 -43 28 -70t86 -43l105 -26q95 -26 138 -67t43 -106t-33 -114.5t-91.5 -77t-135.5 -27.5z" />
    <glyph glyph-name="T" unicode="T" horiz-adv-x="605" 
d="M211 0l135 632h-238l15 68h548l-15 -68h-235l-135 -632h-75z" />
    <glyph glyph-name="U" unicode="U" horiz-adv-x="698" 
d="M322 -11q-90 0 -150 40t-83.5 111t-3.5 163l84 397h76l-86 -401q-15 -70 1.5 -124.5t59 -85t105.5 -30.5q86 0 147 62t85 172l87 407h75l-88 -411q-20 -96 -63 -163t-105 -102t-141 -35z" />
    <glyph glyph-name="V" unicode="V" horiz-adv-x="647" 
d="M227 0l-122 700h76l104 -628l366 628h82l-415 -700h-91z" />
    <glyph glyph-name="W" unicode="W" horiz-adv-x="879" 
d="M136 0v700h74l-4 -576l291 576h73l48 -576l239 576h77l-297 -700h-77l-48 594l-300 -594h-76z" />
    <glyph glyph-name="X" unicode="X" horiz-adv-x="641" 
d="M-46 0l346 367l-173 333h85l142 -278l261 278h95l-323 -341l187 -359h-84l-156 304l-283 -304h-97z" />
    <glyph glyph-name="Y" unicode="Y" horiz-adv-x="633" 
d="M224 0l61 287l-178 413h80l147 -347l293 347h90l-357 -417l-60 -283h-76z" />
    <glyph glyph-name="Z" unicode="Z" horiz-adv-x="593" 
d="M-17 0l12 54l538 581l-413 -2l14 67h514l-13 -54l-538 -581l425 2l-15 -67h-524z" />
    <glyph glyph-name="bracketleft" unicode="[" horiz-adv-x="355" 
d="M-32 -215l195 915h236l-13 -60h-167l-169 -795h167l-13 -60h-236z" />
    <glyph glyph-name="backslash" unicode="\" horiz-adv-x="413" 
d="M315 -209l-200 909h69l200 -909h-69z" />
    <glyph glyph-name="bracketright" unicode="]" horiz-adv-x="355" 
d="M382 700l-195 -915h-236l13 60h167l169 795h-167l13 60h236z" />
    <glyph glyph-name="asciicircum" unicode="^" 
d="M117 350l249 350h63l98 -350h-61l-80 284l-200 -284h-69z" />
    <glyph glyph-name="underscore" unicode="_" horiz-adv-x="447" 
d="M-84 -137l12 57h450l-12 -57h-450z" />
    <glyph glyph-name="grave" unicode="`" 
d="M344 584l-142 122h100l109 -122h-67z" />
    <glyph glyph-name="a" unicode="a" horiz-adv-x="516" 
d="M191 -7q-73 0 -117.5 37.5t-44.5 99.5q0 47 23.5 82t66 55t97.5 20q47 0 88.5 -12t72.5 -35l13 59q15 68 -13 102t-98 34q-30 0 -63.5 -8.5t-76.5 -28.5l-20 57q48 20 90.5 30t82.5 10q66 0 108 -23t58.5 -65.5t3.5 -101.5l-68 -305h-71l10 46q-34 -27 -69 -40t-73 -13z
M212 48q36 0 68.5 12.5t64.5 37.5l21 93q-28 22 -63 32t-80 10q-55 0 -90 -27t-35 -68q0 -43 30 -66.5t84 -23.5z" />
    <glyph glyph-name="b" unicode="b" horiz-adv-x="571" 
d="M267 -8q-52 0 -92 22.5t-66 63.5l-17 -78h-71l151 722l74 15l-63 -304q29 29 65 44t77 15q56 0 100 -29t69.5 -78.5t25.5 -113.5q0 -57 -20 -107.5t-54.5 -89t-80.5 -60.5t-98 -22zM258 56q54 0 97 28t68.5 75.5t25.5 105.5q0 74 -41.5 119.5t-108.5 45.5
q-36 0 -68.5 -14t-59.5 -41l-50 -239q19 -36 56.5 -58t80.5 -22z" />
    <glyph glyph-name="c" unicode="c" horiz-adv-x="497" 
d="M261 -9q-60 0 -107.5 28.5t-75 78t-27.5 112.5q0 58 21 109.5t57.5 90.5t84.5 61.5t102 22.5q55 0 105 -25t78 -68l-54 -45q-23 35 -57 53.5t-75 18.5q-51 0 -94.5 -29.5t-70 -78t-26.5 -106.5q0 -45 20 -81t54 -57t76 -21q36 0 70 13t62 35l34 -47q-38 -32 -84 -48.5
t-93 -16.5z" />
    <glyph glyph-name="d" unicode="d" horiz-adv-x="571" 
d="M245 -7q-56 0 -100 29t-69 79t-25 113q0 57 19.5 107.5t54.5 89t80.5 60.5t97.5 22q50 0 89.5 -20t65.5 -58l63 307l74 15l-153 -737h-71l10 46q-28 -25 -62.5 -39t-73.5 -14zM271 56q68 0 122 48l52 252q-19 33 -55 53t-78 20q-53 0 -96 -28t-68.5 -75t-25.5 -106
q0 -73 41.5 -118.5t107.5 -45.5z" />
    <glyph glyph-name="e" unicode="e" horiz-adv-x="545" 
d="M273 -9q-65 0 -115.5 28.5t-78.5 79.5t-28 117q0 58 19.5 108.5t54 89t80 60.5t97.5 22q57 0 101 -27.5t69.5 -76t25.5 -111.5q0 -13 -0.5 -26t-2.5 -27h-374q-2 -48 17.5 -87.5t55.5 -63t82 -23.5q35 0 69.5 11.5t59.5 31.5l38 -52q-43 -28 -84 -41t-86 -13zM128 280
h302q1 43 -16.5 77t-47.5 54.5t-69 20.5q-40 0 -74.5 -19.5t-59 -53.5t-35.5 -79z" />
    <glyph glyph-name="f" unicode="f" horiz-adv-x="362" 
d="M80 0l91 428h-105l14 60h104l25 117q15 68 56 104t103 36q22 0 41 -3.5t35 -10.5l-13 -65q-32 13 -65 13q-37 0 -57 -18.5t-29 -61.5l-24 -111h139l-14 -60h-138l-91 -428h-72z" />
    <glyph glyph-name="g" unicode="g" horiz-adv-x="565" 
d="M231 -219q-53 0 -110 20t-99 53l38 53q84 -62 167 -62q54 0 89 28.5t46 80.5l20 94q-28 -26 -62.5 -40t-73.5 -14q-56 0 -100.5 29t-69.5 78.5t-25 112.5q0 57 19.5 107.5t54.5 89t80.5 60.5t97.5 22q50 0 90 -20t65 -58l15 73h71l-113 -540q-17 -81 -68.5 -124
t-131.5 -43zM271 56q34 0 65.5 12.5t57.5 36.5l52 252q-20 33 -56.5 52.5t-77.5 19.5q-53 0 -96 -28t-68.5 -75t-25.5 -106q0 -73 41.5 -118.5t107.5 -45.5z" />
    <glyph glyph-name="h" unicode="h" horiz-adv-x="542" 
d="M21 0l150 722l75 15l-67 -326q34 42 73.5 63t84.5 21q55 0 92 -25t51.5 -69t1.5 -101l-64 -300h-72l62 285q15 68 -13 109t-89 41q-40 0 -76 -19.5t-62 -54.5l-75 -361h-72z" />
    <glyph glyph-name="i" unicode="i" horiz-adv-x="220" 
d="M189 608q-20 0 -33 13.5t-13 33.5q0 15 8 28.5t21 21.5t28 8q20 0 33 -13.5t13 -33.5q0 -23 -17 -40.5t-40 -17.5zM21 0l107 488h71l-106 -488h-72z" />
    <glyph glyph-name="j" unicode="j" horiz-adv-x="220" 
d="M189 608q-20 0 -33 13.5t-13 33.5q0 15 8 28.5t21 21.5t28 8q20 0 33 -13.5t13 -33.5q0 -23 -17 -40.5t-40 -17.5zM-63 -219q-13 0 -27.5 2t-24.5 6l14 63q8 -3 17.5 -4.5t22.5 -1.5q27 0 42.5 14t22.5 47l124 581h72l-127 -588q-12 -57 -47.5 -88t-88.5 -31z" />
    <glyph glyph-name="k" unicode="k" horiz-adv-x="478" 
d="M21 0l152 722l74 15l-97 -464l271 215h96l-304 -238l202 -250h-85l-188 236l-49 -236h-72z" />
    <glyph glyph-name="l" unicode="l" horiz-adv-x="220" 
d="M21 0l151 722l74 15l-153 -737h-72z" />
    <glyph glyph-name="m" unicode="m" horiz-adv-x="828" 
d="M21 0l107 488h71l-16 -75q34 41 71 61.5t78 20.5q52 0 86.5 -27t46.5 -72q80 99 174 99q50 0 83 -24.5t46 -67.5t1 -97l-66 -306h-71l64 298q14 60 -11.5 98.5t-78.5 38.5q-36 0 -69.5 -19.5t-66.5 -61.5q0 -11 -1 -23t-4 -25l-66 -306h-72l63 291q14 64 -11 104t-78 40
q-72 0 -129 -72l-79 -363h-72z" />
    <glyph glyph-name="n" unicode="n" horiz-adv-x="542" 
d="M21 0l107 488h71l-15 -71q32 39 71 58.5t82 19.5q55 0 92 -25t51.5 -69t1.5 -101l-64 -300h-72l62 285q15 68 -13 109t-89 41q-37 0 -71 -17.5t-62 -50.5l-80 -367h-72z" />
    <glyph glyph-name="o" unicode="o" horiz-adv-x="570" 
d="M261 -10q-61 0 -108.5 29.5t-74.5 81t-27 117.5q0 58 20 108.5t55 89t81.5 60t99.5 21.5q63 0 110.5 -29t74 -80.5t26.5 -118.5q0 -57 -20 -107.5t-55.5 -89t-82 -60.5t-99.5 -22zM265 55q51 0 92 28.5t65 77.5t24 108q0 73 -39 118.5t-103 45.5q-51 0 -92 -29
t-65.5 -77.5t-24.5 -107.5q0 -73 39.5 -118.5t103.5 -45.5z" />
    <glyph glyph-name="p" unicode="p" horiz-adv-x="571" 
d="M-22 -209l150 697h70l-11 -52q59 56 138 56q56 0 100 -29t69.5 -78.5t25.5 -113.5q0 -57 -20 -107.5t-54.5 -89t-80.5 -60.5t-98 -22q-50 0 -90.5 21t-65.5 61l-61 -283h-72zM299 430q-68 0 -123 -50l-53 -247q19 -34 55.5 -55.5t79.5 -21.5q54 0 97 28t68.5 75.5
t25.5 105.5q0 74 -41.5 119.5t-108.5 45.5z" />
    <glyph glyph-name="q" unicode="q" horiz-adv-x="571" 
d="M327 -209l55 256q-28 -26 -62.5 -40t-74.5 -14q-56 0 -100 29t-69 79t-25 113q0 57 19.5 107.5t54.5 89t80.5 60.5t97.5 22q50 0 90.5 -21t66.5 -62l17 78h72l-150 -697h-72zM271 56q35 0 66.5 12.5t57.5 37.5l53 247q-19 34 -55.5 55t-80.5 21q-53 0 -96 -28t-68.5 -75
t-25.5 -106q0 -73 41.5 -118.5t107.5 -45.5z" />
    <glyph glyph-name="r" unicode="r" horiz-adv-x="344" 
d="M19 0l107 488h72l-20 -89q28 47 66 72.5t81 25.5q29 0 51 -9l-15 -66q-9 5 -24.5 8t-30.5 3q-40 0 -76 -23.5t-64 -67.5l-75 -342h-72z" />
    <glyph glyph-name="s" unicode="s" horiz-adv-x="443" 
d="M204 -10q-59 0 -110.5 22t-90.5 64l44 46q44 -41 79 -57t79 -16q49 0 82.5 26.5t33.5 63.5q0 26 -16.5 41.5t-57.5 27.5l-77 20q-58 17 -85.5 47.5t-27.5 77.5q0 64 48 104t124 40q53 0 100.5 -18.5t90.5 -55.5l-44 -49q-36 30 -75.5 46.5t-75.5 16.5q-46 0 -74.5 -21
t-28.5 -56q0 -27 16 -43t54 -27l78 -22q63 -18 91 -46t28 -74q0 -45 -24 -80.5t-66 -56.5t-95 -21z" />
    <glyph glyph-name="t" unicode="t" horiz-adv-x="371" 
d="M215 -9q-67 0 -96 32.5t-16 93.5l66 311h-98l14 60h97l28 134l77 17l-33 -151h138l-14 -60h-137l-64 -295q-9 -42 6 -60t61 -18q12 0 23.5 2t32.5 8l-14 -65q-17 -4 -35 -6.5t-36 -2.5z" />
    <glyph glyph-name="u" unicode="u" horiz-adv-x="541" 
d="M203 -7q-54 0 -91 25.5t-51.5 70t-2.5 100.5l65 299h72l-63 -285q-15 -67 13.5 -108.5t88.5 -41.5q38 0 71.5 17t61.5 51l80 367h72l-106 -488h-72l15 70q-33 -38 -71 -57.5t-82 -19.5z" />
    <glyph glyph-name="v" unicode="v" horiz-adv-x="491" 
d="M156 0l-88 488h75l67 -397l238 397h80l-304 -488h-68z" />
    <glyph glyph-name="w" unicode="w" horiz-adv-x="684" 
d="M106 0l-25 488h68l16 -390l197 390h64l31 -390l182 390h71l-237 -488h-70l-29 393l-198 -393h-70z" />
    <glyph glyph-name="x" unicode="x" horiz-adv-x="477" 
d="M-43 0l243 257l-121 231h80l92 -184l170 184h86l-228 -239l130 -249h-79l-101 199l-184 -199h-88z" />
    <glyph glyph-name="y" unicode="y" horiz-adv-x="489" 
d="M11 -219q-11 0 -24 2.5t-31 7.5l13 65q14 -3 24 -4.5t17 -1.5q29 0 50.5 13t39.5 44l52 88l-84 493h76l63 -404l238 404h81l-360 -605q-33 -55 -69.5 -78.5t-85.5 -23.5z" />
    <glyph glyph-name="z" unicode="z" horiz-adv-x="449" 
d="M-14 0l12 58l349 364l-265 -1l13 67h361l-12 -57l-350 -366l273 1l-14 -66h-367z" />
    <glyph glyph-name="braceleft" unicode="{" horiz-adv-x="386" 
d="M174 -219q-64 0 -94.5 29.5t-28.5 77t35 99.5l60 97q23 36 25 66.5t-14.5 49t-50.5 18.5h-74l13 61h74q53 0 80 37t16 93l-21 112q-10 54 6 97t52.5 68t87.5 25q23 0 45.5 -4.5t42.5 -14.5l-26 -56q-15 8 -32 11.5t-30 3.5q-45 0 -68.5 -32t-14.5 -85l22 -133
q6 -37 -6 -70t-38 -55.5t-63 -31.5q49 -19 61 -64t-20 -97l-69 -117q-31 -50 -21 -88t65 -38q11 0 22.5 2t25.5 6l1 -58q-19 -5 -34 -7t-29 -2z" />
    <glyph glyph-name="bar" unicode="|" horiz-adv-x="285" 
d="M14 -209l192 909h66l-193 -909h-65z" />
    <glyph glyph-name="braceright" unicode="}" horiz-adv-x="386" 
d="M208 711q64 0 94.5 -29.5t28.5 -76.5t-35 -100l-60 -97q-22 -36 -24.5 -66.5t14.5 -49t50 -18.5h74l-13 -61h-74q-52 0 -79 -37t-17 -93l21 -112q10 -54 -6 -97t-52.5 -68t-87.5 -25q-23 0 -45.5 4.5t-42.5 14.5l26 56q15 -7 32 -11t30 -4q45 0 68.5 32.5t14.5 84.5
l-22 133q-6 38 6 70.5t38.5 55.5t64.5 31v-1q-33 13 -50 37.5t-15.5 57t22.5 67.5l69 117q31 50 21.5 88t-65.5 38q-11 0 -22.5 -1.5t-25.5 -6.5l-1 58q19 5 34 7t29 2z" />
    <glyph glyph-name="asciitilde" unicode="~" 
d="M140 312l-54 13q21 64 56 98t78 34q20 0 41 -7.5t54 -28.5l63 -42q23 -14 34.5 -19t23.5 -5q26 0 46.5 21t34.5 63l53 -13q-21 -64 -55.5 -98.5t-77.5 -34.5q-22 0 -42 8t-54 29l-63 42q-22 14 -34 18.5t-25 4.5q-25 0 -45 -21t-34 -62z" />
    <glyph glyph-name="uni00A0" unicode="&#xa0;" horiz-adv-x="233" 
 />
    <glyph glyph-name="exclamdown" unicode="&#xa1;" horiz-adv-x="214" 
d="M145 283l-105 -522h-74l122 522h57zM154 496q20 0 33.5 -14t13.5 -34q0 -23 -17.5 -40.5t-40.5 -17.5q-20 0 -33 14t-13 33q0 16 8 29t21 21.5t28 8.5z" />
    <glyph glyph-name="cent" unicode="&#xa2;" horiz-adv-x="497" 
d="M182 -118l24 116q-69 17 -112 74.5t-43 137.5q0 58 21 109.5t57 90.5t83.5 61.5t99.5 22.5l24 115h49l-25 -119q43 -8 80 -31t59 -58l-54 -45q-19 28 -44 45.5t-55 23.5l-79 -370q40 0 74.5 13t62.5 35l34 -47q-40 -34 -87.5 -49.5t-97.5 -15.5l-23 -109h-48zM221 64
l76 363q-48 -4 -87.5 -34t-63.5 -77t-24 -102q0 -53 28 -93t71 -57z" />
    <glyph glyph-name="sterling" unicode="&#xa3;" horiz-adv-x="606" 
d="M10 -18l-46 41q66 79 149 79q46 21 49 90l6 120h-102l13 57h91l4 78q4 81 31 140t74 91.5t111 32.5q92 0 145.5 -49.5t60.5 -143.5l-66 -14q-4 72 -40 108.5t-103 36.5q-66 0 -103 -50.5t-41 -140.5l-4 -89h194l-13 -57h-183l-5 -106q-3 -80 -50 -114q2 -1 3.5 -1.5
t2.5 -0.5l180 -44q45 -11 78 -1.5t61 43.5l46 -39q-28 -35 -60.5 -52.5t-71 -19.5t-84.5 9l-178 45q-49 12 -84.5 1.5t-64.5 -50.5z" />
    <glyph glyph-name="uni00A4" unicode="&#xa4;" horiz-adv-x="681" 
d="M85 64l-39 40l93 94q-25 33 -39.5 75t-14.5 88q0 47 14.5 88t40.5 74l-94 95l40 41l94 -95q33 27 74 42t87 15t87 -15t74 -42l94 95l39 -40l-95 -95q26 -33 41 -74.5t15 -88.5q0 -46 -14 -87.5t-40 -74.5l94 -95l-40 -41l-94 94q-33 -27 -74 -42t-87 -15t-88 15.5
t-75 42.5zM341 166q51 0 92.5 26t65.5 70.5t24 98.5q0 55 -24 98.5t-65.5 69.5t-92.5 26t-92.5 -26t-66 -69.5t-24.5 -98.5q0 -54 24.5 -98.5t66 -70.5t92.5 -26z" />
    <glyph glyph-name="yen" unicode="&#xa5;" horiz-adv-x="633" 
d="M224 0l28 134h-171l11 54h172l16 75h-171l10 54h153l-165 383h80l147 -347l293 347h90l-328 -383h151l-10 -54h-174l-16 -75h173l-11 -54h-174l-28 -134h-76z" />
    <glyph glyph-name="uni00A6" unicode="&#xa6;" horiz-adv-x="278" 
d="M118 287l88 413h68l-88 -413h-68zM13 -209l88 413h68l-88 -413h-68z" />
    <glyph glyph-name="section" unicode="&#xa7;" horiz-adv-x="556" 
d="M241 -50q-48 0 -96 18t-88 50l39 49q80 -61 150 -61q42 0 67 22t25 59q0 45 -54 73l-94 47q-55 29 -79 58.5t-24 69.5q0 56 37.5 94.5t101.5 50.5q-36 35 -36 86q0 43 20.5 75.5t57 51t84.5 18.5q47 0 95 -18t88 -50l-39 -49q-40 31 -77 46t-72 15q-42 0 -67.5 -22
t-25.5 -59q0 -45 55 -73l94 -47q56 -28 79.5 -57.5t23.5 -69.5q0 -58 -37 -97t-101 -51q35 -34 35 -84q0 -43 -20.5 -75.5t-57 -51t-84.5 -18.5zM316 216q56 2 91 29t35 68q0 49 -67 84l-95 46q-56 -1 -92.5 -27t-36.5 -67q0 -50 67 -84z" />
    <glyph glyph-name="dieresis" unicode="&#xa8;" 
d="M280 609q-20 0 -34 13.5t-14 33.5q0 22 17 38.5t40 16.5q20 0 34 -14t14 -34q0 -22 -16.5 -38t-40.5 -16zM484 609q-20 0 -34 13.5t-14 33.5q0 22 17 38.5t40 16.5q20 0 34 -14t14 -34q0 -22 -16.5 -38t-40.5 -16z" />
    <glyph glyph-name="copyright" unicode="&#xa9;" horiz-adv-x="784" 
d="M401 167q-43 0 -77.5 21t-54.5 57.5t-20 82.5q0 55 26.5 101.5t70.5 75t95 28.5q42 0 79 -19t57 -52l-42 -36q-16 26 -42 41t-55 15q-36 0 -66.5 -21t-49.5 -55t-19 -74q0 -49 30 -81t76 -32q43 0 90 35l23 -42q-26 -22 -57.5 -33.5t-63.5 -11.5zM384 -11q-67 0 -124 24
t-99 67.5t-65 102t-23 128.5q0 82 29 154t80.5 127.5t118.5 87t142 31.5q67 0 124 -24t99 -68t65 -103t23 -130q0 -81 -29 -153t-80.5 -126.5t-118.5 -86t-142 -31.5zM384 31q66 0 124.5 28t104 76.5t71 112t25.5 133.5q0 83 -35 148t-95.5 102t-138.5 37q-65 0 -123 -28
t-102.5 -77t-70 -112.5t-25.5 -135.5q0 -81 34.5 -145.5t94.5 -101.5t136 -37z" />
    <glyph glyph-name="ordfeminine" unicode="&#xaa;" horiz-adv-x="400" 
d="M203 319q-58 0 -93 29t-35 77q0 56 42.5 90t112.5 34q65 0 118 -32l9 42q11 49 -11 73.5t-77 24.5q-22 0 -48.5 -6.5t-63.5 -21.5l-16 48q39 17 73.5 24.5t65.5 7.5q79 0 115 -39.5t22 -107.5l-51 -237h-59l6 30q-49 -36 -110 -36zM221 366q57 0 103 37l14 68
q-43 33 -107 33q-43 0 -70 -20.5t-27 -52.5q0 -31 23 -48t64 -17z" />
    <glyph glyph-name="guillemotleft" unicode="&#xab;" horiz-adv-x="625" 
d="M208 0l-165 245l272 243h78l-270 -247l160 -241h-75zM432 0l-165 245l272 243h78l-270 -247l160 -241h-75z" />
    <glyph glyph-name="uni00AC" unicode="&#xac;" horiz-adv-x="601" 
d="M409 0l54 254h-386l14 60h449l-67 -314h-64z" />
    <glyph glyph-name="uni00AD" unicode="&#xad;" horiz-adv-x="447" 
d="M59 250l15 63h325l-14 -63h-326z" />
    <glyph glyph-name="registered" unicode="&#xae;" horiz-adv-x="486" 
d="M278 312q-48 0 -86 23t-59.5 62.5t-21.5 90.5q0 46 16.5 86.5t46 72t67.5 49.5t80 18q49 0 86.5 -23t59 -62.5t21.5 -90.5q0 -46 -16.5 -86.5t-46 -72t-67.5 -49.5t-80 -18zM282 346q47 0 85.5 26t61.5 69t23 95q0 65 -37 104.5t-98 39.5q-46 0 -85 -26t-62 -69t-23 -95
q0 -64 37.5 -104t97.5 -40zM216 420l40 188h64q26 0 39.5 -13.5t13.5 -39.5q0 -19 -11.5 -35.5t-31.5 -24.5l25 -75h-34l-25 71h-33l-15 -71h-32zM269 517h37q16 0 25 9.5t9 25.5q0 28 -27 28h-30z" />
    <glyph glyph-name="macron" unicode="&#xaf;" 
d="M238 611l11 52h268l-11 -52h-268z" />
    <glyph glyph-name="degree" unicode="&#xb0;" horiz-adv-x="398" 
d="M246 424q-34 0 -62 15.5t-45 42.5t-17 59q0 47 22.5 85t60 61t82.5 23q34 0 62 -15.5t45 -42t17 -59.5q0 -46 -22.5 -84.5t-59.5 -61.5t-83 -23zM247 472q32 0 57.5 15.5t41 41t15.5 56.5q0 32 -22 54t-53 22t-57 -15.5t-41.5 -41t-15.5 -56.5t22 -53.5t53 -22.5z" />
    <glyph glyph-name="plusminus" unicode="&#xb1;" horiz-adv-x="599" 
d="M50 -1l13 61h395l-13 -61h-395zM255 173l37 176h-168l14 60h167l37 176h60l-37 -176h167l-14 -60h-166l-37 -176h-60z" />
    <glyph glyph-name="twosuperior" unicode="&#xb2;" horiz-adv-x="286" 
d="M48 350l8 37l178 143q26 20 38 39t12 39q0 23 -17.5 37.5t-46.5 14.5q-22 0 -43.5 -9t-49.5 -29l-22 37q66 46 124 46q47 0 76.5 -24.5t29.5 -63.5q0 -31 -15.5 -56.5t-52.5 -54.5l-141 -113h169l-9 -43h-238z" />
    <glyph glyph-name="threesuperior" unicode="&#xb3;" horiz-adv-x="306" 
d="M184 345q-42 0 -74 13t-56 41l34 35q42 -44 99 -44q35 0 59 17.5t24 42.5q0 26 -18.5 40.5t-50.5 14.5h-31l8 41h28q37 0 61 17.5t24 42.5q0 23 -18 38t-47 15q-21 0 -43 -7.5t-51 -24.5l-22 39q62 39 123 39q47 0 78.5 -25.5t31.5 -65.5q0 -31 -25.5 -55.5t-64.5 -32.5
q31 -8 48.5 -27t17.5 -46q0 -30 -18 -54.5t-48.5 -39t-68.5 -14.5z" />
    <glyph glyph-name="acute" unicode="&#xb4;" 
d="M319 584l135 122h101l-166 -122h-70z" />
    <glyph glyph-name="uni00B5" unicode="&#xb5;" 
d="M0 -209l148 697h73l-62 -291q-13 -66 15 -105.5t86 -39.5q41 0 77.5 19t65.5 56l77 361h73l-104 -488h-73l16 75q-34 -41 -75 -62t-87 -21q-34 0 -61 10.5t-45 29.5l-51 -241h-73z" />
    <glyph glyph-name="paragraph" unicode="&#xb6;" horiz-adv-x="639" 
d="M258 0l61 289h-31q-56 0 -98 22.5t-65 63t-23 93.5q0 68 29.5 120t81 82t117.5 30h317l-149 -700h-65l62 289h-111l-61 -289h-65zM398 352h110l61 285h-111zM294 352h39l60 285h-69q-45 0 -80 -20.5t-55 -57t-20 -83.5q0 -58 33.5 -91t91.5 -33z" />
    <glyph glyph-name="periodcentered" unicode="&#xb7;" horiz-adv-x="250" 
d="M125 229q-20 0 -33.5 14t-13.5 35q0 16 8 29.5t21.5 22t28.5 8.5q20 0 33 -14t13 -35q0 -15 -8 -29t-21 -22.5t-28 -8.5z" />
    <glyph glyph-name="cedilla" unicode="&#xb8;" 
d="M205 -239q-34 0 -61.5 11t-44.5 31l31 30q29 -32 73 -32q33 0 52.5 15t19.5 40q0 21 -17 33t-47 12h-28l44 99h42l-29 -66q38 -3 59.5 -23t21.5 -49q0 -28 -15.5 -51t-41.5 -36.5t-59 -13.5z" />
    <glyph glyph-name="onesuperior" unicode="&#xb9;" horiz-adv-x="162" 
d="M103 350l64 296l-68 -26l10 45l87 35h32l-75 -350h-50z" />
    <glyph glyph-name="ordmasculine" unicode="&#xba;" horiz-adv-x="455" 
d="M270 317q-51 0 -91.5 23.5t-63.5 64.5t-23 93q0 58 28 106t75 77t102 29q51 0 91 -23.5t63 -64.5t23 -93q0 -57 -28 -105.5t-74.5 -77.5t-101.5 -29zM273 372q39 0 71 21t51 56.5t19 76.5q0 56 -34.5 92.5t-86.5 36.5q-38 0 -70 -21t-51.5 -56t-19.5 -77q0 -55 34.5 -92
t86.5 -37z" />
    <glyph glyph-name="guillemotright" unicode="&#xbb;" horiz-adv-x="624" 
d="M416 488l165 -245l-272 -243h-78l270 247l-160 241h75zM193 488l165 -245l-272 -243h-78l270 247l-160 241h75z" />
    <glyph glyph-name="onequarter" unicode="&#xbc;" horiz-adv-x="603" 
d="M434 0l19 88h-192l8 41l233 221h57l-47 -220h42l-10 -42h-41l-19 -88h-50zM326 130h136l34 162zM103 350l64 296l-68 -26l10 45l87 35h32l-75 -350h-50zM-4 0l534 700h57l-537 -700h-54z" />
    <glyph glyph-name="onehalf" unicode="&#xbd;" horiz-adv-x="637" 
d="M103 350l64 296l-68 -26l10 45l87 35h32l-75 -350h-50zM-9 0l534 700h57l-537 -700h-54zM320 0l8 37l178 143q26 20 38 39t12 39q0 23 -17.5 37.5t-46.5 14.5q-22 0 -43.5 -9t-49.5 -29l-22 37q66 46 124 46q47 0 76.5 -24.5t29.5 -63.5q0 -31 -15.5 -56.5t-52.5 -54.5
l-141 -113h169l-9 -43h-238z" />
    <glyph glyph-name="threequarters" unicode="&#xbe;" horiz-adv-x="697" 
d="M184 345q-42 0 -74 13t-56 41l34 35q42 -44 99 -44q35 0 59 17.5t24 42.5q0 26 -18.5 40.5t-50.5 14.5h-31l8 41h28q37 0 61 17.5t24 42.5q0 23 -18 38t-47 15q-21 0 -43 -7.5t-51 -24.5l-22 39q62 39 123 39q47 0 78.5 -25.5t31.5 -65.5q0 -31 -25.5 -55.5t-64.5 -32.5
q31 -8 48.5 -27t17.5 -46q0 -30 -18 -54.5t-48.5 -39t-68.5 -14.5zM528 0l19 88h-192l8 41l233 221h57l-47 -220h42l-10 -42h-41l-19 -88h-50zM420 130h136l34 162zM89 0l534 700h57l-537 -700h-54z" />
    <glyph glyph-name="questiondown" unicode="&#xbf;" horiz-adv-x="501" 
d="M334 496q20 0 33 -14t13 -34q0 -23 -17.5 -40.5t-40.5 -17.5q-19 0 -32 14t-13 33q0 16 8 29t21 21.5t28 8.5zM329 281q-10 -66 -37 -107t-79 -71l-62 -36q-40 -25 -62.5 -57t-22.5 -67q0 -42 34 -69t89 -27q44 0 86 21t79 58l45 -41q-48 -50 -104.5 -77t-115.5 -27
q-55 0 -96 19.5t-64.5 54t-23.5 79.5q0 56 30 99.5t96 83.5l59 35q41 23 61 53t27 76h61z" />
    <glyph glyph-name="Agrave" unicode="&#xc0;" horiz-adv-x="647" 
d="M-44 0l416 700h91l122 -700h-77l-36 220h-304l-127 -220h-85zM203 281h259l-58 350zM406 796l-142 122h100l109 -122h-67z" />
    <glyph glyph-name="Aacute" unicode="&#xc1;" horiz-adv-x="647" 
d="M-44 0l416 700h91l122 -700h-77l-36 220h-304l-127 -220h-85zM203 281h259l-58 350zM381 796l135 122h101l-166 -122h-70z" />
    <glyph glyph-name="Acircumflex" unicode="&#xc2;" horiz-adv-x="647" 
d="M-44 0l416 700h91l122 -700h-77l-36 220h-304l-127 -220h-85zM203 281h259l-58 350zM281 791l137 127h77l87 -127h-56l-73 84l-111 -84h-61z" />
    <glyph glyph-name="Atilde" unicode="&#xc3;" horiz-adv-x="647" 
d="M-44 0l416 700h91l122 -700h-77l-36 220h-304l-127 -220h-85zM203 281h259l-58 350zM319 797l-49 15q23 47 50.5 71.5t56.5 24.5q23 0 42 -9.5t36 -22t32.5 -22t30.5 -9.5t26 12.5t27 47.5l49 -15q-22 -47 -48.5 -71.5t-55.5 -24.5q-22 0 -41 9.5t-36 21.5t-32.5 21.5
t-30.5 9.5q-17 0 -30 -13.5t-27 -45.5z" />
    <glyph glyph-name="Adieresis" unicode="&#xc4;" horiz-adv-x="647" 
d="M-44 0l416 700h91l122 -700h-77l-36 220h-304l-127 -220h-85zM203 281h259l-58 350zM342 821q-20 0 -34 13.5t-14 33.5q0 22 17 38.5t40 16.5q20 0 34 -14t14 -34q0 -22 -16.5 -38t-40.5 -16zM546 821q-20 0 -34 13.5t-14 33.5q0 22 17 38.5t40 16.5q20 0 34 -14t14 -34
q0 -22 -16.5 -38t-40.5 -16z" />
    <glyph glyph-name="Aring" unicode="&#xc5;" horiz-adv-x="647" 
d="M-44 0l416 700h91l122 -700h-77l-36 220h-304l-127 -220h-85zM203 281h259l-58 350zM446 784q-44 0 -72.5 27.5t-28.5 70.5q0 33 16.5 61t43.5 45.5t58 17.5q45 0 73.5 -27.5t28.5 -70.5q0 -33 -16.5 -61t-43.5 -45.5t-59 -17.5zM446 824q31 0 53.5 24t22.5 56
q0 26 -16.5 43.5t-42.5 17.5q-30 0 -53 -23.5t-23 -56.5q0 -26 17 -43.5t42 -17.5z" />
    <glyph glyph-name="AE" unicode="&#xc6;" horiz-adv-x="900" 
d="M-44 0l417 700h574l-14 -68h-452l38 -245h232l-15 -67h-206l39 -252h244l-14 -68h-294l-34 220h-305l-129 -220h-81zM201 281h260l-55 350z" />
    <glyph glyph-name="Ccedilla" unicode="&#xc7;" horiz-adv-x="713" 
d="M345 -239q-34 0 -61.5 11t-44.5 31l31 30q29 -32 73 -32q33 0 52.5 15t19.5 40q0 21 -17 33t-47 12h-28l40 90q-83 9 -148 54t-102 116t-37 159q0 80 29.5 150.5t81 124.5t119.5 84.5t145 30.5q83 0 149.5 -32t109.5 -94l-57 -50q-32 50 -86.5 78t-119.5 28
q-61 0 -114.5 -24.5t-94 -68t-63 -101t-22.5 -123.5q0 -76 33 -136t90 -94.5t130 -34.5q59 0 114.5 23.5t98.5 65.5l40 -52q-55 -51 -121.5 -78.5t-133.5 -27.5l-24 -55q38 -3 59.5 -23t21.5 -49q0 -28 -15.5 -51t-41.5 -36.5t-59 -13.5z" />
    <glyph glyph-name="Egrave" unicode="&#xc8;" horiz-adv-x="607" 
d="M34 0l149 700h468l-15 -67h-392l-53 -246h273l-14 -67h-273l-54 -253h397l-14 -67h-472zM402 796l-142 122h100l109 -122h-67z" />
    <glyph glyph-name="Eacute" unicode="&#xc9;" horiz-adv-x="607" 
d="M34 0l149 700h468l-15 -67h-392l-53 -246h273l-14 -67h-273l-54 -253h397l-14 -67h-472zM377 796l135 122h101l-166 -122h-70z" />
    <glyph glyph-name="Ecircumflex" unicode="&#xca;" horiz-adv-x="607" 
d="M34 0l149 700h468l-15 -67h-392l-53 -246h273l-14 -67h-273l-54 -253h397l-14 -67h-472zM277 791l137 127h77l87 -127h-56l-73 84l-111 -84h-61z" />
    <glyph glyph-name="Edieresis" unicode="&#xcb;" horiz-adv-x="607" 
d="M34 0l149 700h468l-15 -67h-392l-53 -246h273l-14 -67h-273l-54 -253h397l-14 -67h-472zM338 821q-20 0 -34 13.5t-14 33.5q0 22 17 38.5t40 16.5q20 0 34 -14t14 -34q0 -22 -16.5 -38t-40.5 -16zM542 821q-20 0 -34 13.5t-14 33.5q0 22 17 38.5t40 16.5q20 0 34 -14
t14 -34q0 -22 -16.5 -38t-40.5 -16z" />
    <glyph glyph-name="Igrave" unicode="&#xcc;" horiz-adv-x="247" 
d="M32 0l149 700h75l-149 -700h-75zM211 796l-142 122h100l109 -122h-67z" />
    <glyph glyph-name="Iacute" unicode="&#xcd;" horiz-adv-x="247" 
d="M32 0l149 700h75l-149 -700h-75zM186 796l135 122h101l-166 -122h-70z" />
    <glyph glyph-name="Icircumflex" unicode="&#xce;" horiz-adv-x="247" 
d="M32 0l149 700h75l-149 -700h-75zM86 791l137 127h77l87 -127h-56l-73 84l-111 -84h-61z" />
    <glyph glyph-name="Idieresis" unicode="&#xcf;" horiz-adv-x="247" 
d="M32 0l149 700h75l-149 -700h-75zM147 821q-20 0 -34 13.5t-14 33.5q0 22 17 38.5t40 16.5q20 0 34 -14t14 -34q0 -22 -16.5 -38t-40.5 -16zM351 821q-20 0 -34 13.5t-14 33.5q0 22 17 38.5t40 16.5q20 0 34 -14t14 -34q0 -22 -16.5 -38t-40.5 -16z" />
    <glyph glyph-name="Eth" unicode="&#xd0;" horiz-adv-x="747" 
d="M64 0l69 322h-95l13 61h95l67 317h199q90 0 157 -38.5t104.5 -108t37.5 -162.5q0 -81 -30.5 -151.5t-84 -124.5t-124 -84.5t-151.5 -30.5h-257zM154 69h178q63 0 117.5 24.5t95.5 68.5t64.5 102t23.5 125q0 73 -28 127t-78.5 84.5t-117.5 30.5h-136l-53 -248h164l-13 -61
h-163z" />
    <glyph glyph-name="Ntilde" unicode="&#xd1;" horiz-adv-x="725" 
d="M34 0l148 700h78l280 -587l121 587h71l-148 -700h-68l-287 599l-124 -599h-71zM355 797l-49 15q23 47 50.5 71.5t56.5 24.5q23 0 42 -9.5t36 -22t32.5 -22t30.5 -9.5t26 12.5t27 47.5l49 -15q-22 -47 -48.5 -71.5t-55.5 -24.5q-22 0 -41 9.5t-36 21.5t-32.5 21.5
t-30.5 9.5q-17 0 -30 -13.5t-27 -45.5z" />
    <glyph glyph-name="Ograve" unicode="&#xd2;" horiz-adv-x="795" 
d="M392 -11q-67 0 -125 25t-101 70t-67 105.5t-24 130.5q0 80 29 150.5t79.5 124.5t117 85t141.5 31q68 0 125.5 -25t100.5 -70t67 -105t24 -131q0 -80 -29 -150.5t-79.5 -124.5t-117 -85t-141.5 -31zM397 59q59 0 110.5 25t91 68.5t62 101t22.5 122.5q0 76 -32 136
t-87.5 94.5t-125.5 34.5q-59 0 -111 -25t-91.5 -68.5t-62 -101t-22.5 -122.5q0 -75 32 -135t88 -95t126 -35zM436 796l-142 122h100l109 -122h-67z" />
    <glyph glyph-name="Oacute" unicode="&#xd3;" horiz-adv-x="795" 
d="M392 -11q-67 0 -125 25t-101 70t-67 105.5t-24 130.5q0 80 29 150.5t79.5 124.5t117 85t141.5 31q68 0 125.5 -25t100.5 -70t67 -105t24 -131q0 -80 -29 -150.5t-79.5 -124.5t-117 -85t-141.5 -31zM397 59q59 0 110.5 25t91 68.5t62 101t22.5 122.5q0 76 -32 136
t-87.5 94.5t-125.5 34.5q-59 0 -111 -25t-91.5 -68.5t-62 -101t-22.5 -122.5q0 -75 32 -135t88 -95t126 -35zM411 796l135 122h101l-166 -122h-70z" />
    <glyph glyph-name="Ocircumflex" unicode="&#xd4;" horiz-adv-x="795" 
d="M392 -11q-67 0 -125 25t-101 70t-67 105.5t-24 130.5q0 80 29 150.5t79.5 124.5t117 85t141.5 31q68 0 125.5 -25t100.5 -70t67 -105t24 -131q0 -80 -29 -150.5t-79.5 -124.5t-117 -85t-141.5 -31zM397 59q59 0 110.5 25t91 68.5t62 101t22.5 122.5q0 76 -32 136
t-87.5 94.5t-125.5 34.5q-59 0 -111 -25t-91.5 -68.5t-62 -101t-22.5 -122.5q0 -75 32 -135t88 -95t126 -35zM311 791l137 127h77l87 -127h-56l-73 84l-111 -84h-61z" />
    <glyph glyph-name="Otilde" unicode="&#xd5;" horiz-adv-x="795" 
d="M392 -11q-67 0 -125 25t-101 70t-67 105.5t-24 130.5q0 80 29 150.5t79.5 124.5t117 85t141.5 31q68 0 125.5 -25t100.5 -70t67 -105t24 -131q0 -80 -29 -150.5t-79.5 -124.5t-117 -85t-141.5 -31zM397 59q59 0 110.5 25t91 68.5t62 101t22.5 122.5q0 76 -32 136
t-87.5 94.5t-125.5 34.5q-59 0 -111 -25t-91.5 -68.5t-62 -101t-22.5 -122.5q0 -75 32 -135t88 -95t126 -35zM349 797l-49 15q23 47 50.5 71.5t56.5 24.5q23 0 42 -9.5t36 -22t32.5 -22t30.5 -9.5t26 12.5t27 47.5l49 -15q-22 -47 -48.5 -71.5t-55.5 -24.5q-22 0 -41 9.5
t-36 21.5t-32.5 21.5t-30.5 9.5q-17 0 -30 -13.5t-27 -45.5z" />
    <glyph glyph-name="Odieresis" unicode="&#xd6;" horiz-adv-x="795" 
d="M392 -11q-67 0 -125 25t-101 70t-67 105.5t-24 130.5q0 80 29 150.5t79.5 124.5t117 85t141.5 31q68 0 125.5 -25t100.5 -70t67 -105t24 -131q0 -80 -29 -150.5t-79.5 -124.5t-117 -85t-141.5 -31zM397 59q59 0 110.5 25t91 68.5t62 101t22.5 122.5q0 76 -32 136
t-87.5 94.5t-125.5 34.5q-59 0 -111 -25t-91.5 -68.5t-62 -101t-22.5 -122.5q0 -75 32 -135t88 -95t126 -35zM372 821q-20 0 -34 13.5t-14 33.5q0 22 17 38.5t40 16.5q20 0 34 -14t14 -34q0 -22 -16.5 -38t-40.5 -16zM576 821q-20 0 -34 13.5t-14 33.5q0 22 17 38.5t40 16.5
q20 0 34 -14t14 -34q0 -22 -16.5 -38t-40.5 -16z" />
    <glyph glyph-name="multiply" unicode="&#xd7;" horiz-adv-x="599" 
d="M134 161l-30 41l180 157l-113 157l45 39l114 -156l181 158l33 -41l-184 -159l115 -157l-48 -39l-113 156z" />
    <glyph glyph-name="Oslash" unicode="&#xd8;" horiz-adv-x="795" 
d="M392 -11q-63 0 -118 22t-97 62l-78 -78h-77l119 118q-31 42 -48.5 95t-17.5 112q0 80 29 150.5t79.5 124.5t117 85t141.5 31q64 0 119 -22t96 -62l79 78h78l-120 -119q31 -42 48 -94.5t17 -111.5q0 -80 -29 -150.5t-79.5 -124.5t-117 -85t-141.5 -31zM196 168l408 406
q-32 32 -74 49.5t-92 17.5q-59 0 -111 -25t-91.5 -68.5t-62 -101t-22.5 -122.5q0 -89 45 -156zM397 59q59 0 110.5 25t91 68.5t62 101t22.5 122.5q0 44 -11.5 84t-32.5 72l-409 -407q32 -31 75 -48.5t92 -17.5z" />
    <glyph glyph-name="Ugrave" unicode="&#xd9;" horiz-adv-x="698" 
d="M322 -11q-90 0 -150 40t-83.5 111t-3.5 163l84 397h76l-86 -401q-15 -70 1.5 -124.5t59 -85t105.5 -30.5q86 0 147 62t85 172l87 407h75l-88 -411q-20 -96 -63 -163t-105 -102t-141 -35zM430 796l-142 122h100l109 -122h-67z" />
    <glyph glyph-name="Uacute" unicode="&#xda;" horiz-adv-x="698" 
d="M322 -11q-90 0 -150 40t-83.5 111t-3.5 163l84 397h76l-86 -401q-15 -70 1.5 -124.5t59 -85t105.5 -30.5q86 0 147 62t85 172l87 407h75l-88 -411q-20 -96 -63 -163t-105 -102t-141 -35zM405 796l135 122h101l-166 -122h-70z" />
    <glyph glyph-name="Ucircumflex" unicode="&#xdb;" horiz-adv-x="698" 
d="M322 -11q-90 0 -150 40t-83.5 111t-3.5 163l84 397h76l-86 -401q-15 -70 1.5 -124.5t59 -85t105.5 -30.5q86 0 147 62t85 172l87 407h75l-88 -411q-20 -96 -63 -163t-105 -102t-141 -35zM305 791l137 127h77l87 -127h-56l-73 84l-111 -84h-61z" />
    <glyph glyph-name="Udieresis" unicode="&#xdc;" horiz-adv-x="698" 
d="M322 -11q-90 0 -150 40t-83.5 111t-3.5 163l84 397h76l-86 -401q-15 -70 1.5 -124.5t59 -85t105.5 -30.5q86 0 147 62t85 172l87 407h75l-88 -411q-20 -96 -63 -163t-105 -102t-141 -35zM366 821q-20 0 -34 13.5t-14 33.5q0 22 17 38.5t40 16.5q20 0 34 -14t14 -34
q0 -22 -16.5 -38t-40.5 -16zM570 821q-20 0 -34 13.5t-14 33.5q0 22 17 38.5t40 16.5q20 0 34 -14t14 -34q0 -22 -16.5 -38t-40.5 -16z" />
    <glyph glyph-name="Yacute" unicode="&#xdd;" horiz-adv-x="633" 
d="M224 0l61 287l-178 413h80l147 -347l293 347h90l-357 -417l-60 -283h-76zM366 796l135 122h101l-166 -122h-70z" />
    <glyph glyph-name="Thorn" unicode="&#xde;" horiz-adv-x="650" 
d="M34 0l149 700h75l-31 -147h180q68 0 114 -20t69.5 -58t23.5 -94q0 -69 -31.5 -120.5t-88.5 -80t-135 -28.5h-218l-32 -152h-75zM155 217h203q58 0 98 18.5t61.5 54.5t21.5 86q0 56 -35 82.5t-108 26.5h-184z" />
    <glyph glyph-name="germandbls" unicode="&#xdf;" horiz-adv-x="620" 
d="M394 -12q-58 0 -104 22t-81 65l48 43q24 -35 59.5 -53.5t78.5 -18.5q49 0 78.5 26t29.5 69q0 27 -17.5 46t-59.5 38l-66 29q-71 33 -71 97q0 37 16 60.5t41.5 39.5t53.5 29t53.5 28t41.5 37t16 56q0 28 -17 50.5t-46 36t-64 13.5q-74 0 -121 -44t-65 -130l-108 -527h-70
l108 533q22 111 89.5 171.5t168.5 60.5q57 0 101.5 -20.5t69.5 -57t25 -84.5q0 -43 -16 -71.5t-41.5 -47.5t-54 -32.5t-54 -25.5t-41.5 -27t-16 -38q0 -17 10.5 -30.5t32.5 -23.5l64 -31q55 -25 79.5 -56t24.5 -74q0 -45 -23 -81t-62.5 -56.5t-90.5 -20.5z" />
    <glyph glyph-name="agrave" unicode="&#xe0;" horiz-adv-x="516" 
d="M191 -7q-73 0 -117.5 37.5t-44.5 99.5q0 47 23.5 82t66 55t97.5 20q47 0 88.5 -12t72.5 -35l13 59q15 68 -13 102t-98 34q-30 0 -63.5 -8.5t-76.5 -28.5l-20 57q48 20 90.5 30t82.5 10q66 0 108 -23t58.5 -65.5t3.5 -101.5l-68 -305h-71l10 46q-34 -27 -69 -40t-73 -13z
M212 48q36 0 68.5 12.5t64.5 37.5l21 93q-28 22 -63 32t-80 10q-55 0 -90 -27t-35 -68q0 -43 30 -66.5t84 -23.5zM287 584l-142 122h100l109 -122h-67z" />
    <glyph glyph-name="aacute" unicode="&#xe1;" horiz-adv-x="516" 
d="M191 -7q-73 0 -117.5 37.5t-44.5 99.5q0 47 23.5 82t66 55t97.5 20q47 0 88.5 -12t72.5 -35l13 59q15 68 -13 102t-98 34q-30 0 -63.5 -8.5t-76.5 -28.5l-20 57q48 20 90.5 30t82.5 10q66 0 108 -23t58.5 -65.5t3.5 -101.5l-68 -305h-71l10 46q-34 -27 -69 -40t-73 -13z
M212 48q36 0 68.5 12.5t64.5 37.5l21 93q-28 22 -63 32t-80 10q-55 0 -90 -27t-35 -68q0 -43 30 -66.5t84 -23.5zM262 584l135 122h101l-166 -122h-70z" />
    <glyph glyph-name="acircumflex" unicode="&#xe2;" horiz-adv-x="516" 
d="M191 -7q-73 0 -117.5 37.5t-44.5 99.5q0 47 23.5 82t66 55t97.5 20q47 0 88.5 -12t72.5 -35l13 59q15 68 -13 102t-98 34q-30 0 -63.5 -8.5t-76.5 -28.5l-20 57q48 20 90.5 30t82.5 10q66 0 108 -23t58.5 -65.5t3.5 -101.5l-68 -305h-71l10 46q-34 -27 -69 -40t-73 -13z
M212 48q36 0 68.5 12.5t64.5 37.5l21 93q-28 22 -63 32t-80 10q-55 0 -90 -27t-35 -68q0 -43 30 -66.5t84 -23.5zM162 579l137 127h77l87 -127h-56l-73 84l-111 -84h-61z" />
    <glyph glyph-name="atilde" unicode="&#xe3;" horiz-adv-x="516" 
d="M191 -7q-73 0 -117.5 37.5t-44.5 99.5q0 47 23.5 82t66 55t97.5 20q47 0 88.5 -12t72.5 -35l13 59q15 68 -13 102t-98 34q-30 0 -63.5 -8.5t-76.5 -28.5l-20 57q48 20 90.5 30t82.5 10q66 0 108 -23t58.5 -65.5t3.5 -101.5l-68 -305h-71l10 46q-34 -27 -69 -40t-73 -13z
M212 48q36 0 68.5 12.5t64.5 37.5l21 93q-28 22 -63 32t-80 10q-55 0 -90 -27t-35 -68q0 -43 30 -66.5t84 -23.5zM200 585l-49 15q23 47 50.5 71.5t56.5 24.5q23 0 42 -9.5t36 -22t32.5 -22t30.5 -9.5t26 12.5t27 47.5l49 -15q-22 -47 -48.5 -71.5t-55.5 -24.5
q-22 0 -41 9.5t-36 21.5t-32.5 21.5t-30.5 9.5q-17 0 -30 -13.5t-27 -45.5z" />
    <glyph glyph-name="adieresis" unicode="&#xe4;" horiz-adv-x="516" 
d="M191 -7q-73 0 -117.5 37.5t-44.5 99.5q0 47 23.5 82t66 55t97.5 20q47 0 88.5 -12t72.5 -35l13 59q15 68 -13 102t-98 34q-30 0 -63.5 -8.5t-76.5 -28.5l-20 57q48 20 90.5 30t82.5 10q66 0 108 -23t58.5 -65.5t3.5 -101.5l-68 -305h-71l10 46q-34 -27 -69 -40t-73 -13z
M212 48q36 0 68.5 12.5t64.5 37.5l21 93q-28 22 -63 32t-80 10q-55 0 -90 -27t-35 -68q0 -43 30 -66.5t84 -23.5zM223 609q-20 0 -34 13.5t-14 33.5q0 22 17 38.5t40 16.5q20 0 34 -14t14 -34q0 -22 -16.5 -38t-40.5 -16zM427 609q-20 0 -34 13.5t-14 33.5q0 22 17 38.5
t40 16.5q20 0 34 -14t14 -34q0 -22 -16.5 -38t-40.5 -16z" />
    <glyph glyph-name="aring" unicode="&#xe5;" horiz-adv-x="516" 
d="M191 -7q-73 0 -117.5 37.5t-44.5 99.5q0 47 23.5 82t66 55t97.5 20q47 0 88.5 -12t72.5 -35l13 59q15 68 -13 102t-98 34q-30 0 -63.5 -8.5t-76.5 -28.5l-20 57q48 20 90.5 30t82.5 10q66 0 108 -23t58.5 -65.5t3.5 -101.5l-68 -305h-71l10 46q-34 -27 -69 -40t-73 -13z
M212 48q36 0 68.5 12.5t64.5 37.5l21 93q-28 22 -63 32t-80 10q-55 0 -90 -27t-35 -68q0 -43 30 -66.5t84 -23.5zM327 572q-44 0 -72.5 27.5t-28.5 70.5q0 33 16.5 61t43.5 45.5t58 17.5q45 0 73.5 -27.5t28.5 -70.5q0 -33 -16.5 -61t-43.5 -45.5t-59 -17.5zM327 612
q31 0 53.5 24t22.5 56q0 26 -16.5 43.5t-42.5 17.5q-30 0 -53 -23.5t-23 -56.5q0 -26 17 -43.5t42 -17.5z" />
    <glyph glyph-name="ae" unicode="&#xe6;" horiz-adv-x="851" 
d="M201 -7q-74 0 -119.5 38t-45.5 100q0 47 23 82t64.5 54.5t96.5 19.5q81 0 144 -36l8 50q12 67 -15 100.5t-95 33.5q-30 0 -63.5 -8.5t-76.5 -28.5l-20 57q50 20 92 30t82 10q61 0 100.5 -22t55.5 -63q35 41 82 63.5t99 22.5q57 0 101 -27.5t69 -76t25 -111.5
q0 -13 -0.5 -26t-2.5 -27h-374q-2 -48 18 -87.5t56 -63t82 -23.5q35 0 69 11.5t59 31.5l38 -52q-42 -28 -83 -41t-86 -13q-59 0 -106.5 23.5t-76.5 65.5q-46 -44 -95 -65.5t-105 -21.5zM438 280h302q1 43 -16.5 77.5t-47.5 54.5t-68 20q-40 0 -75 -19.5t-59.5 -53.5
t-35.5 -79zM218 48q42 0 82 18t79 54q-15 36 -18 78q-54 35 -134 35q-54 0 -88.5 -26.5t-34.5 -68.5q0 -43 30 -66.5t84 -23.5z" />
    <glyph glyph-name="ccedilla" unicode="&#xe7;" horiz-adv-x="497" 
d="M209 -239q-34 0 -61.5 11t-44.5 31l31 30q29 -32 73 -32q33 0 52.5 15t19.5 40q0 21 -17 33t-47 12h-28l41 92q-52 8 -92 37.5t-62.5 76t-22.5 103.5q0 58 21 109.5t57.5 90.5t84.5 61.5t102 22.5q55 0 105 -25t78 -68l-54 -45q-23 35 -57 53.5t-75 18.5
q-51 0 -94.5 -29.5t-70 -78t-26.5 -106.5q0 -45 20 -81t54 -57t76 -21q36 0 70 13t62 35l34 -47q-37 -31 -80.5 -47t-88.5 -18l-25 -57q38 -4 59.5 -22.5t21.5 -49.5q0 -28 -15.5 -51t-41.5 -36.5t-59 -13.5z" />
    <glyph glyph-name="egrave" unicode="&#xe8;" horiz-adv-x="545" 
d="M273 -9q-65 0 -115.5 28.5t-78.5 79.5t-28 117q0 58 19.5 108.5t54 89t80 60.5t97.5 22q57 0 101 -27.5t69.5 -76t25.5 -111.5q0 -13 -0.5 -26t-2.5 -27h-374q-2 -48 17.5 -87.5t55.5 -63t82 -23.5q35 0 69.5 11.5t59.5 31.5l38 -52q-43 -28 -84 -41t-86 -13zM128 280
h302q1 43 -16.5 77t-47.5 54.5t-69 20.5q-40 0 -74.5 -19.5t-59 -53.5t-35.5 -79zM292 584l-142 122h100l109 -122h-67z" />
    <glyph glyph-name="eacute" unicode="&#xe9;" horiz-adv-x="545" 
d="M273 -9q-65 0 -115.5 28.5t-78.5 79.5t-28 117q0 58 19.5 108.5t54 89t80 60.5t97.5 22q57 0 101 -27.5t69.5 -76t25.5 -111.5q0 -13 -0.5 -26t-2.5 -27h-374q-2 -48 17.5 -87.5t55.5 -63t82 -23.5q35 0 69.5 11.5t59.5 31.5l38 -52q-43 -28 -84 -41t-86 -13zM128 280
h302q1 43 -16.5 77t-47.5 54.5t-69 20.5q-40 0 -74.5 -19.5t-59 -53.5t-35.5 -79zM267 584l135 122h101l-166 -122h-70z" />
    <glyph glyph-name="ecircumflex" unicode="&#xea;" horiz-adv-x="545" 
d="M273 -9q-65 0 -115.5 28.5t-78.5 79.5t-28 117q0 58 19.5 108.5t54 89t80 60.5t97.5 22q57 0 101 -27.5t69.5 -76t25.5 -111.5q0 -13 -0.5 -26t-2.5 -27h-374q-2 -48 17.5 -87.5t55.5 -63t82 -23.5q35 0 69.5 11.5t59.5 31.5l38 -52q-43 -28 -84 -41t-86 -13zM128 280
h302q1 43 -16.5 77t-47.5 54.5t-69 20.5q-40 0 -74.5 -19.5t-59 -53.5t-35.5 -79zM167 579l137 127h77l87 -127h-56l-73 84l-111 -84h-61z" />
    <glyph glyph-name="edieresis" unicode="&#xeb;" horiz-adv-x="545" 
d="M273 -9q-65 0 -115.5 28.5t-78.5 79.5t-28 117q0 58 19.5 108.5t54 89t80 60.5t97.5 22q57 0 101 -27.5t69.5 -76t25.5 -111.5q0 -13 -0.5 -26t-2.5 -27h-374q-2 -48 17.5 -87.5t55.5 -63t82 -23.5q35 0 69.5 11.5t59.5 31.5l38 -52q-43 -28 -84 -41t-86 -13zM128 280
h302q1 43 -16.5 77t-47.5 54.5t-69 20.5q-40 0 -74.5 -19.5t-59 -53.5t-35.5 -79zM228 609q-20 0 -34 13.5t-14 33.5q0 22 17 38.5t40 16.5q20 0 34 -14t14 -34q0 -22 -16.5 -38t-40.5 -16zM432 609q-20 0 -34 13.5t-14 33.5q0 22 17 38.5t40 16.5q20 0 34 -14t14 -34
q0 -22 -16.5 -38t-40.5 -16z" />
    <glyph glyph-name="igrave" unicode="&#xec;" horiz-adv-x="220" 
d="M21 0l107 488h71l-106 -488h-72zM155 584l-142 122h100l109 -122h-67z" />
    <glyph glyph-name="iacute" unicode="&#xed;" horiz-adv-x="220" 
d="M21 0l107 488h71l-106 -488h-72zM130 584l135 122h101l-166 -122h-70z" />
    <glyph glyph-name="icircumflex" unicode="&#xee;" horiz-adv-x="220" 
d="M21 0l107 488h71l-106 -488h-72zM30 579l137 127h77l87 -127h-56l-73 84l-111 -84h-61z" />
    <glyph glyph-name="idieresis" unicode="&#xef;" horiz-adv-x="220" 
d="M21 0l107 488h71l-106 -488h-72zM91 609q-20 0 -34 13.5t-14 33.5q0 22 17 38.5t40 16.5q20 0 34 -14t14 -34q0 -22 -16.5 -38t-40.5 -16zM295 609q-20 0 -34 13.5t-14 33.5q0 22 17 38.5t40 16.5q20 0 34 -14t14 -34q0 -22 -16.5 -38t-40.5 -16z" />
    <glyph glyph-name="eth" unicode="&#xf0;" horiz-adv-x="578" 
d="M260 -10q-61 0 -108 28t-73.5 77t-26.5 113q0 76 32.5 137t88.5 97t124 36t117 -36t65 -92q4 70 -10.5 130t-46.5 107l-106 -52l-18 46l92 45q-19 19 -40.5 34.5t-47.5 26.5l39 50q32 -16 59 -36t49 -46l116 56l17 -45l-102 -51q62 -95 62 -230q0 -87 -20.5 -159.5
t-58.5 -125.5t-89.5 -81.5t-113.5 -28.5zM264 54q50 0 92.5 29t68 76t25.5 102q0 46 -19 81.5t-52 56t-75 20.5q-50 0 -92 -28.5t-67 -75t-25 -102.5q0 -47 18.5 -83t51 -56t74.5 -20z" />
    <glyph glyph-name="ntilde" unicode="&#xf1;" horiz-adv-x="542" 
d="M21 0l107 488h71l-15 -71q32 39 71 58.5t82 19.5q55 0 92 -25t51.5 -69t1.5 -101l-64 -300h-72l62 285q15 68 -13 109t-89 41q-37 0 -71 -17.5t-62 -50.5l-80 -367h-72zM225 585l-49 15q23 47 50.5 71.5t56.5 24.5q23 0 42 -9.5t36 -22t32.5 -22t30.5 -9.5t26 12.5
t27 47.5l49 -15q-22 -47 -48.5 -71.5t-55.5 -24.5q-22 0 -41 9.5t-36 21.5t-32.5 21.5t-30.5 9.5q-17 0 -30 -13.5t-27 -45.5z" />
    <glyph glyph-name="ograve" unicode="&#xf2;" horiz-adv-x="570" 
d="M261 -10q-61 0 -108.5 29.5t-74.5 81t-27 117.5q0 58 20 108.5t55 89t81.5 60t99.5 21.5q63 0 110.5 -29t74 -80.5t26.5 -118.5q0 -57 -20 -107.5t-55.5 -89t-82 -60.5t-99.5 -22zM265 55q51 0 92 28.5t65 77.5t24 108q0 73 -39 118.5t-103 45.5q-51 0 -92 -29
t-65.5 -77.5t-24.5 -107.5q0 -73 39.5 -118.5t103.5 -45.5zM301 584l-142 122h100l109 -122h-67z" />
    <glyph glyph-name="oacute" unicode="&#xf3;" horiz-adv-x="570" 
d="M261 -10q-61 0 -108.5 29.5t-74.5 81t-27 117.5q0 58 20 108.5t55 89t81.5 60t99.5 21.5q63 0 110.5 -29t74 -80.5t26.5 -118.5q0 -57 -20 -107.5t-55.5 -89t-82 -60.5t-99.5 -22zM265 55q51 0 92 28.5t65 77.5t24 108q0 73 -39 118.5t-103 45.5q-51 0 -92 -29
t-65.5 -77.5t-24.5 -107.5q0 -73 39.5 -118.5t103.5 -45.5zM276 584l135 122h101l-166 -122h-70z" />
    <glyph glyph-name="ocircumflex" unicode="&#xf4;" horiz-adv-x="570" 
d="M261 -10q-61 0 -108.5 29.5t-74.5 81t-27 117.5q0 58 20 108.5t55 89t81.5 60t99.5 21.5q63 0 110.5 -29t74 -80.5t26.5 -118.5q0 -57 -20 -107.5t-55.5 -89t-82 -60.5t-99.5 -22zM265 55q51 0 92 28.5t65 77.5t24 108q0 73 -39 118.5t-103 45.5q-51 0 -92 -29
t-65.5 -77.5t-24.5 -107.5q0 -73 39.5 -118.5t103.5 -45.5zM176 579l137 127h77l87 -127h-56l-73 84l-111 -84h-61z" />
    <glyph glyph-name="otilde" unicode="&#xf5;" horiz-adv-x="570" 
d="M261 -10q-61 0 -108.5 29.5t-74.5 81t-27 117.5q0 58 20 108.5t55 89t81.5 60t99.5 21.5q63 0 110.5 -29t74 -80.5t26.5 -118.5q0 -57 -20 -107.5t-55.5 -89t-82 -60.5t-99.5 -22zM265 55q51 0 92 28.5t65 77.5t24 108q0 73 -39 118.5t-103 45.5q-51 0 -92 -29
t-65.5 -77.5t-24.5 -107.5q0 -73 39.5 -118.5t103.5 -45.5zM214 585l-49 15q23 47 50.5 71.5t56.5 24.5q23 0 42 -9.5t36 -22t32.5 -22t30.5 -9.5t26 12.5t27 47.5l49 -15q-22 -47 -48.5 -71.5t-55.5 -24.5q-22 0 -41 9.5t-36 21.5t-32.5 21.5t-30.5 9.5q-17 0 -30 -13.5
t-27 -45.5z" />
    <glyph glyph-name="odieresis" unicode="&#xf6;" horiz-adv-x="570" 
d="M261 -10q-61 0 -108.5 29.5t-74.5 81t-27 117.5q0 58 20 108.5t55 89t81.5 60t99.5 21.5q63 0 110.5 -29t74 -80.5t26.5 -118.5q0 -57 -20 -107.5t-55.5 -89t-82 -60.5t-99.5 -22zM265 55q51 0 92 28.5t65 77.5t24 108q0 73 -39 118.5t-103 45.5q-51 0 -92 -29
t-65.5 -77.5t-24.5 -107.5q0 -73 39.5 -118.5t103.5 -45.5zM237 609q-20 0 -34 13.5t-14 33.5q0 22 17 38.5t40 16.5q20 0 34 -14t14 -34q0 -22 -16.5 -38t-40.5 -16zM441 609q-20 0 -34 13.5t-14 33.5q0 22 17 38.5t40 16.5q20 0 34 -14t14 -34q0 -22 -16.5 -38t-40.5 -16z
" />
    <glyph glyph-name="divide" unicode="&#xf7;" horiz-adv-x="599" 
d="M120 327l13 60h394l-13 -60h-394zM281 121q-21 0 -35.5 14.5t-14.5 34.5q0 23 18 40t41 17q20 0 34.5 -14.5t14.5 -35.5q0 -22 -17 -39t-41 -17zM359 489q-21 0 -35.5 14.5t-14.5 34.5q0 23 18 40t41 17q20 0 34.5 -14.5t14.5 -35.5q0 -22 -17 -39t-41 -17z" />
    <glyph glyph-name="oslash" unicode="&#xf8;" horiz-adv-x="570" 
d="M261 -10q-43 0 -79 14.5t-63 41.5l-51 -51h-65l86 86q-18 28 -28 62.5t-10 74.5q0 58 20 108.5t55 89t81.5 60t99.5 21.5q44 0 80 -14.5t64 -40.5l51 51h66l-87 -87q18 -28 27.5 -62.5t9.5 -74.5q0 -57 -20 -107.5t-55.5 -89t-82 -60.5t-99.5 -22zM141 132l261 261
q-19 19 -43.5 29.5t-54.5 10.5q-51 0 -92 -29t-65.5 -77.5t-24.5 -107.5q0 -25 5 -46.5t14 -40.5zM265 55q51 0 92 28.5t65 77.5t24 108q0 24 -4.5 45.5t-13.5 39.5l-260 -260q37 -39 97 -39z" />
    <glyph glyph-name="ugrave" unicode="&#xf9;" horiz-adv-x="541" 
d="M203 -7q-54 0 -91 25.5t-51.5 70t-2.5 100.5l65 299h72l-63 -285q-15 -67 13.5 -108.5t88.5 -41.5q38 0 71.5 17t61.5 51l80 367h72l-106 -488h-72l15 70q-33 -38 -71 -57.5t-82 -19.5zM303 584l-142 122h100l109 -122h-67z" />
    <glyph glyph-name="uacute" unicode="&#xfa;" horiz-adv-x="541" 
d="M203 -7q-54 0 -91 25.5t-51.5 70t-2.5 100.5l65 299h72l-63 -285q-15 -67 13.5 -108.5t88.5 -41.5q38 0 71.5 17t61.5 51l80 367h72l-106 -488h-72l15 70q-33 -38 -71 -57.5t-82 -19.5zM278 584l135 122h101l-166 -122h-70z" />
    <glyph glyph-name="ucircumflex" unicode="&#xfb;" horiz-adv-x="541" 
d="M203 -7q-54 0 -91 25.5t-51.5 70t-2.5 100.5l65 299h72l-63 -285q-15 -67 13.5 -108.5t88.5 -41.5q38 0 71.5 17t61.5 51l80 367h72l-106 -488h-72l15 70q-33 -38 -71 -57.5t-82 -19.5zM178 579l137 127h77l87 -127h-56l-73 84l-111 -84h-61z" />
    <glyph glyph-name="udieresis" unicode="&#xfc;" horiz-adv-x="541" 
d="M203 -7q-54 0 -91 25.5t-51.5 70t-2.5 100.5l65 299h72l-63 -285q-15 -67 13.5 -108.5t88.5 -41.5q38 0 71.5 17t61.5 51l80 367h72l-106 -488h-72l15 70q-33 -38 -71 -57.5t-82 -19.5zM239 609q-20 0 -34 13.5t-14 33.5q0 22 17 38.5t40 16.5q20 0 34 -14t14 -34
q0 -22 -16.5 -38t-40.5 -16zM443 609q-20 0 -34 13.5t-14 33.5q0 22 17 38.5t40 16.5q20 0 34 -14t14 -34q0 -22 -16.5 -38t-40.5 -16z" />
    <glyph glyph-name="yacute" unicode="&#xfd;" horiz-adv-x="489" 
d="M11 -219q-11 0 -24 2.5t-31 7.5l13 65q14 -3 24 -4.5t17 -1.5q29 0 50.5 13t39.5 44l52 88l-84 493h76l63 -404l238 404h81l-360 -605q-33 -55 -69.5 -78.5t-85.5 -23.5zM253 584l135 122h101l-166 -122h-70z" />
    <glyph glyph-name="thorn" unicode="&#xfe;" horiz-adv-x="571" 
d="M-23 -209l195 931l74 15l-64 -305q60 60 143 60q56 0 100 -29t69.5 -78.5t25.5 -113.5q0 -57 -20 -107.5t-54.5 -89t-80.5 -60.5t-98 -22q-107 0 -158 85l-60 -286h-72zM299 430q-73 0 -128 -55l-50 -238q18 -36 56 -58.5t81 -22.5q54 0 97 28t68.5 75.5t25.5 105.5
q0 74 -41.5 119.5t-108.5 45.5z" />
    <glyph glyph-name="ydieresis" unicode="&#xff;" horiz-adv-x="489" 
d="M11 -219q-11 0 -24 2.5t-31 7.5l13 65q14 -3 24 -4.5t17 -1.5q29 0 50.5 13t39.5 44l52 88l-84 493h76l63 -404l238 404h81l-360 -605q-33 -55 -69.5 -78.5t-85.5 -23.5zM214 609q-20 0 -34 13.5t-14 33.5q0 22 17 38.5t40 16.5q20 0 34 -14t14 -34q0 -22 -16.5 -38
t-40.5 -16zM418 609q-20 0 -34 13.5t-14 33.5q0 22 17 38.5t40 16.5q20 0 34 -14t14 -34q0 -22 -16.5 -38t-40.5 -16z" />
    <glyph glyph-name="Amacron" unicode="&#x100;" horiz-adv-x="647" 
d="M-44 0l416 700h91l122 -700h-77l-36 220h-304l-127 -220h-85zM203 281h259l-58 350zM300 823l11 52h268l-11 -52h-268z" />
    <glyph glyph-name="amacron" unicode="&#x101;" horiz-adv-x="516" 
d="M191 -7q-73 0 -117.5 37.5t-44.5 99.5q0 47 23.5 82t66 55t97.5 20q47 0 88.5 -12t72.5 -35l13 59q15 68 -13 102t-98 34q-30 0 -63.5 -8.5t-76.5 -28.5l-20 57q48 20 90.5 30t82.5 10q66 0 108 -23t58.5 -65.5t3.5 -101.5l-68 -305h-71l10 46q-34 -27 -69 -40t-73 -13z
M212 48q36 0 68.5 12.5t64.5 37.5l21 93q-28 22 -63 32t-80 10q-55 0 -90 -27t-35 -68q0 -43 30 -66.5t84 -23.5zM181 611l11 52h268l-11 -52h-268z" />
    <glyph glyph-name="Abreve" unicode="&#x102;" horiz-adv-x="647" 
d="M-44 0l416 700h91l122 -700h-77l-36 220h-304l-127 -220h-85zM203 281h259l-58 350zM444 792q-61 0 -98.5 35.5t-39.5 96.5l48 9q2 -46 25.5 -70.5t66.5 -24.5q79 0 119 92l49 -16q-25 -58 -69.5 -90t-100.5 -32z" />
    <glyph glyph-name="abreve" unicode="&#x103;" horiz-adv-x="516" 
d="M191 -7q-73 0 -117.5 37.5t-44.5 99.5q0 47 23.5 82t66 55t97.5 20q47 0 88.5 -12t72.5 -35l13 59q15 68 -13 102t-98 34q-30 0 -63.5 -8.5t-76.5 -28.5l-20 57q48 20 90.5 30t82.5 10q66 0 108 -23t58.5 -65.5t3.5 -101.5l-68 -305h-71l10 46q-34 -27 -69 -40t-73 -13z
M212 48q36 0 68.5 12.5t64.5 37.5l21 93q-28 22 -63 32t-80 10q-55 0 -90 -27t-35 -68q0 -43 30 -66.5t84 -23.5zM325 580q-61 0 -98.5 35.5t-39.5 96.5l48 9q2 -46 25.5 -70.5t66.5 -24.5q79 0 119 92l49 -16q-25 -58 -69.5 -90t-100.5 -32z" />
    <glyph glyph-name="Aogonek" unicode="&#x104;" horiz-adv-x="647" 
d="M499 -232q-43 0 -69 21.5t-26 56.5q0 83 122 154h-18l-36 220h-304l-127 -220h-85l416 700h91l122 -700q-67 -36 -98.5 -70t-31.5 -69q0 -22 17 -35t43 -13q11 0 23.5 2.5t22.5 6.5l4 -40q-13 -7 -30.5 -10.5t-35.5 -3.5zM203 281h259l-58 350z" />
    <glyph glyph-name="aogonek" unicode="&#x105;" horiz-adv-x="516" 
d="M307 -232q-43 0 -69 21.5t-26 56.5q0 83 122 154h-11l10 46q-34 -27 -69 -40t-73 -13q-73 0 -117.5 37.5t-44.5 99.5q0 47 23.5 82t66 55t97.5 20q47 0 88.5 -12t72.5 -35l13 59q15 68 -13 102t-98 34q-30 0 -63.5 -8.5t-76.5 -28.5l-20 57q48 20 90.5 30t82.5 10
q66 0 108 -23t58.5 -65.5t3.5 -101.5l-68 -305q-67 -36 -99 -70t-32 -69q0 -22 17 -35t43 -13q11 0 23.5 2.5t22.5 6.5l4 -40q-13 -7 -30.5 -10.5t-35.5 -3.5zM212 48q36 0 68.5 12.5t64.5 37.5l21 93q-28 22 -63 32t-80 10q-55 0 -90 -27t-35 -68q0 -43 30 -66.5t84 -23.5z
" />
    <glyph glyph-name="Cacute" unicode="&#x106;" horiz-adv-x="713" 
d="M401 -11q-69 0 -128.5 25t-103.5 69.5t-68.5 105t-24.5 131.5q0 80 29.5 150.5t81 124.5t119.5 84.5t145 30.5q83 0 149.5 -32t109.5 -94l-57 -50q-32 50 -86.5 78t-119.5 28q-61 0 -114.5 -24.5t-94 -68t-63 -101t-22.5 -123.5q0 -76 33 -136t90 -94.5t130 -34.5
q59 0 114.5 23.5t98.5 65.5l40 -52q-55 -51 -122 -78.5t-136 -27.5zM415 796l135 122h101l-166 -122h-70z" />
    <glyph glyph-name="cacute" unicode="&#x107;" horiz-adv-x="497" 
d="M261 -9q-60 0 -107.5 28.5t-75 78t-27.5 112.5q0 58 21 109.5t57.5 90.5t84.5 61.5t102 22.5q55 0 105 -25t78 -68l-54 -45q-23 35 -57 53.5t-75 18.5q-51 0 -94.5 -29.5t-70 -78t-26.5 -106.5q0 -45 20 -81t54 -57t76 -21q36 0 70 13t62 35l34 -47q-38 -32 -84 -48.5
t-93 -16.5zM281 584l135 122h101l-166 -122h-70z" />
    <glyph glyph-name="Ccircumflex" unicode="&#x108;" horiz-adv-x="713" 
d="M401 -11q-69 0 -128.5 25t-103.5 69.5t-68.5 105t-24.5 131.5q0 80 29.5 150.5t81 124.5t119.5 84.5t145 30.5q83 0 149.5 -32t109.5 -94l-57 -50q-32 50 -86.5 78t-119.5 28q-61 0 -114.5 -24.5t-94 -68t-63 -101t-22.5 -123.5q0 -76 33 -136t90 -94.5t130 -34.5
q59 0 114.5 23.5t98.5 65.5l40 -52q-55 -51 -122 -78.5t-136 -27.5zM315 791l137 127h77l87 -127h-56l-73 84l-111 -84h-61z" />
    <glyph glyph-name="ccircumflex" unicode="&#x109;" horiz-adv-x="497" 
d="M261 -9q-60 0 -107.5 28.5t-75 78t-27.5 112.5q0 58 21 109.5t57.5 90.5t84.5 61.5t102 22.5q55 0 105 -25t78 -68l-54 -45q-23 35 -57 53.5t-75 18.5q-51 0 -94.5 -29.5t-70 -78t-26.5 -106.5q0 -45 20 -81t54 -57t76 -21q36 0 70 13t62 35l34 -47q-38 -32 -84 -48.5
t-93 -16.5zM181 579l137 127h77l87 -127h-56l-73 84l-111 -84h-61z" />
    <glyph glyph-name="Cdotaccent" unicode="&#x10a;" horiz-adv-x="713" 
d="M401 -11q-69 0 -128.5 25t-103.5 69.5t-68.5 105t-24.5 131.5q0 80 29.5 150.5t81 124.5t119.5 84.5t145 30.5q83 0 149.5 -32t109.5 -94l-57 -50q-32 50 -86.5 78t-119.5 28q-61 0 -114.5 -24.5t-94 -68t-63 -101t-22.5 -123.5q0 -76 33 -136t90 -94.5t130 -34.5
q59 0 114.5 23.5t98.5 65.5l40 -52q-55 -51 -122 -78.5t-136 -27.5zM477 821q-20 0 -34 14.5t-14 33.5q0 22 17.5 39t39.5 17q20 0 34.5 -14.5t14.5 -34.5q0 -14 -8 -26.5t-21 -20.5t-29 -8z" />
    <glyph glyph-name="cdotaccent" unicode="&#x10b;" horiz-adv-x="497" 
d="M261 -9q-60 0 -107.5 28.5t-75 78t-27.5 112.5q0 58 21 109.5t57.5 90.5t84.5 61.5t102 22.5q55 0 105 -25t78 -68l-54 -45q-23 35 -57 53.5t-75 18.5q-51 0 -94.5 -29.5t-70 -78t-26.5 -106.5q0 -45 20 -81t54 -57t76 -21q36 0 70 13t62 35l34 -47q-38 -32 -84 -48.5
t-93 -16.5zM343 609q-20 0 -34 14.5t-14 33.5q0 22 17.5 39t39.5 17q20 0 34.5 -14.5t14.5 -34.5q0 -14 -8 -26.5t-21 -20.5t-29 -8z" />
    <glyph glyph-name="Ccaron" unicode="&#x10c;" horiz-adv-x="713" 
d="M401 -11q-69 0 -128.5 25t-103.5 69.5t-68.5 105t-24.5 131.5q0 80 29.5 150.5t81 124.5t119.5 84.5t145 30.5q83 0 149.5 -32t109.5 -94l-57 -50q-32 50 -86.5 78t-119.5 28q-61 0 -114.5 -24.5t-94 -68t-63 -101t-22.5 -123.5q0 -76 33 -136t90 -94.5t130 -34.5
q59 0 114.5 23.5t98.5 65.5l40 -52q-55 -51 -122 -78.5t-136 -27.5zM426 795l-86 127h57l72 -84l109 84h62l-137 -127h-77z" />
    <glyph glyph-name="ccaron" unicode="&#x10d;" horiz-adv-x="497" 
d="M261 -9q-60 0 -107.5 28.5t-75 78t-27.5 112.5q0 58 21 109.5t57.5 90.5t84.5 61.5t102 22.5q55 0 105 -25t78 -68l-54 -45q-23 35 -57 53.5t-75 18.5q-51 0 -94.5 -29.5t-70 -78t-26.5 -106.5q0 -45 20 -81t54 -57t76 -21q36 0 70 13t62 35l34 -47q-38 -32 -84 -48.5
t-93 -16.5zM292 583l-86 127h57l72 -84l109 84h62l-137 -127h-77z" />
    <glyph glyph-name="Dcaron" unicode="&#x10e;" horiz-adv-x="717" 
d="M34 0l149 700h199q90 0 157 -38.5t104.5 -108t37.5 -162.5q0 -81 -30.5 -151.5t-84 -124.5t-124 -84.5t-151.5 -30.5h-257zM379 631h-136l-119 -562h178q63 0 117.5 24.5t95.5 68.5t64.5 102t23.5 125q0 73 -28 127t-78.5 84.5t-117.5 30.5zM418 795l-86 127h57l72 -84
l109 84h62l-137 -127h-77z" />
    <glyph glyph-name="dcaron" unicode="&#x10f;" horiz-adv-x="654" 
d="M248 -7q-56 0 -100 29t-69 79t-25 113q0 57 19.5 107.5t54.5 89t80.5 60.5t97.5 22q50 0 89.5 -20t65.5 -58l63 307l74 15l-153 -737h-71l10 46q-28 -25 -62.5 -39t-73.5 -14zM274 56q68 0 122 48l52 252q-19 33 -55 53t-78 20q-53 0 -96 -28t-68.5 -75t-25.5 -106
q0 -73 41.5 -118.5t107.5 -45.5zM627 527l49 195l75 15l-66 -210h-58z" />
    <glyph glyph-name="Dcroat" unicode="&#x110;" horiz-adv-x="747" 
d="M64 0l69 322h-95l13 61h95l67 317h199q90 0 157 -38.5t104.5 -108t37.5 -162.5q0 -81 -30.5 -151.5t-84 -124.5t-124 -84.5t-151.5 -30.5h-257zM154 69h178q63 0 117.5 24.5t95.5 68.5t64.5 102t23.5 125q0 73 -28 127t-78.5 84.5t-117.5 30.5h-136l-53 -248h164l-13 -61
h-163z" />
    <glyph glyph-name="dcroat" unicode="&#x111;" horiz-adv-x="576" 
d="M245 -7q-56 0 -100 29t-69 79t-25 113q0 57 19.5 107.5t54.5 89t80.5 60.5t97.5 22q50 0 89.5 -20t65.5 -58l32 158h-136l12 50h135l19 92l74 15l-22 -107h68l-12 -50h-67l-119 -573h-71l10 46q-28 -25 -62.5 -39t-73.5 -14zM271 56q68 0 122 48l52 252q-19 33 -55 53
t-78 20q-53 0 -96 -28t-68.5 -75t-25.5 -106q0 -73 41.5 -118.5t107.5 -45.5z" />
    <glyph glyph-name="Emacron" unicode="&#x112;" horiz-adv-x="607" 
d="M34 0l149 700h468l-15 -67h-392l-53 -246h273l-14 -67h-273l-54 -253h397l-14 -67h-472zM296 823l11 52h268l-11 -52h-268z" />
    <glyph glyph-name="emacron" unicode="&#x113;" horiz-adv-x="545" 
d="M273 -9q-65 0 -115.5 28.5t-78.5 79.5t-28 117q0 58 19.5 108.5t54 89t80 60.5t97.5 22q57 0 101 -27.5t69.5 -76t25.5 -111.5q0 -13 -0.5 -26t-2.5 -27h-374q-2 -48 17.5 -87.5t55.5 -63t82 -23.5q35 0 69.5 11.5t59.5 31.5l38 -52q-43 -28 -84 -41t-86 -13zM128 280
h302q1 43 -16.5 77t-47.5 54.5t-69 20.5q-40 0 -74.5 -19.5t-59 -53.5t-35.5 -79zM186 611l11 52h268l-11 -52h-268z" />
    <glyph glyph-name="Ebreve" unicode="&#x114;" horiz-adv-x="607" 
d="M34 0l149 700h468l-15 -67h-392l-53 -246h273l-14 -67h-273l-54 -253h397l-14 -67h-472zM440 792q-61 0 -98.5 35.5t-39.5 96.5l48 9q2 -46 25.5 -70.5t66.5 -24.5q79 0 119 92l49 -16q-25 -58 -69.5 -90t-100.5 -32z" />
    <glyph glyph-name="ebreve" unicode="&#x115;" horiz-adv-x="545" 
d="M273 -9q-65 0 -115.5 28.5t-78.5 79.5t-28 117q0 58 19.5 108.5t54 89t80 60.5t97.5 22q57 0 101 -27.5t69.5 -76t25.5 -111.5q0 -13 -0.5 -26t-2.5 -27h-374q-2 -48 17.5 -87.5t55.5 -63t82 -23.5q35 0 69.5 11.5t59.5 31.5l38 -52q-43 -28 -84 -41t-86 -13zM128 280
h302q1 43 -16.5 77t-47.5 54.5t-69 20.5q-40 0 -74.5 -19.5t-59 -53.5t-35.5 -79zM330 580q-61 0 -98.5 35.5t-39.5 96.5l48 9q2 -46 25.5 -70.5t66.5 -24.5q79 0 119 92l49 -16q-25 -58 -69.5 -90t-100.5 -32z" />
    <glyph glyph-name="Edotaccent" unicode="&#x116;" horiz-adv-x="607" 
d="M34 0l149 700h468l-15 -67h-392l-53 -246h273l-14 -67h-273l-54 -253h397l-14 -67h-472zM439 821q-20 0 -34 14.5t-14 33.5q0 22 17.5 39t39.5 17q20 0 34.5 -14.5t14.5 -34.5q0 -14 -8 -26.5t-21 -20.5t-29 -8z" />
    <glyph glyph-name="edotaccent" unicode="&#x117;" horiz-adv-x="545" 
d="M273 -9q-65 0 -115.5 28.5t-78.5 79.5t-28 117q0 58 19.5 108.5t54 89t80 60.5t97.5 22q57 0 101 -27.5t69.5 -76t25.5 -111.5q0 -13 -0.5 -26t-2.5 -27h-374q-2 -48 17.5 -87.5t55.5 -63t82 -23.5q35 0 69.5 11.5t59.5 31.5l38 -52q-43 -28 -84 -41t-86 -13zM128 280
h302q1 43 -16.5 77t-47.5 54.5t-69 20.5q-40 0 -74.5 -19.5t-59 -53.5t-35.5 -79zM329 609q-20 0 -34 14.5t-14 33.5q0 22 17.5 39t39.5 17q20 0 34.5 -14.5t14.5 -34.5q0 -14 -8 -26.5t-21 -20.5t-29 -8z" />
    <glyph glyph-name="Eogonek" unicode="&#x118;" horiz-adv-x="607" 
d="M419 -232q-43 0 -69 21.5t-26 56.5q0 41 30.5 79.5t91.5 74.5h-412l149 700h468l-15 -67h-392l-53 -246h273l-14 -67h-273l-54 -253h397l-14 -67q-67 -36 -99 -70t-32 -69q0 -22 17 -35t43 -13q11 0 23.5 2.5t22.5 6.5l4 -40q-13 -7 -30.5 -10.5t-35.5 -3.5z" />
    <glyph glyph-name="eogonek" unicode="&#x119;" horiz-adv-x="545" 
d="M260 -232q-43 0 -69 21.5t-26 56.5q0 39 27 75t80 70q-65 0 -115 28.5t-78 79.5t-28 117q0 58 19.5 108.5t54 89t80 60.5t97.5 22q57 0 101 -27.5t69.5 -76t25.5 -111.5q0 -13 -0.5 -26t-2.5 -27h-374q-2 -47 18 -87t55.5 -63.5t81.5 -23.5q35 0 69.5 11.5t59.5 31.5
l38 -52q-25 -16 -48.5 -27t-47.5 -18q-67 -36 -99 -70t-32 -69q0 -22 17 -35t43 -13q11 0 23.5 2.5t22.5 6.5l4 -40q-13 -7 -30.5 -10.5t-35.5 -3.5zM297 432q-40 0 -74.5 -19.5t-59 -53.5t-35.5 -79h302q1 43 -16.5 77t-47.5 54.5t-69 20.5z" />
    <glyph glyph-name="Ecaron" unicode="&#x11a;" horiz-adv-x="607" 
d="M34 0l149 700h468l-15 -67h-392l-53 -246h273l-14 -67h-273l-54 -253h397l-14 -67h-472zM388 795l-86 127h57l72 -84l109 84h62l-137 -127h-77z" />
    <glyph glyph-name="ecaron" unicode="&#x11b;" horiz-adv-x="545" 
d="M273 -9q-65 0 -115.5 28.5t-78.5 79.5t-28 117q0 58 19.5 108.5t54 89t80 60.5t97.5 22q57 0 101 -27.5t69.5 -76t25.5 -111.5q0 -13 -0.5 -26t-2.5 -27h-374q-2 -48 17.5 -87.5t55.5 -63t82 -23.5q35 0 69.5 11.5t59.5 31.5l38 -52q-43 -28 -84 -41t-86 -13zM128 280
h302q1 43 -16.5 77t-47.5 54.5t-69 20.5q-40 0 -74.5 -19.5t-59 -53.5t-35.5 -79zM278 583l-86 127h57l72 -84l109 84h62l-137 -127h-77z" />
    <glyph glyph-name="Gcircumflex" unicode="&#x11c;" horiz-adv-x="785" 
d="M394 -10q-68 0 -126.5 25t-102 70t-68 105.5t-24.5 130.5q0 80 29.5 150.5t81.5 124.5t120 84.5t144 30.5q87 0 157.5 -33.5t117.5 -98.5l-59 -50q-34 53 -93 82.5t-128 29.5q-61 0 -114 -24.5t-93.5 -68.5t-63.5 -101.5t-23 -123.5q0 -76 32.5 -135.5t89.5 -94
t128 -34.5q65 0 120 30.5t93.5 84.5t51.5 124h-231l11 68h308l-9 -52q-16 -94 -66 -167.5t-123 -115t-160 -41.5zM313 791l137 127h77l87 -127h-56l-73 84l-111 -84h-61z" />
    <glyph glyph-name="gcircumflex" unicode="&#x11d;" horiz-adv-x="565" 
d="M231 -219q-53 0 -110 20t-99 53l38 53q84 -62 167 -62q54 0 89 28.5t46 80.5l20 94q-28 -26 -62.5 -40t-73.5 -14q-56 0 -100.5 29t-69.5 78.5t-25 112.5q0 57 19.5 107.5t54.5 89t80.5 60.5t97.5 22q50 0 90 -20t65 -58l15 73h71l-113 -540q-17 -81 -68.5 -124
t-131.5 -43zM271 56q34 0 65.5 12.5t57.5 36.5l52 252q-20 33 -56.5 52.5t-77.5 19.5q-53 0 -96 -28t-68.5 -75t-25.5 -106q0 -73 41.5 -118.5t107.5 -45.5zM190 579l137 127h77l87 -127h-56l-73 84l-111 -84h-61z" />
    <glyph glyph-name="Gbreve" unicode="&#x11e;" horiz-adv-x="785" 
d="M394 -10q-68 0 -126.5 25t-102 70t-68 105.5t-24.5 130.5q0 80 29.5 150.5t81.5 124.5t120 84.5t144 30.5q87 0 157.5 -33.5t117.5 -98.5l-59 -50q-34 53 -93 82.5t-128 29.5q-61 0 -114 -24.5t-93.5 -68.5t-63.5 -101.5t-23 -123.5q0 -76 32.5 -135.5t89.5 -94
t128 -34.5q65 0 120 30.5t93.5 84.5t51.5 124h-231l11 68h308l-9 -52q-16 -94 -66 -167.5t-123 -115t-160 -41.5zM476 792q-61 0 -98.5 35.5t-39.5 96.5l48 9q2 -46 25.5 -70.5t66.5 -24.5q79 0 119 92l49 -16q-25 -58 -69.5 -90t-100.5 -32z" />
    <glyph glyph-name="gbreve" unicode="&#x11f;" horiz-adv-x="565" 
d="M231 -219q-53 0 -110 20t-99 53l38 53q84 -62 167 -62q54 0 89 28.5t46 80.5l20 94q-28 -26 -62.5 -40t-73.5 -14q-56 0 -100.5 29t-69.5 78.5t-25 112.5q0 57 19.5 107.5t54.5 89t80.5 60.5t97.5 22q50 0 90 -20t65 -58l15 73h71l-113 -540q-17 -81 -68.5 -124
t-131.5 -43zM271 56q34 0 65.5 12.5t57.5 36.5l52 252q-20 33 -56.5 52.5t-77.5 19.5q-53 0 -96 -28t-68.5 -75t-25.5 -106q0 -73 41.5 -118.5t107.5 -45.5zM353 580q-61 0 -98.5 35.5t-39.5 96.5l48 9q2 -46 25.5 -70.5t66.5 -24.5q79 0 119 92l49 -16q-25 -58 -69.5 -90
t-100.5 -32z" />
    <glyph glyph-name="Gdotaccent" unicode="&#x120;" horiz-adv-x="785" 
d="M394 -10q-68 0 -126.5 25t-102 70t-68 105.5t-24.5 130.5q0 80 29.5 150.5t81.5 124.5t120 84.5t144 30.5q87 0 157.5 -33.5t117.5 -98.5l-59 -50q-34 53 -93 82.5t-128 29.5q-61 0 -114 -24.5t-93.5 -68.5t-63.5 -101.5t-23 -123.5q0 -76 32.5 -135.5t89.5 -94
t128 -34.5q65 0 120 30.5t93.5 84.5t51.5 124h-231l11 68h308l-9 -52q-16 -94 -66 -167.5t-123 -115t-160 -41.5zM475 821q-20 0 -34 14.5t-14 33.5q0 22 17.5 39t39.5 17q20 0 34.5 -14.5t14.5 -34.5q0 -14 -8 -26.5t-21 -20.5t-29 -8z" />
    <glyph glyph-name="gdotaccent" unicode="&#x121;" horiz-adv-x="565" 
d="M231 -219q-53 0 -110 20t-99 53l38 53q84 -62 167 -62q54 0 89 28.5t46 80.5l20 94q-28 -26 -62.5 -40t-73.5 -14q-56 0 -100.5 29t-69.5 78.5t-25 112.5q0 57 19.5 107.5t54.5 89t80.5 60.5t97.5 22q50 0 90 -20t65 -58l15 73h71l-113 -540q-17 -81 -68.5 -124
t-131.5 -43zM271 56q34 0 65.5 12.5t57.5 36.5l52 252q-20 33 -56.5 52.5t-77.5 19.5q-53 0 -96 -28t-68.5 -75t-25.5 -106q0 -73 41.5 -118.5t107.5 -45.5zM352 609q-20 0 -34 14.5t-14 33.5q0 22 17.5 39t39.5 17q20 0 34.5 -14.5t14.5 -34.5q0 -14 -8 -26.5t-21 -20.5
t-29 -8z" />
    <glyph glyph-name="Gcommaaccent" unicode="&#x122;" horiz-adv-x="785" 
d="M394 -10q-68 0 -126.5 25t-102 70t-68 105.5t-24.5 130.5q0 80 29.5 150.5t81.5 124.5t120 84.5t144 30.5q87 0 157.5 -33.5t117.5 -98.5l-59 -50q-34 53 -93 82.5t-128 29.5q-61 0 -114 -24.5t-93.5 -68.5t-63.5 -101.5t-23 -123.5q0 -76 32.5 -135.5t89.5 -94
t128 -34.5q65 0 120 30.5t93.5 84.5t51.5 124h-231l11 68h308l-9 -52q-16 -94 -66 -167.5t-123 -115t-160 -41.5zM257 -274l87 187h77l-111 -187h-53z" />
    <glyph glyph-name="gcommaaccent" unicode="&#x123;" horiz-adv-x="565" 
d="M231 -219q-53 0 -110 20t-99 53l38 53q84 -62 167 -62q54 0 89 28.5t46 80.5l20 94q-28 -26 -62.5 -40t-73.5 -14q-56 0 -100.5 29t-69.5 78.5t-25 112.5q0 57 19.5 107.5t54.5 89t80.5 60.5t97.5 22q50 0 90 -20t65 -58l15 73h71l-113 -540q-17 -81 -68.5 -124
t-131.5 -43zM271 56q34 0 65.5 12.5t57.5 36.5l52 252q-20 33 -56.5 52.5t-77.5 19.5q-53 0 -96 -28t-68.5 -75t-25.5 -106q0 -73 41.5 -118.5t107.5 -45.5zM474 797l-87 -187h-77l111 187h53z" />
    <glyph glyph-name="Hcircumflex" unicode="&#x124;" horiz-adv-x="717" 
d="M32 0l149 700h76l-67 -313h394l67 313h76l-149 -700h-76l68 318h-394l-68 -318h-76zM322 791l137 127h77l87 -127h-56l-73 84l-111 -84h-61z" />
    <glyph glyph-name="hcircumflex" unicode="&#x125;" horiz-adv-x="542" 
d="M21 0l150 722l75 15l-67 -326q34 42 73.5 63t84.5 21q55 0 92 -25t51.5 -69t1.5 -101l-64 -300h-72l62 285q15 68 -13 109t-89 41q-40 0 -76 -19.5t-62 -54.5l-75 -361h-72zM69 791l137 127h77l87 -127h-56l-73 84l-111 -84h-61z" />
    <glyph glyph-name="Hbar" unicode="&#x126;" horiz-adv-x="735" 
d="M39 0l111 521h-84l14 61h83l25 118h75l-25 -118h395l25 118h75l-25 -118h84l-14 -61h-83l-111 -521h-75l68 319h-395l-68 -319h-75zM196 386h395l29 135h-395z" />
    <glyph glyph-name="hbar" unicode="&#x127;" horiz-adv-x="547" 
d="M27 0l119 573h-57l12 50h56l19 92l75 15l-22 -107h146l-12 -50h-145l-33 -162q34 42 73.5 63t84.5 21q55 0 92 -25t51.5 -69t1.5 -101l-64 -300h-72l62 285q15 68 -13 109t-89 41q-40 0 -76 -19.5t-62 -54.5l-75 -361h-72z" />
    <glyph glyph-name="Itilde" unicode="&#x128;" horiz-adv-x="247" 
d="M32 0l149 700h75l-149 -700h-75zM124 797l-49 15q23 47 50.5 71.5t56.5 24.5q23 0 42 -9.5t36 -22t32.5 -22t30.5 -9.5t26 12.5t27 47.5l49 -15q-22 -47 -48.5 -71.5t-55.5 -24.5q-22 0 -41 9.5t-36 21.5t-32.5 21.5t-30.5 9.5q-17 0 -30 -13.5t-27 -45.5z" />
    <glyph glyph-name="itilde" unicode="&#x129;" horiz-adv-x="220" 
d="M21 0l107 488h71l-106 -488h-72zM68 585l-49 15q23 47 50.5 71.5t56.5 24.5q23 0 42 -9.5t36 -22t32.5 -22t30.5 -9.5t26 12.5t27 47.5l49 -15q-22 -47 -48.5 -71.5t-55.5 -24.5q-22 0 -41 9.5t-36 21.5t-32.5 21.5t-30.5 9.5q-17 0 -30 -13.5t-27 -45.5z" />
    <glyph glyph-name="Imacron" unicode="&#x12a;" horiz-adv-x="247" 
d="M32 0l149 700h75l-149 -700h-75zM105 823l11 52h268l-11 -52h-268z" />
    <glyph glyph-name="imacron" unicode="&#x12b;" horiz-adv-x="220" 
d="M21 0l107 488h71l-106 -488h-72zM49 611l11 52h268l-11 -52h-268z" />
    <glyph glyph-name="Ibreve" unicode="&#x12c;" horiz-adv-x="247" 
d="M32 0l149 700h75l-149 -700h-75zM249 792q-61 0 -98.5 35.5t-39.5 96.5l48 9q2 -46 25.5 -70.5t66.5 -24.5q79 0 119 92l49 -16q-25 -58 -69.5 -90t-100.5 -32z" />
    <glyph glyph-name="ibreve" unicode="&#x12d;" horiz-adv-x="220" 
d="M21 0l107 488h71l-106 -488h-72zM193 580q-61 0 -98.5 35.5t-39.5 96.5l48 9q2 -46 25.5 -70.5t66.5 -24.5q79 0 119 92l49 -16q-25 -58 -69.5 -90t-100.5 -32z" />
    <glyph glyph-name="Iogonek" unicode="&#x12e;" horiz-adv-x="247" 
d="M20 -232q-43 0 -69 21.5t-26 56.5q0 83 122 154h-15l149 700h75l-149 -700q-67 -36 -99 -70t-32 -69q0 -22 17 -35t43 -13q11 0 23.5 2.5t22.5 6.5l4 -40q-13 -7 -30.5 -10.5t-35.5 -3.5z" />
    <glyph glyph-name="iogonek" unicode="&#x12f;" horiz-adv-x="220" 
d="M189 608q-20 0 -33 13.5t-13 33.5q0 15 8 28.5t21 21.5t28 8q20 0 33 -13.5t13 -33.5q0 -23 -17 -40.5t-40 -17.5zM6 -232q-43 0 -69 21.5t-26 56.5q0 83 122 154h-12l107 488h71l-106 -488q-67 -36 -99 -70t-32 -69q0 -22 17 -35t43 -13q11 0 23.5 2.5t22.5 6.5l4 -40
q-13 -7 -30.5 -10.5t-35.5 -3.5z" />
    <glyph glyph-name="Idotaccent" unicode="&#x130;" horiz-adv-x="247" 
d="M32 0l149 700h75l-149 -700h-75zM248 821q-20 0 -34 14.5t-14 33.5q0 22 17.5 39t39.5 17q20 0 34.5 -14.5t14.5 -34.5q0 -14 -8 -26.5t-21 -20.5t-29 -8z" />
    <glyph glyph-name="dotlessi" unicode="&#x131;" horiz-adv-x="220" 
d="M21 0l107 488h71l-106 -488h-72z" />
    <glyph glyph-name="IJ" unicode="&#x132;" horiz-adv-x="836" 
d="M32 0l149 700h75l-149 -700h-75zM482 -11q-88 0 -147.5 48.5t-76.5 133.5l68 25q14 -68 53 -102.5t103 -34.5q77 0 131 54t75 151l93 436h76l-94 -443q-18 -86 -57 -146t-95.5 -91t-128.5 -31z" />
    <glyph glyph-name="ij" unicode="&#x133;" horiz-adv-x="443" 
d="M189 608q-20 0 -33 13.5t-13 33.5q0 15 8 28.5t21 21.5t28 8q20 0 33 -13.5t13 -33.5q0 -23 -17 -40.5t-40 -17.5zM21 0l107 488h71l-106 -488h-72zM410 608q-20 0 -33 13.5t-13 33.5q0 15 8 28.5t21 21.5t28 8q20 0 33 -13.5t13 -33.5q0 -23 -17 -40.5t-40 -17.5z
M158 -219q-13 0 -27.5 2t-24.5 6l14 63q8 -3 17.5 -4.5t22.5 -1.5q27 0 42.5 14t22.5 47l124 581h72l-127 -588q-12 -57 -47.5 -88t-88.5 -31z" />
    <glyph glyph-name="Jcircumflex" unicode="&#x134;" horiz-adv-x="588" 
d="M235 -11q-88 0 -147.5 48.5t-76.5 133.5l68 25q14 -68 53 -102.5t103 -34.5q77 0 131 54t75 151l93 436h76l-94 -443q-18 -86 -57 -146t-95.5 -91t-128.5 -31zM439 791l137 127h77l87 -127h-56l-73 84l-111 -84h-61z" />
    <glyph glyph-name="jcircumflex" unicode="&#x135;" horiz-adv-x="220" 
d="M-63 -212q-13 0 -27 2t-24 6l14 63q15 -6 39 -6q28 0 43.5 14t22.5 47l123 574h72l-126 -580q-11 -57 -47 -88.5t-90 -31.5zM30 579l137 127h77l87 -127h-56l-73 84l-111 -84h-61z" />
    <glyph glyph-name="Kcommaaccent" unicode="&#x136;" horiz-adv-x="597" 
d="M34 0l149 700h75l-69 -322l399 322h101l-426 -343l281 -357h-95l-267 344l-73 -344h-75zM157 -274l87 187h77l-111 -187h-53z" />
    <glyph glyph-name="kcommaaccent" unicode="&#x137;" horiz-adv-x="478" 
d="M21 0l152 722l74 15l-97 -464l271 215h96l-304 -238l202 -250h-85l-188 236l-49 -236h-72zM76 -274l87 187h77l-111 -187h-53z" />
    <glyph glyph-name="kgreenlandic" unicode="&#x138;" horiz-adv-x="478" 
d="M21 0l107 488h71l-47 -218l273 218h96l-308 -241l195 -247h-87l-178 230l-50 -230h-72z" />
    <glyph glyph-name="Lacute" unicode="&#x139;" horiz-adv-x="595" 
d="M34 0l149 700h75l-135 -632h387l-14 -68h-462zM188 796l135 122h101l-166 -122h-70z" />
    <glyph glyph-name="lacute" unicode="&#x13a;" horiz-adv-x="220" 
d="M21 0l151 722l74 15l-153 -737h-72zM170 796l135 122h101l-166 -122h-70z" />
    <glyph glyph-name="Lcommaaccent" unicode="&#x13b;" horiz-adv-x="595" 
d="M34 0l149 700h75l-135 -632h387l-14 -68h-462zM151 -274l87 187h77l-111 -187h-53z" />
    <glyph glyph-name="lcommaaccent" unicode="&#x13c;" horiz-adv-x="220" 
d="M21 0l151 722l74 15l-153 -737h-72zM-74 -274l87 187h77l-111 -187h-53z" />
    <glyph glyph-name="Lcaron" unicode="&#x13d;" horiz-adv-x="606" 
d="M34 0l149 700h75l-135 -632h387l-14 -68h-462zM472 527l49 195l75 15l-66 -210h-58z" />
    <glyph glyph-name="lcaron" unicode="&#x13e;" horiz-adv-x="305" 
d="M36 0l151 722l74 15l-153 -737h-72zM290 527l49 195l75 15l-66 -210h-58z" />
    <glyph glyph-name="Ldot" unicode="&#x13f;" horiz-adv-x="607" 
d="M34 0l149 700h75l-135 -632h387l-14 -68h-462zM435 313q-20 0 -34 14.5t-14 33.5q0 22 17.5 39t39.5 17q20 0 34.5 -14.5t14.5 -34.5q0 -14 -8 -26.5t-21 -20.5t-29 -8z" />
    <glyph glyph-name="ldot" unicode="&#x140;" horiz-adv-x="313" 
d="M36 0l151 722l74 15l-153 -737h-72zM291 310q-20 0 -34 14.5t-14 33.5q0 22 17.5 39t39.5 17q20 0 34.5 -14.5t14.5 -34.5q0 -14 -8 -26.5t-21 -20.5t-29 -8z" />
    <glyph glyph-name="Lslash" unicode="&#x141;" horiz-adv-x="616" 
d="M52 0l52 243l-108 -73l16 76l108 73l81 381h75l-69 -322l203 137l-15 -76l-204 -137l-50 -234h387l-14 -68h-462z" />
    <glyph glyph-name="lslash" unicode="&#x142;" horiz-adv-x="257" 
d="M46 0l63 301l-105 -74l17 78l104 73l71 337l74 15l-61 -294l110 77l-17 -77l-109 -77l-75 -359h-72z" />
    <glyph glyph-name="Nacute" unicode="&#x143;" horiz-adv-x="725" 
d="M34 0l148 700h78l280 -587l121 587h71l-148 -700h-68l-287 599l-124 -599h-71zM417 796l135 122h101l-166 -122h-70z" />
    <glyph glyph-name="nacute" unicode="&#x144;" horiz-adv-x="542" 
d="M21 0l107 488h71l-15 -71q32 39 71 58.5t82 19.5q55 0 92 -25t51.5 -69t1.5 -101l-64 -300h-72l62 285q15 68 -13 109t-89 41q-37 0 -71 -17.5t-62 -50.5l-80 -367h-72zM287 584l135 122h101l-166 -122h-70z" />
    <glyph glyph-name="Ncommaaccent" unicode="&#x145;" horiz-adv-x="725" 
d="M34 0l148 700h78l280 -587l121 587h71l-148 -700h-68l-287 599l-124 -599h-71zM171 -274l87 187h77l-111 -187h-53z" />
    <glyph glyph-name="ncommaaccent" unicode="&#x146;" horiz-adv-x="542" 
d="M21 0l107 488h71l-15 -71q32 39 71 58.5t82 19.5q55 0 92 -25t51.5 -69t1.5 -101l-64 -300h-72l62 285q15 68 -13 109t-89 41q-37 0 -71 -17.5t-62 -50.5l-80 -367h-72zM85 -274l87 187h77l-111 -187h-53z" />
    <glyph glyph-name="Ncaron" unicode="&#x147;" horiz-adv-x="725" 
d="M34 0l148 700h78l280 -587l121 587h71l-148 -700h-68l-287 599l-124 -599h-71zM428 795l-86 127h57l72 -84l109 84h62l-137 -127h-77z" />
    <glyph glyph-name="ncaron" unicode="&#x148;" horiz-adv-x="542" 
d="M21 0l107 488h71l-15 -71q32 39 71 58.5t82 19.5q55 0 92 -25t51.5 -69t1.5 -101l-64 -300h-72l62 285q15 68 -13 109t-89 41q-37 0 -71 -17.5t-62 -50.5l-80 -367h-72zM298 583l-86 127h57l72 -84l109 84h62l-137 -127h-77z" />
    <glyph glyph-name="Eng" unicode="&#x14a;" horiz-adv-x="725" 
d="M427 -207q-14 0 -28 2t-23 6l13 62q8 -3 17.5 -4.5t22.5 -1.5q29 0 46 16t24 49l17 80l-287 596l-124 -598h-71l148 700h79l279 -582l121 582h71l-167 -787q-12 -57 -48.5 -88.5t-89.5 -31.5z" />
    <glyph glyph-name="eng" unicode="&#x14b;" horiz-adv-x="542" 
d="M262 -212q-13 0 -27 2t-24 6l13 64q8 -3 17.5 -4.5t22.5 -1.5q28 0 43 14.5t22 46.5l79 371q14 67 -14 108t-88 41q-76 0 -133 -68l-80 -367h-72l107 488h71l-15 -71q32 39 71 58.5t82 19.5q55 0 92 -25t52 -68t2 -99l-84 -395q-12 -57 -48 -88.5t-89 -31.5z" />
    <glyph glyph-name="Omacron" unicode="&#x14c;" horiz-adv-x="795" 
d="M392 -11q-67 0 -125 25t-101 70t-67 105.5t-24 130.5q0 80 29 150.5t79.5 124.5t117 85t141.5 31q68 0 125.5 -25t100.5 -70t67 -105t24 -131q0 -80 -29 -150.5t-79.5 -124.5t-117 -85t-141.5 -31zM397 59q59 0 110.5 25t91 68.5t62 101t22.5 122.5q0 76 -32 136
t-87.5 94.5t-125.5 34.5q-59 0 -111 -25t-91.5 -68.5t-62 -101t-22.5 -122.5q0 -75 32 -135t88 -95t126 -35zM330 823l11 52h268l-11 -52h-268z" />
    <glyph glyph-name="omacron" unicode="&#x14d;" horiz-adv-x="570" 
d="M261 -10q-61 0 -108.5 29.5t-74.5 81t-27 117.5q0 58 20 108.5t55 89t81.5 60t99.5 21.5q63 0 110.5 -29t74 -80.5t26.5 -118.5q0 -57 -20 -107.5t-55.5 -89t-82 -60.5t-99.5 -22zM265 55q51 0 92 28.5t65 77.5t24 108q0 73 -39 118.5t-103 45.5q-51 0 -92 -29
t-65.5 -77.5t-24.5 -107.5q0 -73 39.5 -118.5t103.5 -45.5zM195 611l11 52h268l-11 -52h-268z" />
    <glyph glyph-name="Obreve" unicode="&#x14e;" horiz-adv-x="795" 
d="M392 -11q-67 0 -125 25t-101 70t-67 105.5t-24 130.5q0 80 29 150.5t79.5 124.5t117 85t141.5 31q68 0 125.5 -25t100.5 -70t67 -105t24 -131q0 -80 -29 -150.5t-79.5 -124.5t-117 -85t-141.5 -31zM397 59q59 0 110.5 25t91 68.5t62 101t22.5 122.5q0 76 -32 136
t-87.5 94.5t-125.5 34.5q-59 0 -111 -25t-91.5 -68.5t-62 -101t-22.5 -122.5q0 -75 32 -135t88 -95t126 -35zM474 792q-61 0 -98.5 35.5t-39.5 96.5l48 9q2 -46 25.5 -70.5t66.5 -24.5q79 0 119 92l49 -16q-25 -58 -69.5 -90t-100.5 -32z" />
    <glyph glyph-name="obreve" unicode="&#x14f;" horiz-adv-x="570" 
d="M261 -10q-61 0 -108.5 29.5t-74.5 81t-27 117.5q0 58 20 108.5t55 89t81.5 60t99.5 21.5q63 0 110.5 -29t74 -80.5t26.5 -118.5q0 -57 -20 -107.5t-55.5 -89t-82 -60.5t-99.5 -22zM265 55q51 0 92 28.5t65 77.5t24 108q0 73 -39 118.5t-103 45.5q-51 0 -92 -29
t-65.5 -77.5t-24.5 -107.5q0 -73 39.5 -118.5t103.5 -45.5zM339 580q-61 0 -98.5 35.5t-39.5 96.5l48 9q2 -46 25.5 -70.5t66.5 -24.5q79 0 119 92l49 -16q-25 -58 -69.5 -90t-100.5 -32z" />
    <glyph glyph-name="Ohungarumlaut" unicode="&#x150;" horiz-adv-x="795" 
d="M392 -11q-67 0 -125 25t-101 70t-67 105.5t-24 130.5q0 80 29 150.5t79.5 124.5t117 85t141.5 31q68 0 125.5 -25t100.5 -70t67 -105t24 -131q0 -80 -29 -150.5t-79.5 -124.5t-117 -85t-141.5 -31zM397 59q59 0 110.5 25t91 68.5t62 101t22.5 122.5q0 76 -32 136
t-87.5 94.5t-125.5 34.5q-59 0 -111 -25t-91.5 -68.5t-62 -101t-22.5 -122.5q0 -75 32 -135t88 -95t126 -35zM467 918h84l-165 -124h-70zM637 918h84l-167 -124h-68z" />
    <glyph glyph-name="ohungarumlaut" unicode="&#x151;" horiz-adv-x="570" 
d="M261 -10q-61 0 -108.5 29.5t-74.5 81t-27 117.5q0 58 20 108.5t55 89t81.5 60t99.5 21.5q63 0 110.5 -29t74 -80.5t26.5 -118.5q0 -57 -20 -107.5t-55.5 -89t-82 -60.5t-99.5 -22zM265 55q51 0 92 28.5t65 77.5t24 108q0 73 -39 118.5t-103 45.5q-51 0 -92 -29
t-65.5 -77.5t-24.5 -107.5q0 -73 39.5 -118.5t103.5 -45.5zM332 706h84l-165 -124h-70zM502 706h84l-167 -124h-68z" />
    <glyph glyph-name="OE" unicode="&#x152;" horiz-adv-x="1047" 
d="M379 0q-89 0 -158 40.5t-108 111.5t-39 162q0 80 29 150t80.5 123t119.5 83t145 30h643l-15 -68h-459q52 -41 81.5 -105t29.5 -140h177l-15 -67h-168q-13 -77 -54.5 -143t-102.5 -109h391l-14 -68h-563zM375 70q57 0 108 24.5t89.5 68t60.5 100t22 120.5q0 72 -29 127.5
t-79.5 87.5t-115.5 32q-57 0 -108 -24.5t-89.5 -68t-61 -100t-22.5 -119.5q0 -72 29 -128t80 -88t116 -32z" />
    <glyph glyph-name="oe" unicode="&#x153;" horiz-adv-x="941" 
d="M261 -10q-61 0 -108.5 29.5t-74.5 81t-27 117.5q0 58 20 108.5t55 89t81.5 60t99.5 21.5q65 0 114 -32t74 -88q34 54 87.5 86.5t116.5 32.5q57 0 101.5 -27.5t69.5 -76t25 -111.5q0 -13 -0.5 -26t-2.5 -27h-374q-2 -49 18 -88.5t55.5 -62.5t81.5 -23q35 0 69.5 11.5
t59.5 31.5l38 -52q-43 -28 -84 -41t-86 -13q-69 0 -121 32.5t-78 87.5q-34 -55 -89.5 -88t-120.5 -33zM265 55q51 0 92 28.5t65 77.5t24 108q0 73 -39 118.5t-103 45.5q-51 0 -92 -29t-65.5 -77.5t-24.5 -107.5q0 -73 39.5 -118.5t103.5 -45.5zM694 432q-40 0 -74.5 -19.5
t-59 -53.5t-35.5 -79h302q1 43 -16.5 77t-47.5 54.5t-69 20.5z" />
    <glyph glyph-name="Racute" unicode="&#x154;" horiz-adv-x="634" 
d="M34 0l149 700h263q60 0 103.5 -21.5t67 -61.5t23.5 -94q0 -56 -24 -102t-66.5 -76.5t-98.5 -40.5l91 -304h-79l-88 299h-202l-64 -299h-75zM186 363h211q49 0 87 20t59.5 55t21.5 80q0 53 -35 83.5t-95 30.5h-191zM372 796l135 122h101l-166 -122h-70z" />
    <glyph glyph-name="racute" unicode="&#x155;" horiz-adv-x="344" 
d="M19 0l107 488h72l-20 -89q28 47 66 72.5t81 25.5q29 0 51 -9l-15 -66q-9 5 -24.5 8t-30.5 3q-40 0 -76 -23.5t-64 -67.5l-75 -342h-72zM212 584l135 122h101l-166 -122h-70z" />
    <glyph glyph-name="Rcommaaccent" unicode="&#x156;" horiz-adv-x="634" 
d="M34 0l149 700h263q60 0 103.5 -21.5t67 -61.5t23.5 -94q0 -56 -24 -102t-66.5 -76.5t-98.5 -40.5l91 -304h-79l-88 299h-202l-64 -299h-75zM186 363h211q49 0 87 20t59.5 55t21.5 80q0 53 -35 83.5t-95 30.5h-191zM128 -274l87 187h77l-111 -187h-53z" />
    <glyph glyph-name="rcommaaccent" unicode="&#x157;" horiz-adv-x="344" 
d="M19 0l107 488h72l-20 -89q28 47 66 72.5t81 25.5q29 0 51 -9l-15 -66q-9 5 -24.5 8t-30.5 3q-40 0 -76 -23.5t-64 -67.5l-75 -342h-72zM-75 -274l87 187h77l-111 -187h-53z" />
    <glyph glyph-name="Rcaron" unicode="&#x158;" horiz-adv-x="634" 
d="M34 0l149 700h263q60 0 103.5 -21.5t67 -61.5t23.5 -94q0 -56 -24 -102t-66.5 -76.5t-98.5 -40.5l91 -304h-79l-88 299h-202l-64 -299h-75zM186 363h211q49 0 87 20t59.5 55t21.5 80q0 53 -35 83.5t-95 30.5h-191zM383 795l-86 127h57l72 -84l109 84h62l-137 -127h-77z
" />
    <glyph glyph-name="rcaron" unicode="&#x159;" horiz-adv-x="344" 
d="M19 0l107 488h72l-20 -89q28 47 66 72.5t81 25.5q29 0 51 -9l-15 -66q-9 5 -24.5 8t-30.5 3q-40 0 -76 -23.5t-64 -67.5l-75 -342h-72zM223 583l-86 127h57l72 -84l109 84h62l-137 -127h-77z" />
    <glyph glyph-name="Sacute" unicode="&#x15a;" horiz-adv-x="612" 
d="M306 -10q-82 0 -155.5 35.5t-133.5 105.5l51 52q60 -65 118.5 -97t121.5 -32q53 0 94 18.5t65 51.5t24 74q0 44 -30.5 70t-104.5 47l-107 27q-78 20 -117.5 63t-39.5 106q0 60 30 104.5t84.5 69t126.5 24.5q80 0 152 -28.5t127 -81.5l-48 -55q-49 48 -109.5 74t-124.5 26
q-74 0 -119 -33.5t-45 -89.5q0 -43 28 -70t86 -43l105 -26q95 -26 138 -67t43 -106t-33 -114.5t-91.5 -77t-135.5 -27.5zM323 796l135 122h101l-166 -122h-70z" />
    <glyph glyph-name="sacute" unicode="&#x15b;" horiz-adv-x="443" 
d="M204 -10q-59 0 -110.5 22t-90.5 64l44 46q44 -41 79 -57t79 -16q49 0 82.5 26.5t33.5 63.5q0 26 -16.5 41.5t-57.5 27.5l-77 20q-58 17 -85.5 47.5t-27.5 77.5q0 64 48 104t124 40q53 0 100.5 -18.5t90.5 -55.5l-44 -49q-36 30 -75.5 46.5t-75.5 16.5q-46 0 -74.5 -21
t-28.5 -56q0 -27 16 -43t54 -27l78 -22q63 -18 91 -46t28 -74q0 -45 -24 -80.5t-66 -56.5t-95 -21zM200 584l135 122h101l-166 -122h-70z" />
    <glyph glyph-name="Scircumflex" unicode="&#x15c;" horiz-adv-x="612" 
d="M306 -10q-82 0 -155.5 35.5t-133.5 105.5l51 52q60 -65 118.5 -97t121.5 -32q53 0 94 18.5t65 51.5t24 74q0 44 -30.5 70t-104.5 47l-107 27q-78 20 -117.5 63t-39.5 106q0 60 30 104.5t84.5 69t126.5 24.5q80 0 152 -28.5t127 -81.5l-48 -55q-49 48 -109.5 74t-124.5 26
q-74 0 -119 -33.5t-45 -89.5q0 -43 28 -70t86 -43l105 -26q95 -26 138 -67t43 -106t-33 -114.5t-91.5 -77t-135.5 -27.5zM223 791l137 127h77l87 -127h-56l-73 84l-111 -84h-61z" />
    <glyph glyph-name="scircumflex" unicode="&#x15d;" horiz-adv-x="443" 
d="M204 -10q-59 0 -110.5 22t-90.5 64l44 46q44 -41 79 -57t79 -16q49 0 82.5 26.5t33.5 63.5q0 26 -16.5 41.5t-57.5 27.5l-77 20q-58 17 -85.5 47.5t-27.5 77.5q0 64 48 104t124 40q53 0 100.5 -18.5t90.5 -55.5l-44 -49q-36 30 -75.5 46.5t-75.5 16.5q-46 0 -74.5 -21
t-28.5 -56q0 -27 16 -43t54 -27l78 -22q63 -18 91 -46t28 -74q0 -45 -24 -80.5t-66 -56.5t-95 -21zM100 579l137 127h77l87 -127h-56l-73 84l-111 -84h-61z" />
    <glyph glyph-name="Scedilla" unicode="&#x15e;" horiz-adv-x="612" 
d="M249 -239q-34 0 -61.5 11t-44.5 31l31 30q29 -32 73 -32q33 0 52.5 15t19.5 40q0 21 -17 33t-47 12h-28l40 91q-70 8 -133.5 43t-116.5 96l51 52q60 -65 118.5 -97t121.5 -32q53 0 94 18.5t65 51.5t24 74q0 44 -30.5 70t-104.5 47l-107 27q-78 20 -117.5 63t-39.5 106
q0 60 30 104.5t84.5 69t126.5 24.5q80 0 152 -28.5t127 -81.5l-48 -55q-49 48 -109.5 74t-124.5 26q-74 0 -119 -33.5t-45 -89.5q0 -43 28 -70t86 -43l105 -26q95 -26 138 -67t43 -106t-33 -114.5t-90.5 -77t-133.5 -27.5l-25 -56q38 -4 59.5 -22.5t21.5 -49.5
q0 -28 -15.5 -51t-41.5 -36.5t-59 -13.5z" />
    <glyph glyph-name="scedilla" unicode="&#x15f;" horiz-adv-x="443" 
d="M153 -239q-34 0 -61.5 11t-44.5 31l31 30q29 -32 73 -32q33 0 52.5 15t19.5 40q0 21 -17 33t-47 12h-28l40 91q-49 5 -91.5 26.5t-76.5 57.5l44 46q44 -41 79 -57t79 -16q49 0 82.5 26.5t33.5 63.5q0 26 -16.5 41.5t-57.5 27.5l-77 20q-58 17 -85.5 47.5t-27.5 77.5
q0 64 48 104t124 40q103 0 191 -74l-44 -49q-36 30 -75.5 46.5t-75.5 16.5q-46 0 -74.5 -21t-28.5 -56q0 -27 16 -43t54 -27l78 -22q63 -18 91 -46t28 -74q0 -44 -23 -79t-62.5 -56t-90.5 -23l-25 -56q38 -4 59.5 -22.5t21.5 -49.5q0 -28 -15 -51t-41.5 -36.5t-59.5 -13.5z
" />
    <glyph glyph-name="Scaron" unicode="&#x160;" horiz-adv-x="612" 
d="M306 -10q-82 0 -155.5 35.5t-133.5 105.5l51 52q60 -65 118.5 -97t121.5 -32q53 0 94 18.5t65 51.5t24 74q0 44 -30.5 70t-104.5 47l-107 27q-78 20 -117.5 63t-39.5 106q0 60 30 104.5t84.5 69t126.5 24.5q80 0 152 -28.5t127 -81.5l-48 -55q-49 48 -109.5 74t-124.5 26
q-74 0 -119 -33.5t-45 -89.5q0 -43 28 -70t86 -43l105 -26q95 -26 138 -67t43 -106t-33 -114.5t-91.5 -77t-135.5 -27.5zM334 795l-86 127h57l72 -84l109 84h62l-137 -127h-77z" />
    <glyph glyph-name="scaron" unicode="&#x161;" horiz-adv-x="443" 
d="M204 -10q-59 0 -110.5 22t-90.5 64l44 46q44 -41 79 -57t79 -16q49 0 82.5 26.5t33.5 63.5q0 26 -16.5 41.5t-57.5 27.5l-77 20q-58 17 -85.5 47.5t-27.5 77.5q0 64 48 104t124 40q53 0 100.5 -18.5t90.5 -55.5l-44 -49q-36 30 -75.5 46.5t-75.5 16.5q-46 0 -74.5 -21
t-28.5 -56q0 -27 16 -43t54 -27l78 -22q63 -18 91 -46t28 -74q0 -45 -24 -80.5t-66 -56.5t-95 -21zM211 583l-86 127h57l72 -84l109 84h62l-137 -127h-77z" />
    <glyph glyph-name="Tcedilla" unicode="&#x162;" horiz-adv-x="605" 
d="M207 -239q-34 0 -61.5 11t-44.5 31l31 30q29 -32 73 -32q33 0 52.5 15t19.5 40q0 21 -17 33t-47 12h-28l44 99h-18l135 632h-238l15 68h548l-15 -68h-235l-135 -632h-15l-29 -66q38 -4 59.5 -22.5t21.5 -49.5q0 -28 -15.5 -51t-41.5 -36.5t-59 -13.5z" />
    <glyph glyph-name="tcedilla" unicode="&#x163;" horiz-adv-x="371" 
d="M159 -239q-34 0 -61.5 11t-44.5 31l31 30q29 -32 73 -32q33 0 52.5 15t19.5 40q0 21 -17 33t-47 12h-28l41 93q-47 8 -66.5 39.5t-8.5 83.5l66 311h-98l14 60h97l28 134l77 17l-33 -151h138l-14 -60h-137l-64 -295q-9 -42 6 -60t61 -18q12 0 23.5 2t32.5 8l-14 -65
q-17 -4 -34.5 -6.5t-32.5 -2.5l-25 -57q38 -4 59.5 -22.5t21.5 -49.5q0 -28 -15.5 -51t-41.5 -36.5t-59 -13.5z" />
    <glyph glyph-name="Tcaron" unicode="&#x164;" horiz-adv-x="605" 
d="M211 0l135 632h-238l15 68h548l-15 -68h-235l-135 -632h-75zM376 795l-86 127h57l72 -84l109 84h62l-137 -127h-77z" />
    <glyph glyph-name="tcaron" unicode="&#x165;" horiz-adv-x="371" 
d="M358 587l44 181l80 15l-67 -196h-57zM215 -9q-67 0 -96 32.5t-16 93.5l66 311h-98l14 60h97l28 134l77 17l-33 -151h138l-14 -60h-137l-64 -295q-9 -42 6 -60t61 -18q12 0 23.5 2t32.5 8l-14 -65q-17 -4 -35 -6.5t-36 -2.5z" />
    <glyph glyph-name="Tbar" unicode="&#x166;" horiz-adv-x="605" 
d="M211 0l66 308h-153l15 62h151l56 262h-238l15 68h548l-15 -68h-235l-56 -262h152l-15 -62h-150l-66 -308h-75z" />
    <glyph glyph-name="tbar" unicode="&#x167;" horiz-adv-x="371" 
d="M215 -9q-67 0 -96 32.5t-16 93.5l30 140h-99l13 53h97l25 118h-98l14 60h97l28 134l77 17l-33 -151h138l-14 -60h-137l-26 -118h136l-12 -53h-135l-27 -124q-9 -42 6 -60t61 -18q12 0 23.5 2t32.5 8l-14 -65q-17 -4 -35 -6.5t-36 -2.5z" />
    <glyph glyph-name="Utilde" unicode="&#x168;" horiz-adv-x="698" 
d="M322 -11q-90 0 -150 40t-83.5 111t-3.5 163l84 397h76l-86 -401q-15 -70 1.5 -124.5t59 -85t105.5 -30.5q86 0 147 62t85 172l87 407h75l-88 -411q-20 -96 -63 -163t-105 -102t-141 -35zM343 797l-49 15q23 47 50.5 71.5t56.5 24.5q23 0 42 -9.5t36 -22t32.5 -22
t30.5 -9.5t26 12.5t27 47.5l49 -15q-22 -47 -48.5 -71.5t-55.5 -24.5q-22 0 -41 9.5t-36 21.5t-32.5 21.5t-30.5 9.5q-17 0 -30 -13.5t-27 -45.5z" />
    <glyph glyph-name="utilde" unicode="&#x169;" horiz-adv-x="541" 
d="M203 -7q-54 0 -91 25.5t-51.5 70t-2.5 100.5l65 299h72l-63 -285q-15 -67 13.5 -108.5t88.5 -41.5q38 0 71.5 17t61.5 51l80 367h72l-106 -488h-72l15 70q-33 -38 -71 -57.5t-82 -19.5zM216 585l-49 15q23 47 50.5 71.5t56.5 24.5q23 0 42 -9.5t36 -22t32.5 -22
t30.5 -9.5t26 12.5t27 47.5l49 -15q-22 -47 -48.5 -71.5t-55.5 -24.5q-22 0 -41 9.5t-36 21.5t-32.5 21.5t-30.5 9.5q-17 0 -30 -13.5t-27 -45.5z" />
    <glyph glyph-name="Umacron" unicode="&#x16a;" horiz-adv-x="698" 
d="M322 -11q-90 0 -150 40t-83.5 111t-3.5 163l84 397h76l-86 -401q-15 -70 1.5 -124.5t59 -85t105.5 -30.5q86 0 147 62t85 172l87 407h75l-88 -411q-20 -96 -63 -163t-105 -102t-141 -35zM324 823l11 52h268l-11 -52h-268z" />
    <glyph glyph-name="umacron" unicode="&#x16b;" horiz-adv-x="541" 
d="M203 -7q-54 0 -91 25.5t-51.5 70t-2.5 100.5l65 299h72l-63 -285q-15 -67 13.5 -108.5t88.5 -41.5q38 0 71.5 17t61.5 51l80 367h72l-106 -488h-72l15 70q-33 -38 -71 -57.5t-82 -19.5zM197 611l11 52h268l-11 -52h-268z" />
    <glyph glyph-name="Ubreve" unicode="&#x16c;" horiz-adv-x="698" 
d="M322 -11q-90 0 -150 40t-83.5 111t-3.5 163l84 397h76l-86 -401q-15 -70 1.5 -124.5t59 -85t105.5 -30.5q86 0 147 62t85 172l87 407h75l-88 -411q-20 -96 -63 -163t-105 -102t-141 -35zM468 792q-61 0 -98.5 35.5t-39.5 96.5l48 9q2 -46 25.5 -70.5t66.5 -24.5
q79 0 119 92l49 -16q-25 -58 -69.5 -90t-100.5 -32z" />
    <glyph glyph-name="ubreve" unicode="&#x16d;" horiz-adv-x="541" 
d="M203 -7q-54 0 -91 25.5t-51.5 70t-2.5 100.5l65 299h72l-63 -285q-15 -67 13.5 -108.5t88.5 -41.5q38 0 71.5 17t61.5 51l80 367h72l-106 -488h-72l15 70q-33 -38 -71 -57.5t-82 -19.5zM341 580q-61 0 -98.5 35.5t-39.5 96.5l48 9q2 -46 25.5 -70.5t66.5 -24.5
q79 0 119 92l49 -16q-25 -58 -69.5 -90t-100.5 -32z" />
    <glyph glyph-name="Uring" unicode="&#x16e;" horiz-adv-x="698" 
d="M322 -11q-90 0 -150 40t-83.5 111t-3.5 163l84 397h76l-86 -401q-15 -70 1.5 -124.5t59 -85t105.5 -30.5q86 0 147 62t85 172l87 407h75l-88 -411q-20 -96 -63 -163t-105 -102t-141 -35zM470 784q-44 0 -72.5 27.5t-28.5 70.5q0 33 16.5 61t43.5 45.5t58 17.5
q45 0 73.5 -27.5t28.5 -70.5q0 -33 -16.5 -61t-43.5 -45.5t-59 -17.5zM470 824q31 0 53.5 24t22.5 56q0 26 -16.5 43.5t-42.5 17.5q-30 0 -53 -23.5t-23 -56.5q0 -26 17 -43.5t42 -17.5z" />
    <glyph glyph-name="uring" unicode="&#x16f;" horiz-adv-x="541" 
d="M203 -7q-54 0 -91 25.5t-51.5 70t-2.5 100.5l65 299h72l-63 -285q-15 -67 13.5 -108.5t88.5 -41.5q38 0 71.5 17t61.5 51l80 367h72l-106 -488h-72l15 70q-33 -38 -71 -57.5t-82 -19.5zM343 572q-44 0 -72.5 27.5t-28.5 70.5q0 33 16.5 61t43.5 45.5t58 17.5
q45 0 73.5 -27.5t28.5 -70.5q0 -33 -16.5 -61t-43.5 -45.5t-59 -17.5zM343 612q31 0 53.5 24t22.5 56q0 26 -16.5 43.5t-42.5 17.5q-30 0 -53 -23.5t-23 -56.5q0 -26 17 -43.5t42 -17.5z" />
    <glyph glyph-name="Uhungarumlaut" unicode="&#x170;" horiz-adv-x="698" 
d="M322 -11q-90 0 -150 40t-83.5 111t-3.5 163l84 397h76l-86 -401q-15 -70 1.5 -124.5t59 -85t105.5 -30.5q86 0 147 62t85 172l87 407h75l-88 -411q-20 -96 -63 -163t-105 -102t-141 -35zM461 918h84l-165 -124h-70zM631 918h84l-167 -124h-68z" />
    <glyph glyph-name="uhungarumlaut" unicode="&#x171;" horiz-adv-x="541" 
d="M203 -7q-54 0 -91 25.5t-51.5 70t-2.5 100.5l65 299h72l-63 -285q-15 -67 13.5 -108.5t88.5 -41.5q38 0 71.5 17t61.5 51l80 367h72l-106 -488h-72l15 70q-33 -38 -71 -57.5t-82 -19.5zM334 706h84l-165 -124h-70zM504 706h84l-167 -124h-68z" />
    <glyph glyph-name="Uogonek" unicode="&#x172;" horiz-adv-x="698" 
d="M309 -232q-43 0 -69 21.5t-26 56.5q0 38 26 73.5t78 69.5q-88 1 -147 41.5t-82.5 111t-3.5 161.5l84 397h76l-86 -401q-15 -70 1.5 -124.5t59 -85t105.5 -30.5q86 0 147 62t85 172l87 407h75l-88 -411q-26 -124 -88.5 -198.5t-154.5 -94.5q-62 -35 -92.5 -67.5
t-30.5 -67.5q0 -22 17 -35t43 -13q11 0 23.5 2.5t22.5 6.5l4 -40q-13 -7 -30.5 -10.5t-35.5 -3.5z" />
    <glyph glyph-name="uogonek" unicode="&#x173;" horiz-adv-x="541" 
d="M326 -232q-43 0 -69 21.5t-26 56.5q0 83 122 154h-12l15 70q-33 -38 -71 -57.5t-82 -19.5q-54 0 -91 25.5t-51.5 70t-2.5 100.5l65 299h72l-63 -285q-15 -67 13.5 -108.5t88.5 -41.5q38 0 71.5 17t61.5 51l80 367h72l-106 -488q-67 -36 -99 -70t-32 -69q0 -22 17 -35
t43 -13q11 0 23.5 2.5t22.5 6.5l4 -40q-13 -7 -30.5 -10.5t-35.5 -3.5z" />
    <glyph glyph-name="Wcircumflex" unicode="&#x174;" horiz-adv-x="879" 
d="M136 0v700h74l-4 -576l291 576h73l48 -576l239 576h77l-297 -700h-77l-48 594l-300 -594h-76zM399 791l137 127h77l87 -127h-56l-73 84l-111 -84h-61z" />
    <glyph glyph-name="wcircumflex" unicode="&#x175;" horiz-adv-x="684" 
d="M106 0l-25 488h68l16 -390l197 390h64l31 -390l182 390h71l-237 -488h-70l-29 393l-198 -393h-70zM261 579l137 127h77l87 -127h-56l-73 84l-111 -84h-61z" />
    <glyph glyph-name="Ycircumflex" unicode="&#x176;" horiz-adv-x="633" 
d="M224 0l61 287l-178 413h80l147 -347l293 347h90l-357 -417l-60 -283h-76zM266 791l137 127h77l87 -127h-56l-73 84l-111 -84h-61z" />
    <glyph glyph-name="ycircumflex" unicode="&#x177;" horiz-adv-x="489" 
d="M11 -219q-11 0 -24 2.5t-31 7.5l13 65q14 -3 24 -4.5t17 -1.5q29 0 50.5 13t39.5 44l52 88l-84 493h76l63 -404l238 404h81l-360 -605q-33 -55 -69.5 -78.5t-85.5 -23.5zM153 579l137 127h77l87 -127h-56l-73 84l-111 -84h-61z" />
    <glyph glyph-name="Ydieresis" unicode="&#x178;" horiz-adv-x="633" 
d="M224 0l61 287l-178 413h80l147 -347l293 347h90l-357 -417l-60 -283h-76zM327 821q-20 0 -34 13.5t-14 33.5q0 22 17 38.5t40 16.5q20 0 34 -14t14 -34q0 -22 -16.5 -38t-40.5 -16zM531 821q-20 0 -34 13.5t-14 33.5q0 22 17 38.5t40 16.5q20 0 34 -14t14 -34
q0 -22 -16.5 -38t-40.5 -16z" />
    <glyph glyph-name="Zacute" unicode="&#x179;" horiz-adv-x="593" 
d="M-17 0l12 54l538 581l-413 -2l14 67h514l-13 -54l-538 -581l425 2l-15 -67h-524zM334 796l135 122h101l-166 -122h-70z" />
    <glyph glyph-name="zacute" unicode="&#x17a;" horiz-adv-x="449" 
d="M-14 0l12 58l349 364l-265 -1l13 67h361l-12 -57l-350 -366l273 1l-14 -66h-367zM231 584l135 122h101l-166 -122h-70z" />
    <glyph glyph-name="Zdotaccent" unicode="&#x17b;" horiz-adv-x="593" 
d="M-17 0l12 54l538 581l-413 -2l14 67h514l-13 -54l-538 -581l425 2l-15 -67h-524zM396 821q-20 0 -34 14.5t-14 33.5q0 22 17.5 39t39.5 17q20 0 34.5 -14.5t14.5 -34.5q0 -14 -8 -26.5t-21 -20.5t-29 -8z" />
    <glyph glyph-name="zdotaccent" unicode="&#x17c;" horiz-adv-x="449" 
d="M-14 0l12 58l349 364l-265 -1l13 67h361l-12 -57l-350 -366l273 1l-14 -66h-367zM293 609q-20 0 -34 14.5t-14 33.5q0 22 17.5 39t39.5 17q20 0 34.5 -14.5t14.5 -34.5q0 -14 -8 -26.5t-21 -20.5t-29 -8z" />
    <glyph glyph-name="Zcaron" unicode="&#x17d;" horiz-adv-x="593" 
d="M-17 0l12 54l538 581l-413 -2l14 67h514l-13 -54l-538 -581l425 2l-15 -67h-524zM345 795l-86 127h57l72 -84l109 84h62l-137 -127h-77z" />
    <glyph glyph-name="zcaron" unicode="&#x17e;" horiz-adv-x="449" 
d="M-14 0l12 58l349 364l-265 -1l13 67h361l-12 -57l-350 -366l273 1l-14 -66h-367zM242 583l-86 127h57l72 -84l109 84h62l-137 -127h-77z" />
    <glyph glyph-name="Scommaaccent" unicode="&#x218;" horiz-adv-x="612" 
d="M306 -10q-82 0 -155.5 35.5t-133.5 105.5l51 52q60 -65 118.5 -97t121.5 -32q53 0 94 18.5t65 51.5t24 74q0 44 -30.5 70t-104.5 47l-107 27q-78 20 -117.5 63t-39.5 106q0 60 30 104.5t84.5 69t126.5 24.5q80 0 152 -28.5t127 -81.5l-48 -55q-49 48 -109.5 74t-124.5 26
q-74 0 -119 -33.5t-45 -89.5q0 -43 28 -70t86 -43l105 -26q95 -26 138 -67t43 -106t-33 -114.5t-91.5 -77t-135.5 -27.5zM160 -274l87 187h77l-111 -187h-53z" />
    <glyph glyph-name="scommaaccent" unicode="&#x219;" horiz-adv-x="443" 
d="M204 -10q-59 0 -110.5 22t-90.5 64l44 46q44 -41 79 -57t79 -16q49 0 82.5 26.5t33.5 63.5q0 26 -16.5 41.5t-57.5 27.5l-77 20q-58 17 -85.5 47.5t-27.5 77.5q0 64 48 104t124 40q53 0 100.5 -18.5t90.5 -55.5l-44 -49q-36 30 -75.5 46.5t-75.5 16.5q-46 0 -74.5 -21
t-28.5 -56q0 -27 16 -43t54 -27l78 -22q63 -18 91 -46t28 -74q0 -45 -24 -80.5t-66 -56.5t-95 -21zM64 -274l87 187h77l-111 -187h-53z" />
    <glyph glyph-name="uni021A" unicode="&#x21a;" horiz-adv-x="605" 
d="M211 0l135 632h-238l15 68h548l-15 -68h-235l-135 -632h-75zM118 -274l87 187h77l-111 -187h-53z" />
    <glyph glyph-name="uni021B" unicode="&#x21b;" horiz-adv-x="371" 
d="M215 -9q-67 0 -96 32.5t-16 93.5l66 311h-98l14 60h97l28 134l77 17l-33 -151h138l-14 -60h-137l-64 -295q-9 -42 6 -60t61 -18q12 0 23.5 2t32.5 8l-14 -65q-17 -4 -35 -6.5t-36 -2.5zM70 -274l87 187h77l-111 -187h-53z" />
    <glyph glyph-name="dotlessj" unicode="&#x237;" horiz-adv-x="220" 
d="M-63 -212q-13 0 -27 2t-24 6l14 63q15 -6 39 -6q28 0 43.5 14t22.5 47l123 574h72l-126 -580q-11 -57 -47 -88.5t-90 -31.5z" />
    <glyph glyph-name="uni02BB" unicode="&#x2bb;" horiz-adv-x="250" 
d="M311 750l-104 -231h-78l125 231h57z" />
    <glyph glyph-name="uni02BC" unicode="&#x2bc;" horiz-adv-x="250" 
d="M126 519l104 231h78l-125 -231h-57z" />
    <glyph glyph-name="circumflex" unicode="&#x2c6;" 
d="M219 579l137 127h77l87 -127h-56l-73 84l-111 -84h-61z" />
    <glyph glyph-name="caron" unicode="&#x2c7;" 
d="M330 583l-86 127h57l72 -84l109 84h62l-137 -127h-77z" />
    <glyph glyph-name="breve" unicode="&#x2d8;" 
d="M382 580q-61 0 -98.5 35.5t-39.5 96.5l48 9q2 -46 25.5 -70.5t66.5 -24.5q79 0 119 92l49 -16q-25 -58 -69.5 -90t-100.5 -32z" />
    <glyph glyph-name="dotaccent" unicode="&#x2d9;" horiz-adv-x="0" 
d="M381 609q-20 0 -34 14.5t-14 33.5q0 22 17.5 39t39.5 17q20 0 34.5 -14.5t14.5 -34.5q0 -14 -8 -26.5t-21 -20.5t-29 -8z" />
    <glyph glyph-name="ring" unicode="&#x2da;" 
d="M384 572q-44 0 -72.5 27.5t-28.5 70.5q0 33 16.5 61t43.5 45.5t58 17.5q45 0 73.5 -27.5t28.5 -70.5q0 -33 -16.5 -61t-43.5 -45.5t-59 -17.5zM384 612q31 0 53.5 24t22.5 56q0 26 -16.5 43.5t-42.5 17.5q-30 0 -53 -23.5t-23 -56.5q0 -26 17 -43.5t42 -17.5z" />
    <glyph glyph-name="ogonek" unicode="&#x2db;" 
d="M211 -232q-43 0 -69 21.5t-26 56.5q0 47 38.5 89.5t115.5 82.5l28 -18q-67 -36 -99 -70t-32 -69q0 -22 17 -35t43 -13q11 0 23.5 2.5t22.5 6.5l4 -40q-13 -7 -30.5 -10.5t-35.5 -3.5z" />
    <glyph glyph-name="tilde" unicode="&#x2dc;" 
d="M257 585l-49 15q23 47 50.5 71.5t56.5 24.5q23 0 42 -9.5t36 -22t32.5 -22t30.5 -9.5t26 12.5t27 47.5l49 -15q-22 -47 -48.5 -71.5t-55.5 -24.5q-22 0 -41 9.5t-36 21.5t-32.5 21.5t-30.5 9.5q-17 0 -30 -13.5t-27 -45.5z" />
    <glyph glyph-name="hungarumlaut" unicode="&#x2dd;" 
d="M375 706h84l-165 -124h-70zM545 706h84l-167 -124h-68z" />
    <glyph glyph-name="uni0302" unicode="&#x302;" horiz-adv-x="0" 
d="M219 579l137 127h77l87 -127h-56l-73 84l-111 -84h-61z" />
    <glyph glyph-name="uni0304" unicode="&#x304;" horiz-adv-x="0" 
d="M238 611l11 52h268l-11 -52h-268z" />
    <glyph glyph-name="uni0306" unicode="&#x306;" horiz-adv-x="0" 
d="M382 580q-61 0 -98.5 35.5t-39.5 96.5l48 9q2 -46 25.5 -70.5t66.5 -24.5q79 0 119 92l49 -16q-25 -58 -69.5 -90t-100.5 -32z" />
    <glyph glyph-name="uni0307" unicode="&#x307;" horiz-adv-x="0" 
d="M381 609q-20 0 -34 14.5t-14 33.5q0 22 17.5 39t39.5 17q20 0 34.5 -14.5t14.5 -34.5q0 -14 -8 -26.5t-21 -20.5t-29 -8z" />
    <glyph glyph-name="uni0308" unicode="&#x308;" horiz-adv-x="0" 
d="M280 609q-20 0 -34 13.5t-14 33.5q0 22 17 38.5t40 16.5q20 0 34 -14t14 -34q0 -22 -16.5 -38t-40.5 -16zM484 609q-20 0 -34 13.5t-14 33.5q0 22 17 38.5t40 16.5q20 0 34 -14t14 -34q0 -22 -16.5 -38t-40.5 -16z" />
    <glyph glyph-name="uni030A" unicode="&#x30a;" horiz-adv-x="0" 
d="M384 572q-44 0 -72.5 27.5t-28.5 70.5q0 33 16.5 61t43.5 45.5t58 17.5q45 0 73.5 -27.5t28.5 -70.5q0 -33 -16.5 -61t-43.5 -45.5t-59 -17.5zM384 612q31 0 53.5 24t22.5 56q0 26 -16.5 43.5t-42.5 17.5q-30 0 -53 -23.5t-23 -56.5q0 -26 17 -43.5t42 -17.5z" />
    <glyph glyph-name="uni030B" unicode="&#x30b;" horiz-adv-x="0" 
d="M375 706h84l-165 -124h-70zM545 706h84l-167 -124h-68z" />
    <glyph glyph-name="uni030C" unicode="&#x30c;" horiz-adv-x="0" 
d="M330 583l-86 127h57l72 -84l109 84h62l-137 -127h-77z" />
    <glyph glyph-name="uni0326" unicode="&#x326;" horiz-adv-x="0" 
d="M117 -274l87 187h77l-111 -187h-53z" />
    <glyph glyph-name="uni0327" unicode="&#x327;" horiz-adv-x="0" 
d="M205 -239q-34 0 -61.5 11t-44.5 31l31 30q29 -32 73 -32q33 0 52.5 15t19.5 40q0 21 -17 33t-47 12h-28l44 99h42l-29 -66q38 -3 59.5 -23t21.5 -49q0 -28 -15.5 -51t-41.5 -36.5t-59 -13.5z" />
    <glyph glyph-name="uni0328" unicode="&#x328;" horiz-adv-x="0" 
d="M211 -232q-43 0 -69 21.5t-26 56.5q0 47 38.5 89.5t115.5 82.5l28 -18q-67 -36 -99 -70t-32 -69q0 -22 17 -35t43 -13q11 0 23.5 2.5t22.5 6.5l4 -40q-13 -7 -30.5 -10.5t-35.5 -3.5z" />
    <glyph glyph-name="Wgrave" unicode="&#x1e80;" horiz-adv-x="879" 
d="M136 0v700h74l-4 -576l291 576h73l48 -576l239 576h77l-297 -700h-77l-48 594l-300 -594h-76zM524 796l-142 122h100l109 -122h-67z" />
    <glyph glyph-name="wgrave" unicode="&#x1e81;" horiz-adv-x="684" 
d="M106 0l-25 488h68l16 -390l197 390h64l31 -390l182 390h71l-237 -488h-70l-29 393l-198 -393h-70zM386 584l-142 122h100l109 -122h-67z" />
    <glyph glyph-name="Wacute" unicode="&#x1e82;" horiz-adv-x="879" 
d="M136 0v700h74l-4 -576l291 576h73l48 -576l239 576h77l-297 -700h-77l-48 594l-300 -594h-76zM499 796l135 122h101l-166 -122h-70z" />
    <glyph glyph-name="wacute" unicode="&#x1e83;" horiz-adv-x="684" 
d="M106 0l-25 488h68l16 -390l197 390h64l31 -390l182 390h71l-237 -488h-70l-29 393l-198 -393h-70zM361 584l135 122h101l-166 -122h-70z" />
    <glyph glyph-name="Wdieresis" unicode="&#x1e84;" horiz-adv-x="879" 
d="M136 0v700h74l-4 -576l291 576h73l48 -576l239 576h77l-297 -700h-77l-48 594l-300 -594h-76zM460 821q-20 0 -34 13.5t-14 33.5q0 22 17 38.5t40 16.5q20 0 34 -14t14 -34q0 -22 -16.5 -38t-40.5 -16zM664 821q-20 0 -34 13.5t-14 33.5q0 22 17 38.5t40 16.5
q20 0 34 -14t14 -34q0 -22 -16.5 -38t-40.5 -16z" />
    <glyph glyph-name="wdieresis" unicode="&#x1e85;" horiz-adv-x="684" 
d="M106 0l-25 488h68l16 -390l197 390h64l31 -390l182 390h71l-237 -488h-70l-29 393l-198 -393h-70zM322 609q-20 0 -34 13.5t-14 33.5q0 22 17 38.5t40 16.5q20 0 34 -14t14 -34q0 -22 -16.5 -38t-40.5 -16zM526 609q-20 0 -34 13.5t-14 33.5q0 22 17 38.5t40 16.5
q20 0 34 -14t14 -34q0 -22 -16.5 -38t-40.5 -16z" />
    <glyph glyph-name="Ygrave" unicode="&#x1ef2;" horiz-adv-x="633" 
d="M224 0l61 287l-178 413h80l147 -347l293 347h90l-357 -417l-60 -283h-76zM391 796l-142 122h100l109 -122h-67z" />
    <glyph glyph-name="ygrave" unicode="&#x1ef3;" horiz-adv-x="489" 
d="M11 -219q-11 0 -24 2.5t-31 7.5l13 65q14 -3 24 -4.5t17 -1.5q29 0 50.5 13t39.5 44l52 88l-84 493h76l63 -404l238 404h81l-360 -605q-33 -55 -69.5 -78.5t-85.5 -23.5zM278 584l-142 122h100l109 -122h-67z" />
    <glyph glyph-name="enspace" unicode="&#x2002;" horiz-adv-x="505" 
 />
    <glyph glyph-name="emspace" unicode="&#x2003;" horiz-adv-x="980" 
 />
    <glyph glyph-name="thinspace" unicode="&#x2009;" horiz-adv-x="198" 
 />
    <glyph glyph-name="hairspace" unicode="&#x200a;" horiz-adv-x="125" 
 />
    <glyph glyph-name="zerowidthspace" unicode="&#x200b;" horiz-adv-x="0" 
 />
    <glyph glyph-name="endash" unicode="&#x2013;" horiz-adv-x="540" 
d="M59 250l15 63h418l-14 -63h-419z" />
    <glyph glyph-name="emdash" unicode="&#x2014;" horiz-adv-x="679" 
d="M59 250l15 63h558l-15 -63h-558z" />
    <glyph glyph-name="uni2015" unicode="&#x2015;" horiz-adv-x="912" 
d="M59 250l15 63h790l-14 -63h-791z" />
    <glyph glyph-name="quoteleft" unicode="&#x2018;" horiz-adv-x="250" 
d="M311 750l-104 -231h-78l125 231h57z" />
    <glyph glyph-name="quoteright" unicode="&#x2019;" horiz-adv-x="250" 
d="M126 519l104 231h78l-125 -231h-57z" />
    <glyph glyph-name="quotesinglbase" unicode="&#x201a;" horiz-adv-x="250" 
d="M-39 -157l104 231h78l-125 -231h-57z" />
    <glyph glyph-name="quotedblleft" unicode="&#x201c;" horiz-adv-x="409" 
d="M311 750l-104 -231h-78l125 231h57zM470 750l-104 -231h-78l125 231h57z" />
    <glyph glyph-name="quotedblright" unicode="&#x201d;" horiz-adv-x="410" 
d="M286 519l104 231h78l-125 -231h-57zM126 519l104 231h78l-125 -231h-57z" />
    <glyph glyph-name="quotedblbase" unicode="&#x201e;" horiz-adv-x="413" 
d="M124 -157l104 231h78l-125 -231h-57zM-39 -157l104 231h78l-125 -231h-57z" />
    <glyph glyph-name="dagger" unicode="&#x2020;" horiz-adv-x="426" 
d="M128 0l94 443h-132l13 57h131l43 200h63l-43 -200h133l-13 -57h-132l-94 -443h-63z" />
    <glyph glyph-name="daggerdbl" unicode="&#x2021;" horiz-adv-x="426" 
d="M128 0l43 200h-133l14 57h131l39 186h-132l13 57h131l43 200h63l-43 -200h133l-13 -57h-132l-39 -186h132l-13 -57h-131l-43 -200h-63z" />
    <glyph glyph-name="bullet" unicode="&#x2022;" horiz-adv-x="336" 
d="M178 254q-37 0 -62 25.5t-25 62.5q0 30 15 55.5t40 41t54 15.5q37 0 61.5 -25t24.5 -62q0 -30 -15 -56t-39.5 -41.5t-53.5 -15.5z" />
    <glyph glyph-name="ellipsis" unicode="&#x2026;" horiz-adv-x="687" 
d="M76 -8q-20 0 -33.5 14t-13.5 35q0 16 8 29.5t21.5 22t28.5 8.5q20 0 33 -14t13 -35q0 -15 -8 -29t-21 -22.5t-28 -8.5zM295 -8q-20 0 -33.5 14t-13.5 35q0 16 8 29.5t21.5 22t28.5 8.5q20 0 33 -14t13 -35q0 -15 -8 -29t-21 -22.5t-28 -8.5zM513 -8q-20 0 -33.5 14
t-13.5 35q0 16 8 29.5t21.5 22t28.5 8.5q20 0 33 -14t13 -35q0 -15 -8 -29t-21 -22.5t-28 -8.5z" />
    <glyph glyph-name="perthousand" unicode="&#x2030;" horiz-adv-x="1101" 
d="M208 345q-57 0 -91 37.5t-34 100.5q0 61 23.5 111t62.5 80.5t86 30.5q57 0 91 -37.5t34 -100.5q0 -61 -23.5 -111t-62.5 -80.5t-86 -30.5zM213 391q32 0 59 24t43 64t16 87q0 44 -22 69t-60 25q-31 0 -58 -24t-43 -64t-16 -87q0 -44 22 -69t59 -25zM107 0l534 700h57
l-537 -700h-54zM547 -5q-57 0 -91 37.5t-34 100.5q0 61 23.5 111t62.5 80.5t86 30.5q57 0 91 -37.5t34 -100.5q0 -60 -23.5 -110.5t-62.5 -81t-86 -30.5zM552 41q32 0 59 24t43 64t16 87q0 44 -22 69t-60 25q-31 0 -58 -24t-43 -64t-16 -87q0 -44 22 -69t59 -25zM887 -5
q-57 0 -91 37.5t-34 100.5q0 61 23.5 111t62.5 80.5t86 30.5q57 0 91 -37.5t34 -100.5q0 -60 -23.5 -110.5t-62.5 -81t-86 -30.5zM892 41q32 0 59 24t43 64t16 87q0 44 -22 69t-60 25q-31 0 -58 -24t-43 -64t-16 -87q0 -44 22 -69t59 -25z" />
    <glyph glyph-name="uni2032" unicode="&#x2032;" horiz-adv-x="250" 
d="M126 519l104 231h78l-125 -231h-57z" />
    <glyph glyph-name="uni2033" unicode="&#x2033;" horiz-adv-x="410" 
d="M286 519l104 231h78l-125 -231h-57zM126 519l104 231h78l-125 -231h-57z" />
    <glyph glyph-name="guilsinglleft" unicode="&#x2039;" horiz-adv-x="393" 
d="M208 0l-165 245l272 243h78l-270 -247l160 -241h-75z" />
    <glyph glyph-name="guilsinglright" unicode="&#x203a;" horiz-adv-x="401" 
d="M193 488l165 -245l-272 -243h-78l270 247l-160 241h75z" />
    <glyph glyph-name="fraction" unicode="&#x2044;" horiz-adv-x="566" 
d="M5 0l534 700h57l-537 -700h-54z" />
    <glyph glyph-name="uni2070" unicode="&#x2070;" horiz-adv-x="347" 
d="M208 345q-57 0 -91 37.5t-34 100.5q0 61 23.5 111t62.5 80.5t86 30.5q57 0 91 -37.5t34 -100.5q0 -61 -23.5 -111t-62.5 -80.5t-86 -30.5zM213 391q32 0 59 24t43 64t16 87q0 44 -22 69t-60 25q-31 0 -58 -24t-43 -64t-16 -87q0 -44 22 -69t59 -25z" />
    <glyph glyph-name="uni2074" unicode="&#x2074;" horiz-adv-x="324" 
d="M235 350l19 88h-192l8 41l233 221h57l-47 -220h42l-10 -42h-41l-19 -88h-50zM127 480h136l34 162z" />
    <glyph glyph-name="uni2075" unicode="&#x2075;" horiz-adv-x="298" 
d="M180 345q-77 0 -124 46l29 37q24 -21 47.5 -31t48.5 -10q37 0 62.5 22t25.5 55q0 31 -20 47.5t-56 16.5q-37 0 -66 -11l-29 13l42 170h212l-9 -42h-169l-26 -101q15 5 29.5 7t28.5 2q52 0 83.5 -26t31.5 -70q0 -35 -19 -63.5t-51 -45t-71 -16.5z" />
    <glyph glyph-name="uni2076" unicode="&#x2076;" horiz-adv-x="322" 
d="M206 345q-55 0 -89 37t-34 100q0 61 26 111t70 80t97 30q51 0 93 -28l-27 -40q-19 11 -37.5 17.5t-35.5 6.5q-49 0 -85.5 -38.5t-47.5 -97.5q21 20 48 30.5t55 10.5q44 0 73 -26t29 -67q0 -34 -18.5 -63t-49 -46t-67.5 -17zM212 389q32 0 56 22t24 53q0 28 -20.5 45.5
t-52.5 17.5q-46 0 -87 -36q-1 -46 20 -74t60 -28z" />
    <glyph glyph-name="uni2077" unicode="&#x2077;" horiz-adv-x="293" 
d="M75 350l233 305h-205l10 45h262l-7 -39l-231 -311h-62z" />
    <glyph glyph-name="uni2078" unicode="&#x2078;" horiz-adv-x="321" 
d="M194 345q-55 0 -89.5 25.5t-34.5 65.5q0 35 26.5 63.5t66.5 36.5q-22 10 -34 27.5t-12 40.5q0 28 17.5 51t46.5 37t64 14q47 0 78.5 -24.5t31.5 -62.5q0 -31 -22.5 -56t-57.5 -34q27 -10 43 -30t16 -46q0 -30 -18.5 -54.5t-50.5 -39t-71 -14.5zM231 552q30 0 52 18t22 43
q0 22 -18.5 36.5t-45.5 14.5q-31 0 -53 -17.5t-22 -43.5q0 -22 18.5 -36.5t46.5 -14.5zM198 387q35 0 60.5 19.5t25.5 47.5q0 26 -21.5 42t-55.5 16q-36 0 -61 -19.5t-25 -47.5q0 -25 21.5 -41.5t55.5 -16.5z" />
    <glyph glyph-name="uni2079" unicode="&#x2079;" horiz-adv-x="322" 
d="M231 704q56 0 89.5 -37t33.5 -100q0 -61 -26 -111t-70 -80t-97 -30q-51 0 -93 28l27 40q20 -11 38.5 -17.5t34.5 -6.5q49 0 85.5 38.5t47.5 97.5q-21 -19 -48 -30t-55 -11q-44 0 -73 26.5t-29 66.5q0 35 18.5 63.5t49 45.5t67.5 17zM225 660q-32 0 -56 -21.5t-24 -53.5
q0 -28 20.5 -45.5t52.5 -17.5q46 0 87 36q2 47 -19.5 74.5t-60.5 27.5z" />
    <glyph glyph-name="uni2080" unicode="&#x2080;" horiz-adv-x="347" 
d="M134 -5q-57 0 -91 37.5t-34 100.5q0 61 23.5 111t62.5 80.5t86 30.5q57 0 91 -37.5t34 -100.5q0 -60 -23.5 -110.5t-62.5 -81t-86 -30.5zM139 41q32 0 59 24t43 64t16 87q0 44 -22 69t-60 25q-31 0 -58 -24t-43 -64t-16 -87q0 -44 22 -69t59 -25z" />
    <glyph glyph-name="uni2081" unicode="&#x2081;" horiz-adv-x="163" 
d="M29 0l64 296l-68 -26l10 45l87 35h32l-75 -350h-50z" />
    <glyph glyph-name="uni2082" unicode="&#x2082;" horiz-adv-x="287" 
d="M-26 0l8 37l178 143q26 20 38 39t12 39q0 23 -17.5 37.5t-46.5 14.5q-22 0 -43.5 -9t-49.5 -29l-22 37q66 46 124 46q47 0 76.5 -24.5t29.5 -63.5q0 -31 -15.5 -56.5t-52.5 -54.5l-141 -113h169l-9 -43h-238z" />
    <glyph glyph-name="uni2083" unicode="&#x2083;" horiz-adv-x="306" 
d="M110 -5q-42 0 -74 13t-56 41l34 35q42 -44 99 -44q35 0 59 17.5t24 42.5q0 26 -18.5 40.5t-50.5 14.5h-31l8 41h28q37 0 61 17.5t24 42.5q0 23 -18 38t-47 15q-21 0 -43 -7.5t-51 -24.5l-22 39q62 39 123 39q47 0 78.5 -25.5t31.5 -65.5q0 -31 -25.5 -55.5t-64.5 -32.5
q31 -8 48.5 -27t17.5 -46q0 -30 -18 -54.5t-48.5 -39t-68.5 -14.5z" />
    <glyph glyph-name="uni2084" unicode="&#x2084;" horiz-adv-x="323" 
d="M161 0l19 88h-192l8 41l233 221h57l-47 -220h42l-10 -42h-41l-19 -88h-50zM53 130h136l34 162z" />
    <glyph glyph-name="uni2085" unicode="&#x2085;" horiz-adv-x="298" 
d="M106 -5q-77 0 -124 46l29 37q24 -21 47.5 -31t48.5 -10q37 0 62.5 22t25.5 55q0 31 -20 47.5t-56 16.5q-37 0 -66 -11l-29 13l42 170h212l-9 -42h-169l-26 -101q15 5 29.5 7t28.5 2q52 0 83.5 -26t31.5 -70q0 -35 -19 -63.5t-51 -45t-71 -16.5z" />
    <glyph glyph-name="uni2086" unicode="&#x2086;" horiz-adv-x="323" 
d="M132 -5q-55 0 -89 37t-34 100q0 61 26 111t70 80t97 30q51 0 93 -28l-27 -40q-19 11 -37.5 17.5t-35.5 6.5q-49 0 -85.5 -38.5t-47.5 -97.5q21 20 48 30.5t55 10.5q44 0 73 -26t29 -67q0 -34 -18.5 -63t-49 -46t-67.5 -17zM138 39q32 0 56 22t24 53q0 28 -20.5 45.5
t-52.5 17.5q-46 0 -87 -36q-1 -46 20 -74t60 -28z" />
    <glyph glyph-name="uni2087" unicode="&#x2087;" horiz-adv-x="293" 
d="M1 0l233 305h-205l10 45h262l-7 -39l-231 -311h-62z" />
    <glyph glyph-name="uni2088" unicode="&#x2088;" horiz-adv-x="321" 
d="M120 -5q-55 0 -89.5 25.5t-34.5 65.5q0 35 26.5 63.5t66.5 36.5q-22 10 -34 27.5t-12 40.5q0 28 17.5 51t46.5 37t64 14q47 0 78.5 -24.5t31.5 -62.5q0 -31 -22.5 -56t-57.5 -34q27 -10 43 -30t16 -46q0 -30 -18.5 -54.5t-50.5 -39t-71 -14.5zM157 202q30 0 52 18t22 43
q0 22 -18.5 36.5t-45.5 14.5q-31 0 -53 -17.5t-22 -43.5q0 -22 18.5 -36.5t46.5 -14.5zM124 37q35 0 60.5 19.5t25.5 47.5q0 26 -21.5 42t-55.5 16q-36 0 -61 -19.5t-25 -47.5q0 -25 21.5 -41.5t55.5 -16.5z" />
    <glyph glyph-name="uni2089" unicode="&#x2089;" horiz-adv-x="322" 
d="M157 354q56 0 89.5 -37t33.5 -100q0 -60 -26 -110.5t-70 -80.5t-97 -30q-51 0 -93 28l27 40q20 -11 38.5 -17.5t34.5 -6.5q49 0 85.5 38.5t47.5 97.5q-21 -19 -48 -30t-55 -11q-44 0 -73 26.5t-29 66.5q0 35 18.5 63.5t49 45.5t67.5 17zM151 310q-32 0 -56 -21.5
t-24 -53.5q0 -28 20.5 -45.5t52.5 -17.5q46 0 87 36q2 47 -19.5 74.5t-60.5 27.5z" />
    <glyph glyph-name="Euro" unicode="&#x20ac;" horiz-adv-x="713" 
d="M403 -11q-73 0 -129 33t-89 93t-38 141h-103l11 54h92q1 21 3.5 41t6.5 39h-85l12 53h88q26 79 75 139t114 94.5t138 34.5q77 0 135.5 -37.5t91.5 -107.5l-58 -35q-25 56 -72 87t-105 31q-54 0 -102.5 -26.5t-86 -72.5t-60.5 -107h273l-29 -53h-260q-4 -19 -7 -39t-4 -41
h226l-27 -54h-199q8 -93 59.5 -148t133.5 -55q46 0 91.5 21.5t85.5 63.5l42 -42q-102 -107 -224 -107z" />
    <glyph glyph-name="trademark" unicode="&#x2122;" horiz-adv-x="658" 
d="M352 421l60 279h50l44 -181l120 181h52l-60 -279h-39l48 219l-135 -200l-53 208l-47 -227h-40zM173 421l52 241h-92l8 38h225l-8 -38h-92l-52 -241h-41z" />
    <glyph glyph-name="uni2191" unicode="&#x2191;" horiz-adv-x="567" 
d="M246 0v609l-163 -215l-48 38l246 318l246 -318l-47 -37l-166 219v-614h-68z" />
    <glyph glyph-name="uni2193" unicode="&#x2193;" horiz-adv-x="505" 
d="M255 700v-609l163 215l48 -38l-246 -318l-246 318l47 37l166 -219v614h68z" />
    <glyph glyph-name="minus" unicode="&#x2212;" horiz-adv-x="599" 
d="M120 328l13 60h394l-13 -60h-394z" />
    <glyph glyph-name="uni2215" unicode="&#x2215;" horiz-adv-x="566" 
d="M5 0l534 700h57l-537 -700h-54z" />
    <glyph glyph-name="notequal" unicode="&#x2260;" horiz-adv-x="599" 
d="M85 123l109 122h-92l13 60h133l93 103h-204l13 60h244l109 121h58l-109 -121h92l-13 -60h-132l-93 -103h203l-13 -60h-244l-109 -122h-58z" />
    <glyph glyph-name="fi" unicode="&#xfb01;" horiz-adv-x="584" 
d="M80 0l91 428h-105l14 60h104l25 117q15 68 56 104t103 36q22 0 41 -3.5t35 -10.5l-13 -65q-32 13 -65 13q-37 0 -57 -18.5t-29 -61.5l-24 -111h139l-14 -60h-138l-91 -428h-72zM551 608q-20 0 -33 13.5t-13 33.5q0 15 8 28.5t21 21.5t28 8q20 0 33 -13.5t13 -33.5
q0 -23 -17 -40.5t-40 -17.5zM383 0l107 488h71l-106 -488h-72z" />
    <glyph glyph-name="fl" unicode="&#xfb02;" horiz-adv-x="584" 
d="M80 0l91 428h-105l14 60h104l25 117q15 68 56 104t103 36q22 0 41 -3.5t35 -10.5l-13 -65q-32 13 -65 13q-37 0 -57 -18.5t-29 -61.5l-24 -111h139l-14 -60h-138l-91 -428h-72zM383 0l151 722l74 15l-153 -737h-72z" />
    <glyph glyph-name="uniFEFF" unicode="&#xfeff;" horiz-adv-x="0" 
 />
    <glyph glyph-name="uniFFFD" unicode="&#xfffd;" horiz-adv-x="514" 
d="M60 -100v850h394v-850h-394z" />
    <glyph glyph-name="NULL" horiz-adv-x="233" 
 />
    <glyph glyph-name="CR" horiz-adv-x="233" 
 />
    <glyph glyph-name="idotaccent" horiz-adv-x="218" 
d="M189 608q-20 0 -33 13.5t-13 33.5q0 15 8 28.5t21 21.5t28 8q20 0 33 -13.5t13 -33.5q0 -23 -17 -40.5t-40 -17.5zM21 0l107 488h71l-106 -488h-72z" />
    <glyph glyph-name="a.school" horiz-adv-x="570" 
d="M245 -7q-56 0 -100 29t-69 79t-25 113q0 57 19.5 107.5t54.5 89t80.5 60.5t97.5 22q51 0 91.5 -21t65.5 -61l17 77h72l-107 -488h-71l10 46q-28 -25 -62.5 -39t-73.5 -14zM271 56q69 0 123 49l54 248q-19 34 -56 55t-80 21q-53 0 -96 -28t-68.5 -75t-25.5 -106
q0 -73 41.5 -118.5t107.5 -45.5z" />
    <glyph glyph-name="aacute.school" horiz-adv-x="570" 
d="M245 -7q-56 0 -100 29t-69 79t-25 113q0 57 19.5 107.5t54.5 89t80.5 60.5t97.5 22q51 0 91.5 -21t65.5 -61l17 77h72l-107 -488h-71l10 46q-28 -25 -62.5 -39t-73.5 -14zM271 56q69 0 123 49l54 248q-19 34 -56 55t-80 21q-53 0 -96 -28t-68.5 -75t-25.5 -106
q0 -73 41.5 -118.5t107.5 -45.5zM294 584l135 122h101l-166 -122h-70z" />
    <glyph glyph-name="abreve.school" horiz-adv-x="570" 
d="M245 -7q-56 0 -100 29t-69 79t-25 113q0 57 19.5 107.5t54.5 89t80.5 60.5t97.5 22q51 0 91.5 -21t65.5 -61l17 77h72l-107 -488h-71l10 46q-28 -25 -62.5 -39t-73.5 -14zM271 56q69 0 123 49l54 248q-19 34 -56 55t-80 21q-53 0 -96 -28t-68.5 -75t-25.5 -106
q0 -73 41.5 -118.5t107.5 -45.5zM357 580q-61 0 -98.5 35.5t-39.5 96.5l48 9q2 -46 25.5 -70.5t66.5 -24.5q79 0 119 92l49 -16q-25 -58 -69.5 -90t-100.5 -32z" />
    <glyph glyph-name="acircumflex.school" horiz-adv-x="570" 
d="M245 -7q-56 0 -100 29t-69 79t-25 113q0 57 19.5 107.5t54.5 89t80.5 60.5t97.5 22q51 0 91.5 -21t65.5 -61l17 77h72l-107 -488h-71l10 46q-28 -25 -62.5 -39t-73.5 -14zM271 56q69 0 123 49l54 248q-19 34 -56 55t-80 21q-53 0 -96 -28t-68.5 -75t-25.5 -106
q0 -73 41.5 -118.5t107.5 -45.5zM194 579l137 127h77l87 -127h-56l-73 84l-111 -84h-61z" />
    <glyph glyph-name="adieresis.school" horiz-adv-x="570" 
d="M245 -7q-56 0 -100 29t-69 79t-25 113q0 57 19.5 107.5t54.5 89t80.5 60.5t97.5 22q51 0 91.5 -21t65.5 -61l17 77h72l-107 -488h-71l10 46q-28 -25 -62.5 -39t-73.5 -14zM271 56q69 0 123 49l54 248q-19 34 -56 55t-80 21q-53 0 -96 -28t-68.5 -75t-25.5 -106
q0 -73 41.5 -118.5t107.5 -45.5zM255 609q-20 0 -34 13.5t-14 33.5q0 22 17 38.5t40 16.5q20 0 34 -14t14 -34q0 -22 -16.5 -38t-40.5 -16zM459 609q-20 0 -34 13.5t-14 33.5q0 22 17 38.5t40 16.5q20 0 34 -14t14 -34q0 -22 -16.5 -38t-40.5 -16z" />
    <glyph glyph-name="agrave.school" horiz-adv-x="570" 
d="M245 -7q-56 0 -100 29t-69 79t-25 113q0 57 19.5 107.5t54.5 89t80.5 60.5t97.5 22q51 0 91.5 -21t65.5 -61l17 77h72l-107 -488h-71l10 46q-28 -25 -62.5 -39t-73.5 -14zM271 56q69 0 123 49l54 248q-19 34 -56 55t-80 21q-53 0 -96 -28t-68.5 -75t-25.5 -106
q0 -73 41.5 -118.5t107.5 -45.5zM319 584l-142 122h100l109 -122h-67z" />
    <glyph glyph-name="amacron.school" horiz-adv-x="570" 
d="M245 -7q-56 0 -100 29t-69 79t-25 113q0 57 19.5 107.5t54.5 89t80.5 60.5t97.5 22q51 0 91.5 -21t65.5 -61l17 77h72l-107 -488h-71l10 46q-28 -25 -62.5 -39t-73.5 -14zM271 56q69 0 123 49l54 248q-19 34 -56 55t-80 21q-53 0 -96 -28t-68.5 -75t-25.5 -106
q0 -73 41.5 -118.5t107.5 -45.5zM213 611l11 52h268l-11 -52h-268z" />
    <glyph glyph-name="aogonek.school" horiz-adv-x="570" 
d="M356 -232q-43 0 -69 21.5t-26 56.5q0 83 122 154h-12l10 46q-28 -25 -62.5 -39t-73.5 -14q-56 0 -100 29t-69 79t-25 113q0 57 19.5 107.5t54.5 89t80.5 60.5t97.5 22q51 0 91.5 -21t65.5 -61l17 77h72l-107 -488q-67 -36 -98.5 -70t-31.5 -69q0 -22 17 -35t43 -13
q11 0 23.5 2.5t22.5 6.5l4 -40q-13 -7 -30.5 -10.5t-35.5 -3.5zM122 220q0 -73 41.5 -118.5t107.5 -45.5q69 0 123 49l54 248q-19 34 -56 55t-80 21q-53 0 -96 -28t-68.5 -75t-25.5 -106z" />
    <glyph glyph-name="aring.school" horiz-adv-x="570" 
d="M245 -7q-56 0 -100 29t-69 79t-25 113q0 57 19.5 107.5t54.5 89t80.5 60.5t97.5 22q51 0 91.5 -21t65.5 -61l17 77h72l-107 -488h-71l10 46q-28 -25 -62.5 -39t-73.5 -14zM271 56q69 0 123 49l54 248q-19 34 -56 55t-80 21q-53 0 -96 -28t-68.5 -75t-25.5 -106
q0 -73 41.5 -118.5t107.5 -45.5zM359 572q-44 0 -72.5 27.5t-28.5 70.5q0 33 16.5 61t43.5 45.5t58 17.5q45 0 73.5 -27.5t28.5 -70.5q0 -33 -16.5 -61t-43.5 -45.5t-59 -17.5zM359 612q31 0 53.5 24t22.5 56q0 26 -16.5 43.5t-42.5 17.5q-30 0 -53 -23.5t-23 -56.5
q0 -26 17 -43.5t42 -17.5z" />
    <glyph glyph-name="atilde.school" horiz-adv-x="570" 
d="M245 -7q-56 0 -100 29t-69 79t-25 113q0 57 19.5 107.5t54.5 89t80.5 60.5t97.5 22q51 0 91.5 -21t65.5 -61l17 77h72l-107 -488h-71l10 46q-28 -25 -62.5 -39t-73.5 -14zM271 56q69 0 123 49l54 248q-19 34 -56 55t-80 21q-53 0 -96 -28t-68.5 -75t-25.5 -106
q0 -73 41.5 -118.5t107.5 -45.5zM232 585l-49 15q23 47 50.5 71.5t56.5 24.5q23 0 42 -9.5t36 -22t32.5 -22t30.5 -9.5t26 12.5t27 47.5l49 -15q-22 -47 -48.5 -71.5t-55.5 -24.5q-22 0 -41 9.5t-36 21.5t-32.5 21.5t-30.5 9.5q-17 0 -30 -13.5t-27 -45.5z" />
    <glyph glyph-name="g.alt" horiz-adv-x="526" 
d="M210 -219q-73 0 -127 14.5t-83.5 41t-29.5 62.5q0 35 30 61t88 40q-45 23 -45 67q0 35 29 62t73 37q-32 22 -51 56t-19 75q0 53 30 98t79.5 72.5t107.5 27.5q44 0 81 -16t62 -45q12 44 41 67.5t69 23.5q8 0 18 -1.5t18 -3.5l-14 -69q-10 3 -21.5 5t-24.5 2
q-24 0 -43 -12.5t-27 -33.5q11 -17 16.5 -37.5t5.5 -43.5q0 -52 -30 -97.5t-79.5 -73t-107.5 -27.5q-22 0 -42.5 4.5t-38.5 11.5q-29 -6 -47 -21.5t-18 -35.5q0 -33 51 -41l181 -24q53 -7 80 -30.5t27 -61.5q0 -46 -29.5 -81t-83 -54t-126.5 -19zM261 189q38 0 70.5 19
t52 51t19.5 69q0 48 -32.5 79.5t-82.5 31.5q-39 0 -71.5 -19t-52 -50.5t-19.5 -69.5q0 -48 33 -79.5t83 -31.5zM214 -166q48 0 84 10.5t56 29t20 42.5q0 19 -13 31.5t-39 15.5l-177 21q-5 1 -10.5 2t-10.5 2q-39 -10 -61.5 -29.5t-22.5 -45.5q0 -36 47 -57.5t127 -21.5z" />
    <glyph glyph-name="gbreve.alt" horiz-adv-x="526" 
d="M210 -219q-73 0 -127 14.5t-83.5 41t-29.5 62.5q0 35 30 61t88 40q-45 23 -45 67q0 35 29 62t73 37q-32 22 -51 56t-19 75q0 53 30 98t79.5 72.5t107.5 27.5q44 0 81 -16t62 -45q12 44 41 67.5t69 23.5q8 0 18 -1.5t18 -3.5l-14 -69q-10 3 -21.5 5t-24.5 2
q-24 0 -43 -12.5t-27 -33.5q11 -17 16.5 -37.5t5.5 -43.5q0 -52 -30 -97.5t-79.5 -73t-107.5 -27.5q-22 0 -42.5 4.5t-38.5 11.5q-29 -6 -47 -21.5t-18 -35.5q0 -33 51 -41l181 -24q53 -7 80 -30.5t27 -61.5q0 -46 -29.5 -81t-83 -54t-126.5 -19zM261 189q38 0 70.5 19
t52 51t19.5 69q0 48 -32.5 79.5t-82.5 31.5q-39 0 -71.5 -19t-52 -50.5t-19.5 -69.5q0 -48 33 -79.5t83 -31.5zM214 -166q48 0 84 10.5t56 29t20 42.5q0 19 -13 31.5t-39 15.5l-177 21q-5 1 -10.5 2t-10.5 2q-39 -10 -61.5 -29.5t-22.5 -45.5q0 -36 47 -57.5t127 -21.5z
M324 580q-61 0 -98.5 35.5t-39.5 96.5l48 9q2 -46 25.5 -70.5t66.5 -24.5q79 0 119 92l49 -16q-25 -58 -69.5 -90t-100.5 -32z" />
    <glyph glyph-name="gcircumflex.alt" horiz-adv-x="526" 
d="M210 -219q-73 0 -127 14.5t-83.5 41t-29.5 62.5q0 35 30 61t88 40q-45 23 -45 67q0 35 29 62t73 37q-32 22 -51 56t-19 75q0 53 30 98t79.5 72.5t107.5 27.5q44 0 81 -16t62 -45q12 44 41 67.5t69 23.5q8 0 18 -1.5t18 -3.5l-14 -69q-10 3 -21.5 5t-24.5 2
q-24 0 -43 -12.5t-27 -33.5q11 -17 16.5 -37.5t5.5 -43.5q0 -52 -30 -97.5t-79.5 -73t-107.5 -27.5q-22 0 -42.5 4.5t-38.5 11.5q-29 -6 -47 -21.5t-18 -35.5q0 -33 51 -41l181 -24q53 -7 80 -30.5t27 -61.5q0 -46 -29.5 -81t-83 -54t-126.5 -19zM261 189q38 0 70.5 19
t52 51t19.5 69q0 48 -32.5 79.5t-82.5 31.5q-39 0 -71.5 -19t-52 -50.5t-19.5 -69.5q0 -48 33 -79.5t83 -31.5zM214 -166q48 0 84 10.5t56 29t20 42.5q0 19 -13 31.5t-39 15.5l-177 21q-5 1 -10.5 2t-10.5 2q-39 -10 -61.5 -29.5t-22.5 -45.5q0 -36 47 -57.5t127 -21.5z
M161 579l137 127h77l87 -127h-56l-73 84l-111 -84h-61z" />
    <glyph glyph-name="gcommaaccent.alt" horiz-adv-x="526" 
d="M458 797l-87 -187h-77l111 187h53zM210 -219q-73 0 -127 14.5t-83.5 41t-29.5 62.5q0 35 30 61t88 40q-45 23 -45 67q0 35 29 62t73 37q-32 22 -51 56t-19 75q0 53 30 98t79.5 72.5t107.5 27.5q44 0 81 -16t62 -45q12 44 41 67.5t69 23.5q8 0 18 -1.5t18 -3.5l-14 -69
q-10 3 -21.5 5t-24.5 2q-24 0 -43 -12.5t-27 -33.5q11 -17 16.5 -37.5t5.5 -43.5q0 -52 -30 -97.5t-79.5 -73t-107.5 -27.5q-22 0 -42.5 4.5t-38.5 11.5q-29 -6 -47 -21.5t-18 -35.5q0 -33 51 -41l181 -24q53 -7 80 -30.5t27 -61.5q0 -46 -29.5 -81t-83 -54t-126.5 -19z
M261 189q38 0 70.5 19t52 51t19.5 69q0 48 -32.5 79.5t-82.5 31.5q-39 0 -71.5 -19t-52 -50.5t-19.5 -69.5q0 -48 33 -79.5t83 -31.5zM214 -166q48 0 84 10.5t56 29t20 42.5q0 19 -13 31.5t-39 15.5l-177 21q-5 1 -10.5 2t-10.5 2q-39 -10 -61.5 -29.5t-22.5 -45.5
q0 -36 47 -57.5t127 -21.5z" />
    <glyph glyph-name="gdotaccent.alt" horiz-adv-x="526" 
d="M210 -219q-73 0 -127 14.5t-83.5 41t-29.5 62.5q0 35 30 61t88 40q-45 23 -45 67q0 35 29 62t73 37q-32 22 -51 56t-19 75q0 53 30 98t79.5 72.5t107.5 27.5q44 0 81 -16t62 -45q12 44 41 67.5t69 23.5q8 0 18 -1.5t18 -3.5l-14 -69q-10 3 -21.5 5t-24.5 2
q-24 0 -43 -12.5t-27 -33.5q11 -17 16.5 -37.5t5.5 -43.5q0 -52 -30 -97.5t-79.5 -73t-107.5 -27.5q-22 0 -42.5 4.5t-38.5 11.5q-29 -6 -47 -21.5t-18 -35.5q0 -33 51 -41l181 -24q53 -7 80 -30.5t27 -61.5q0 -46 -29.5 -81t-83 -54t-126.5 -19zM261 189q38 0 70.5 19
t52 51t19.5 69q0 48 -32.5 79.5t-82.5 31.5q-39 0 -71.5 -19t-52 -50.5t-19.5 -69.5q0 -48 33 -79.5t83 -31.5zM214 -166q48 0 84 10.5t56 29t20 42.5q0 19 -13 31.5t-39 15.5l-177 21q-5 1 -10.5 2t-10.5 2q-39 -10 -61.5 -29.5t-22.5 -45.5q0 -36 47 -57.5t127 -21.5z
M323 609q-20 0 -34 14.5t-14 33.5q0 22 17.5 39t39.5 17q20 0 34.5 -14.5t14.5 -34.5q0 -14 -8 -26.5t-21 -20.5t-29 -8z" />
    <glyph glyph-name="caronSlovak" 
d="M318 527l49 195l75 15l-66 -210h-58z" />
    <glyph glyph-name="commaaccent" 
d="M117 -274l87 187h77l-111 -187h-53z" />
    <glyph glyph-name="exclamdown.cap" horiz-adv-x="215" 
d="M189 500l-105 -522h-74l122 522h57zM198 713q20 0 33.5 -14t13.5 -34q0 -23 -17.5 -40.5t-40.5 -17.5q-20 0 -33 14t-13 33q0 16 8 29t21 21.5t28 8.5z" />
    <glyph glyph-name="questiondown.cap" horiz-adv-x="501" 
d="M353 704q20 0 33 -14t13 -34q0 -23 -17.5 -40.5t-40.5 -17.5q-19 0 -32 14t-13 33q0 16 8 29t21 21.5t28 8.5zM348 489q-10 -66 -37 -107t-79 -71l-62 -36q-40 -25 -62.5 -57t-22.5 -67q0 -42 34 -69t89 -27q44 0 86 21t79 58l45 -41q-48 -50 -104.5 -77t-115.5 -27
q-54 0 -95.5 19.5t-65 54t-23.5 79.5q0 56 30 99.5t96 83.5l59 35q41 23 61 53t27 76h61z" />
    <glyph glyph-name="periodcentered.cap" horiz-adv-x="250" 
d="M141 294q-20 0 -33.5 14t-13.5 35q0 16 8 29.5t21.5 22t28.5 8.5q20 0 33 -14t13 -35q0 -15 -8 -29t-21 -22.5t-28 -8.5z" />
    <glyph glyph-name="hyphen.cap" horiz-adv-x="454" 
d="M73 315l15 63h325l-14 -63h-326z" />
    <glyph glyph-name="endash.cap" horiz-adv-x="549" 
d="M74 315l15 63h418l-14 -63h-419z" />
    <glyph glyph-name="emdash.cap" horiz-adv-x="693" 
d="M76 315l15 63h558l-15 -63h-558z" />
    <glyph glyph-name="uni2015.cap" horiz-adv-x="929" 
d="M77 315l15 63h790l-14 -63h-791z" />
    <glyph glyph-name="at.cap" horiz-adv-x="759" 
d="M421 -9q-73 0 -135 26.5t-108.5 74t-72 111.5t-25.5 139q0 79 25.5 146.5t71 117.5t107 77.5t133.5 27.5q68 0 126 -23t101 -64.5t67 -97.5t24 -122q0 -61 -22 -109.5t-60 -76.5t-86 -28q-64 0 -89 41q-24 -22 -49.5 -33.5t-51.5 -11.5q-39 0 -70 20t-49 54t-18 77
q0 49 22 89t58.5 64t81.5 24q28 0 53 -10t42 -29l5 26h55l-38 -192q-7 -36 7.5 -55.5t45.5 -19.5q34 0 60 22t41.5 60.5t15.5 85.5q0 76 -36 136t-97.5 94.5t-140.5 34.5q-61 0 -113.5 -24.5t-92 -69t-61.5 -103t-22 -126.5q0 -89 38.5 -158.5t106 -109.5t153.5 -40
q89 0 162 41l17 -41q-41 -22 -86.5 -33.5t-95.5 -11.5zM388 233q43 0 77 36q-1 10 -0.5 21t2.5 24l20 106q-13 22 -36 34t-51 12q-29 0 -53 -17t-38.5 -45.5t-14.5 -62.5q0 -48 26.5 -78t67.5 -30z" />
    <glyph glyph-name="zero.tab" 
d="M280 -11q-62 0 -112 31.5t-78.5 94t-28.5 155.5q0 94 24.5 174t67 140t97 93.5t114.5 33.5q63 0 112.5 -31.5t78 -94t28.5 -155.5q0 -94 -24.5 -174t-67 -140t-97 -93.5t-114.5 -33.5zM280 54q47 0 88.5 28.5t74 79.5t51 118.5t18.5 145.5q0 32 -3.5 59.5t-11.5 49.5
l-314 -437q38 -44 97 -44zM149 160l313 440q-38 46 -98 46q-46 0 -88 -28.5t-74.5 -79.5t-51 -118.5t-18.5 -145.5q0 -33 4.5 -61.5t12.5 -52.5z" />
    <glyph glyph-name="one.tab" 
d="M60 0l13 63h177l118 553l-193 -78l15 72l223 90h45l-136 -637h202l-13 -63h-451z" />
    <glyph glyph-name="two.tab" 
d="M31 0l11 53l375 342q42 38 62 74.5t20 73.5q0 46 -36.5 75t-93.5 29q-44 0 -86 -18.5t-99 -60.5l-31 53q62 45 117.5 67.5t111.5 22.5t98 -20t66 -56t24 -83q0 -54 -25 -98.5t-86 -98.5l-322 -293l348 1l-13 -63h-441z" />
    <glyph glyph-name="three.tab" 
d="M268 -11q-76 0 -136.5 31.5t-107.5 90.5l54 44q42 -55 90.5 -79t106.5 -24q51 0 89.5 19t60 52.5t21.5 76.5q0 36 -17.5 65t-49.5 45.5t-77 16.5h-59l13 62h80q42 0 76.5 18.5t55 49t20.5 67.5q0 50 -37.5 86.5t-108.5 36.5q-50 0 -91 -15.5t-85 -51.5l-38 50
q44 40 98 60.5t117 20.5q71 0 119.5 -24.5t73.5 -64.5t25 -87q0 -60 -37 -109.5t-120 -74.5q53 -18 83 -58t30 -89q0 -62 -32 -111t-88.5 -76.5t-128.5 -27.5z" />
    <glyph glyph-name="four.tab" 
d="M355 0l40 187h-378l12 57l469 456h77l-96 -450h97l-13 -63h-97l-40 -187h-71zM116 250h292l76 359z" />
    <glyph glyph-name="five.tab" 
d="M264 -11q-73 0 -134 29t-100 82l49 46q38 -49 84.5 -72t104.5 -23q54 0 96 24t66.5 65.5t24.5 92.5q0 66 -42 103.5t-117 37.5q-31 0 -64 -7.5t-73 -24.5l-45 21l85 337h393l-14 -63h-331l-60 -233q35 15 66 21.5t65 6.5q65 0 112 -23t72.5 -66t25.5 -103
q0 -52 -20.5 -97.5t-57 -80t-84 -54t-102.5 -19.5z" />
    <glyph glyph-name="six.tab" 
d="M307 -11q-64 0 -119 33.5t-89 97.5t-34 155q0 101 27 181.5t75 137t110 87t132 30.5q57 0 102 -16.5t85 -47.5l-40 -59q-37 30 -73 44t-73 14q-68 0 -125.5 -37.5t-96 -105.5t-49.5 -161q42 47 93.5 72t108.5 25q65 0 114 -27t76 -73t27 -104q0 -56 -20 -101t-55 -77.5
t-80.5 -50t-95.5 -17.5zM316 53q48 0 86.5 23.5t61 64.5t22.5 93q0 65 -42 105.5t-116 40.5q-52 0 -102.5 -24t-89.5 -67q0 -76 23.5 -128.5t64 -80t92.5 -27.5z" />
    <glyph glyph-name="seven.tab" 
d="M64 0l483 637h-419l14 63h499l-12 -56l-481 -644h-84z" />
    <glyph glyph-name="eight.tab" 
d="M280 -10q-71 0 -125.5 25.5t-84.5 69t-30 96.5q0 48 23.5 88.5t66.5 69t101 39.5q-48 20 -73 57t-25 82q0 59 32 102.5t85 67.5t116 24q68 0 114.5 -23.5t71 -62.5t24.5 -84q0 -44 -19.5 -80t-56.5 -62t-88 -39q55 -22 89.5 -65t34.5 -98q0 -62 -35 -108.5t-93 -72.5
t-128 -26zM349 399q43 0 78.5 18t57 49t21.5 70q0 50 -35.5 83.5t-110.5 33.5q-43 0 -78.5 -18t-57 -48.5t-21.5 -70.5q0 -49 39.5 -83t106.5 -34zM286 47q80 0 129 42t49 108q0 39 -21 70.5t-59 50.5t-91 19q-82 0 -131.5 -41.5t-49.5 -106.5q0 -39 21 -71t60.5 -51.5
t92.5 -19.5z" />
    <glyph glyph-name="nine.tab" 
d="M333 711q64 0 119 -33.5t89 -97.5t34 -155q0 -101 -27 -181.5t-75 -137t-110 -87t-132 -30.5q-57 0 -102 16.5t-85 47.5l40 59q37 -30 73 -44t73 -14q68 0 125.5 37.5t96 105.5t49.5 161q-42 -47 -93.5 -72t-108.5 -25q-65 0 -114 27t-76 73t-27 104q0 56 20 101t55 77.5
t80.5 50t95.5 17.5zM324 647q-48 0 -86.5 -23.5t-61 -64.5t-22.5 -93q0 -65 42 -105.5t116 -40.5q52 0 102.5 24t89.5 67q0 76 -23.5 128.5t-64 80t-92.5 27.5z" />
    <glyph glyph-name="gravecomb" horiz-adv-x="0" 
d="M344 584l-142 122h100l109 -122h-67z" />
    <glyph glyph-name="acutecomb" horiz-adv-x="0" 
d="M319 584l135 122h101l-166 -122h-70z" />
    <glyph glyph-name="tildecomb" horiz-adv-x="0" 
d="M257 585l-49 15q23 47 50.5 71.5t56.5 24.5q23 0 42 -9.5t36 -22t32.5 -22t30.5 -9.5t26 12.5t27 47.5l49 -15q-22 -47 -48.5 -71.5t-55.5 -24.5q-22 0 -41 9.5t-36 21.5t-32.5 21.5t-30.5 9.5q-17 0 -30 -13.5t-27 -45.5z" />
    </font>
</defs>
</svg>
