<?xml version="1.0" standalone="no"?>
<!DOCTYPE svg PUBLIC "-//W3C//DTD SVG 1.1//EN" "http://www.w3.org/Graphics/SVG/1.1/DTD/svg11.dtd" >
<svg xmlns="http://www.w3.org/2000/svg" xmlns:xlink="http://www.w3.org/1999/xlink" version="1.1">
<metadata>
Created by FontForge 20170731 at Thu Jul 28 13:13:41 2022
 By Aleksey,,,
Copyright 2021 The Red Hat Project Authors (https://github.com/RedHatOfficial/RedHatFont)
</metadata>
<defs>
<font id="RedHatDisplay-SemiBoldItalic" horiz-adv-x="600" >
  <font-face 
    font-family="Red Hat Display SemiBold"
    font-weight="600"
    font-style="italic"
    font-stretch="normal"
    units-per-em="1000"
    panose-1="2 1 3 3 4 2 1 13 3 3"
    ascent="800"
    descent="-200"
    x-height="509"
    cap-height="700"
    bbox="-166 -273 1135 1004"
    underline-thickness="100"
    underline-position="-350"
    slope="-12"
    unicode-range="U+0020-FFFD"
  />
<missing-glyph horiz-adv-x="514" 
d="M60 -100v850h394v-850h-394z" />
    <glyph glyph-name=".notdef" horiz-adv-x="514" 
d="M60 -100v850h394v-850h-394z" />
    <glyph glyph-name=".null" horiz-adv-x="0" 
 />
    <glyph glyph-name="nonmarkingreturn" horiz-adv-x="333" 
 />
    <glyph glyph-name="space" unicode=" " horiz-adv-x="209" 
 />
    <glyph glyph-name="exclam" unicode="!" horiz-adv-x="210" 
d="M56 200l95 504h101l-119 -504h-77zM56 -7q-24 0 -40 16t-16 39q0 19 10 35t26 26t35 10q24 0 39 -16t15 -40q0 -18 -9.5 -34.5t-25.5 -26t-34 -9.5z" />
    <glyph glyph-name="quotedbl" unicode="&#x22;" horiz-adv-x="365" 
d="M113 467l38 235h97l-64 -235h-71zM264 467l38 235h97l-64 -235h-71z" />
    <glyph glyph-name="numbersign" unicode="#" horiz-adv-x="697" 
d="M7 0l103 209h-103l15 74h124l66 134h-112l16 74h132l103 209h91l-103 -209h174l103 209h89l-103 -209h104l-16 -74h-124l-66 -134h112l-16 -74h-132l-103 -209h-90l103 209h-174l-103 -209h-90zM237 283h174l65 134h-174z" />
    <glyph glyph-name="dollar" unicode="$" horiz-adv-x="569" 
d="M183 -67l19 89q-63 11 -116.5 43t-95.5 83l67 65q69 -86 162 -108l46 212l-46 12q-71 20 -106.5 59.5t-35.5 98.5q0 61 30.5 105.5t86.5 68.5t132 24h16l18 82h55l-19 -88q56 -10 106.5 -35t91.5 -63l-63 -69q-69 65 -152 84l-42 -201l26 -6q90 -24 130 -61.5t40 -100.5
t-33 -110t-92.5 -73.5t-139.5 -26.5h-12l-18 -84h-55zM283 405l42 198h-10q-65 0 -105.5 -28t-40.5 -76q0 -32 22.5 -53t71.5 -35zM273 99q51 1 88 15t57 40t20 59q0 24 -11.5 40.5t-38 29.5t-70.5 25z" />
    <glyph glyph-name="percent" unicode="%" horiz-adv-x="778" 
d="M208 345q-59 0 -94.5 38t-35.5 101q0 61 24.5 111t64.5 80t90 30q60 0 95 -38t35 -101q0 -61 -24 -111t-64.5 -80t-90.5 -30zM215 402q30 0 55 22t40 59t15 80q0 40 -20.5 63t-55.5 23q-28 0 -53 -22t-40 -59t-15 -80q0 -40 20 -63t54 -23zM102 0l535 700h76l-537 -700
h-74zM561 -5q-60 0 -95.5 38t-35.5 101q0 61 24.5 111t65 80t88.5 30q61 0 96 -37.5t35 -101.5q0 -60 -24 -110.5t-64.5 -80.5t-89.5 -30zM567 52q30 0 55 22t40 59t15 80q0 40 -20.5 63t-54.5 23q-29 0 -54 -22t-40 -59t-15 -80q0 -40 20 -63t54 -23z" />
    <glyph glyph-name="ampersand" unicode="&#x26;" horiz-adv-x="652" 
d="M601 56l-66 -68q-21 16 -42 36t-43 42q-47 -38 -100 -57.5t-111 -19.5q-68 0 -119 23t-79 63.5t-28 95.5q0 49 19 87.5t61 71.5t111 65q-18 34 -26 63t-8 61q0 55 25 98.5t69 68t100 24.5q46 0 81.5 -17t55.5 -47.5t20 -70.5q0 -55 -34 -98.5t-106 -79.5l-56 -27
q30 -47 64.5 -91.5t70.5 -85.5q28 34 53 76.5t45 91.5l83 -22q-26 -62 -57 -113t-67 -92q22 -22 42.5 -41.5t41.5 -36.5zM260 529q0 -23 7 -45.5t22 -51.5l56 27q43 22 63.5 47.5t20.5 56.5q0 32 -19.5 52t-53.5 20q-28 0 -49.5 -13.5t-34 -37t-12.5 -55.5zM107 186
q0 -52 39 -84t104 -32q38 0 75 14t70 40q-39 44 -77.5 95t-77.5 111q-47 -21 -76.5 -43.5t-43 -47t-13.5 -53.5z" />
    <glyph glyph-name="quotesingle" unicode="'" horiz-adv-x="211" 
d="M113 467l38 235h97l-64 -235h-71z" />
    <glyph glyph-name="parenleft" unicode="(" horiz-adv-x="390" 
d="M210 -215q-81 63 -123 153.5t-42 202.5q0 123 43.5 234t123.5 198t189 138l40 -69q-68 -32 -123.5 -83.5t-95.5 -116.5t-61.5 -139.5t-21.5 -152.5q0 -97 35 -174.5t101 -130.5z" />
    <glyph glyph-name="parenright" unicode=")" horiz-adv-x="390" 
d="M181 713q81 -62 123 -152.5t42 -202.5q0 -124 -43.5 -234.5t-123.5 -197.5t-189 -139l-40 70q68 32 123.5 83t95.5 116t62 139.5t22 153.5q0 97 -35 174t-102 130z" />
    <glyph glyph-name="asterisk" unicode="*" horiz-adv-x="449" 
d="M207 331l29 130l-122 -63l-26 61l132 63l-100 78l46 52l95 -77l25 125h66l-28 -126l121 61l27 -60l-131 -63l101 -76l-48 -54l-94 77l-25 -128h-68z" />
    <glyph glyph-name="plus" unicode="+" horiz-adv-x="599" 
d="M238 139l38 178h-167l17 79h166l39 178h78l-38 -178h166l-17 -79h-166l-38 -178h-78z" />
    <glyph glyph-name="comma" unicode="," horiz-adv-x="250" 
d="M-56 -143l111 233h104l-139 -233h-76z" />
    <glyph glyph-name="hyphen" unicode="-" horiz-adv-x="443" 
d="M60 326h353l-18 -87h-354z" />
    <glyph glyph-name="period" unicode="." horiz-adv-x="250" 
d="M76 -7q-24 0 -40 16t-16 39q0 19 10 35t26 26t35 10q24 0 39.5 -16t15.5 -40q0 -18 -10 -34.5t-25.5 -26t-34.5 -9.5z" />
    <glyph glyph-name="slash" unicode="/" horiz-adv-x="475" 
d="M-166 -206l606 906h104l-607 -906h-103z" />
    <glyph glyph-name="zero" unicode="0" horiz-adv-x="662" 
d="M304 -11q-75 0 -132 34.5t-88 96.5t-31 145q0 92 27 172.5t75 142t110 96.5t133 35q76 0 132.5 -34t88 -96t31.5 -146q0 -91 -27 -171.5t-75 -142.5t-110.5 -97t-133.5 -35zM315 76q49 0 92 28.5t76 77.5t51.5 113.5t18.5 136.5q0 90 -44 141.5t-121 51.5
q-49 0 -92 -28.5t-76 -77.5t-52 -113.5t-19 -137.5q0 -89 44.5 -140.5t121.5 -51.5z" />
    <glyph glyph-name="one" unicode="1" horiz-adv-x="308" 
d="M93 0l128 597l-135 -53l18 88l173 68h63l-149 -700h-98z" />
    <glyph glyph-name="two" unicode="2" horiz-adv-x="544" 
d="M-11 0l15 70l365 326q42 37 60.5 69.5t18.5 66.5q0 42 -33.5 68t-85.5 26q-43 0 -85 -18.5t-98 -59.5l-41 71q60 45 119 68t119 23q59 0 104 -20.5t70 -58t25 -87.5q0 -36 -11 -68t-36 -63.5t-67 -67.5l-294 -263l332 1l-18 -83h-459z" />
    <glyph glyph-name="three" unicode="3" horiz-adv-x="585" 
d="M260 -11q-79 0 -143.5 33.5t-108.5 94.5l71 56q40 -53 86 -76t101 -23q48 0 83.5 16.5t55.5 46.5t20 68q0 47 -34.5 78t-95.5 31h-62l18 81h75q40 0 72 16.5t51 44t19 61.5q0 45 -34.5 76.5t-97.5 31.5q-48 0 -90 -15.5t-85 -50.5l-49 66q46 42 104 64t123 22
q72 0 122 -24.5t77 -65t27 -89.5q0 -63 -39.5 -112.5t-119.5 -71.5q54 -17 83.5 -55.5t29.5 -88.5q0 -61 -33.5 -110t-92 -77t-133.5 -28z" />
    <glyph glyph-name="four" unicode="4" horiz-adv-x="628" 
d="M361 0l38 178h-390l17 79l472 443h109l-93 -438h83l-17 -84h-84l-38 -178h-97zM146 262h271l67 318z" />
    <glyph glyph-name="five" unicode="5" horiz-adv-x="571" 
d="M251 -10q-75 0 -138 29t-104 83l66 61q39 -47 83 -69t99 -22q49 0 87.5 21t60.5 57.5t22 81.5q0 59 -40.5 93.5t-108.5 34.5q-29 0 -59 -7t-66 -23l-64 27l87 343h411l-18 -83h-326l-54 -207q34 14 63 19.5t59 5.5q65 0 113 -23.5t74 -66.5t26 -101q0 -71 -36.5 -128.5
t-98 -91.5t-138.5 -34z" />
    <glyph glyph-name="six" unicode="6" horiz-adv-x="613" 
d="M309 -11q-69 0 -125 34t-89.5 98t-33.5 154q0 98 27.5 178t76.5 137.5t113.5 89t136.5 31.5q60 0 108.5 -18.5t88.5 -51.5l-56 -74q-35 30 -70.5 44t-73.5 14q-63 0 -116.5 -35.5t-90 -99t-47.5 -149.5q40 46 90 70.5t105 24.5q64 0 112 -26t75 -71t27 -101
q0 -55 -20.5 -100.5t-56.5 -79t-82.5 -51.5t-98.5 -18zM318 73q44 0 79 20.5t55 56.5t20 81q0 39 -17 67.5t-49 45t-75 16.5q-48 0 -94 -20.5t-83 -59.5q2 -66 23 -112.5t57.5 -70.5t83.5 -24z" />
    <glyph glyph-name="seven" unicode="7" horiz-adv-x="563" 
d="M44 0l462 615h-404l19 85h510l-16 -73l-456 -627h-115z" />
    <glyph glyph-name="eight" unicode="8" horiz-adv-x="610" 
d="M281 -10q-72 0 -127 25t-86 68t-31 97q0 47 23 86.5t64.5 68t95.5 40.5q-44 20 -68 55t-24 78q0 60 33.5 106t89 71.5t121.5 25.5q68 0 115.5 -23.5t73.5 -63t26 -87.5q0 -42 -19 -78t-55 -62t-84 -40q52 -21 84 -61.5t32 -93.5q0 -62 -35.5 -110t-95.5 -75t-133 -27z
M351 403q39 0 71 16.5t51.5 44.5t19.5 63q0 30 -14.5 54t-43 38t-71.5 14q-39 0 -71.5 -16.5t-52 -44.5t-19.5 -64q0 -30 16.5 -54t45.5 -37.5t68 -13.5zM289 68q48 0 84 17t56.5 48t20.5 70q0 34 -19 62t-53 44.5t-81 16.5q-48 0 -85 -17t-57.5 -47t-20.5 -69q0 -35 19 -63
t54 -45t82 -17z" />
    <glyph glyph-name="nine" unicode="9" horiz-adv-x="613" 
d="M343 711q68 0 124 -34t89.5 -98t33.5 -154q0 -97 -27.5 -177.5t-76.5 -138t-113 -89t-137 -31.5q-59 0 -107.5 18.5t-89.5 51.5l56 74q37 -30 72 -44t72 -14q63 0 116.5 35.5t90.5 99.5t47 149q-40 -45 -90 -70t-105 -25q-63 0 -111.5 26t-75 71.5t-26.5 100.5
t20.5 100.5t56 79t82.5 51.5t99 18zM333 627q-43 0 -78 -20.5t-55.5 -56.5t-20.5 -81q0 -38 17.5 -67t49 -45.5t75.5 -16.5q48 0 94 21t82 59q0 66 -21.5 112.5t-58 70.5t-84.5 24z" />
    <glyph glyph-name="colon" unicode=":" horiz-adv-x="250" 
d="M77 -7q-24 0 -40 16t-16 39q0 19 10 35t26 26t35 10q24 0 39.5 -16t15.5 -40q0 -18 -10 -34.5t-25.5 -26t-34.5 -9.5zM162 393q-24 0 -40 16t-16 39q0 19 10 35t26 26t35 10q24 0 39.5 -16t15.5 -40q0 -18 -10 -34.5t-25.5 -26t-34.5 -9.5z" />
    <glyph glyph-name="semicolon" unicode=";" horiz-adv-x="250" 
d="M168 393q-24 0 -40 16t-16 39q0 19 10 35t26 26t35 10q24 0 39.5 -16t15.5 -40q0 -18 -10 -34.5t-25.5 -26t-34.5 -9.5zM-56 -143l111 233h104l-139 -233h-76z" />
    <glyph glyph-name="less" unicode="&#x3c;" horiz-adv-x="599" 
d="M404 85l-273 263l378 263l42 -65l-299 -203l212 -199z" />
    <glyph glyph-name="equal" unicode="=" 
d="M91 228l17 79h410l-17 -79h-410zM128 402l17 79h410l-17 -79h-410z" />
    <glyph glyph-name="greater" unicode="&#x3e;" 
d="M240 611l273 -263l-378 -263l-42 66l299 203l-212 199z" />
    <glyph glyph-name="question" unicode="?" horiz-adv-x="504" 
d="M169 205q7 48 20.5 81.5t37.5 59t60 45.5l63 37q39 23 60.5 52t21.5 58q0 39 -32.5 62.5t-85.5 23.5q-44 0 -86.5 -20.5t-75.5 -57.5l-67 45q48 56 111.5 88t131.5 32q59 0 104.5 -20t71.5 -56t26 -83q0 -57 -33.5 -102.5t-107.5 -88.5l-52 -30q-39 -21 -58 -50.5
t-27 -75.5h-83zM173 -7q-23 0 -39 16t-16 39q0 19 10 35t25.5 26t34.5 10q25 0 40.5 -16t15.5 -40q0 -18 -10 -34.5t-26 -26t-35 -9.5z" />
    <glyph glyph-name="at" unicode="@" horiz-adv-x="773" 
d="M399 -144q-78 0 -144 26.5t-115.5 74t-76.5 111.5t-27 139q0 79 27 147t76 118t115 78t143 28q72 0 133 -23t106.5 -64.5t71 -97t25.5 -120.5q0 -64 -23.5 -114t-64.5 -78.5t-94 -28.5q-70 0 -98 41q-49 -43 -105 -43q-41 0 -74 20t-52 54.5t-19 77.5q0 50 23.5 91
t62.5 65t87 24q28 0 53.5 -9.5t44.5 -26.5l4 23h73l-41 -197q-6 -32 6.5 -49t42.5 -17q34 0 60.5 21t41 58t14.5 84q0 74 -36.5 132.5t-100 92.5t-143.5 34q-63 0 -118 -24.5t-96.5 -67.5t-64 -101t-22.5 -124q0 -88 39.5 -156t108.5 -106.5t159 -38.5q93 0 168 38l21 -48
q-44 -22 -92 -33t-99 -11zM364 109q42 0 74 31q-2 17 2 40l20 99q-13 20 -35 30.5t-48 10.5q-28 0 -51.5 -15t-37.5 -40.5t-14 -56.5q0 -44 25.5 -71.5t64.5 -27.5z" />
    <glyph glyph-name="A" unicode="A" horiz-adv-x="687" 
d="M-53 0l429 700h122l135 -700h-107l-37 205h-306l-123 -205h-113zM235 292h239l-56 306z" />
    <glyph glyph-name="B" unicode="B" horiz-adv-x="658" 
d="M16 0l149 700h277q93 0 147 -43t54 -118q0 -61 -35 -109t-94 -73q44 -20 69 -55t25 -81q0 -64 -34 -114t-93 -78.5t-136 -28.5h-329zM204 403h192q63 0 102.5 33.5t39.5 86.5q0 41 -30 64.5t-82 23.5h-177zM137 89h210q47 0 82 16.5t55 46.5t20 68q0 46 -33 72.5
t-92 26.5h-193z" />
    <glyph glyph-name="C" unicode="C" horiz-adv-x="708" 
d="M394 -11q-71 0 -132 25t-106.5 70t-70.5 105.5t-25 130.5q0 80 30 150t83 124t122.5 84t148.5 30q90 0 161.5 -33.5t116.5 -97.5l-78 -69q-33 50 -86.5 77.5t-118.5 27.5q-57 0 -107 -22.5t-87.5 -62t-58.5 -92t-21 -112.5q0 -68 31.5 -122.5t85 -85.5t122.5 -31
q58 0 113 22.5t98 63.5l56 -71q-57 -53 -129.5 -82t-147.5 -29z" />
    <glyph glyph-name="D" unicode="D" horiz-adv-x="713" 
d="M16 0l149 700h210q71 0 130 -22.5t101.5 -64t65.5 -98.5t23 -125q0 -81 -31.5 -151.5t-87.5 -124t-129.5 -84t-157.5 -30.5h-273zM138 94h162q60 0 112.5 22.5t92 62.5t62 92.5t22.5 112.5q0 66 -28 116t-78 78t-117 28h-119z" />
    <glyph glyph-name="E" unicode="E" horiz-adv-x="616" 
d="M16 0l149 700h506l-20 -92h-403l-45 -210h264l-19 -89h-264l-46 -217h407l-19 -92h-510z" />
    <glyph glyph-name="F" unicode="F" horiz-adv-x="609" 
d="M16 0l149 700h507l-20 -92h-404l-46 -215h266l-19 -89h-266l-65 -304h-102z" />
    <glyph glyph-name="G" unicode="G" horiz-adv-x="776" 
d="M387 -12q-71 0 -131 25t-104.5 69.5t-69.5 104.5t-25 129q0 81 30.5 152t84.5 125.5t124 85t148 30.5q89 0 161.5 -35t119.5 -101l-80 -68q-33 51 -88.5 79.5t-119.5 28.5q-57 0 -106.5 -22.5t-87.5 -62.5t-59.5 -93t-21.5 -114q0 -68 30 -121.5t83 -84.5t120 -31
q59 0 109 26t85 71t48 105h-229l17 91h335l-10 -59q-16 -96 -68 -170.5t-128.5 -117t-166.5 -42.5z" />
    <glyph glyph-name="H" unicode="H" horiz-adv-x="710" 
d="M16 0l149 700h102l-64 -300h365l64 300h103l-149 -700h-103l65 305h-365l-65 -305h-102z" />
    <glyph glyph-name="I" unicode="I" horiz-adv-x="243" 
d="M16 0l149 700h102l-149 -700h-102z" />
    <glyph glyph-name="J" unicode="J" horiz-adv-x="605" 
d="M254 -10q-98 0 -161.5 51t-81.5 144l95 34q26 -134 147 -134q73 0 124.5 48.5t69.5 134.5l92 432h104l-96 -446q-18 -83 -58.5 -142.5t-100 -90.5t-134.5 -31z" />
    <glyph glyph-name="K" unicode="K" horiz-adv-x="636" 
d="M16 0l149 700h102l-67 -314l395 314h138l-433 -340l288 -360h-132l-266 340l-72 -340h-102z" />
    <glyph glyph-name="L" unicode="L" horiz-adv-x="602" 
d="M16 0l149 700h102l-129 -607h395l-20 -93h-497z" />
    <glyph glyph-name="M" unicode="M" horiz-adv-x="844" 
d="M16 0l149 700h133l120 -448l310 448h141l-149 -700h-95l121 571l-367 -521l-145 523l-121 -573h-97z" />
    <glyph glyph-name="N" unicode="N" horiz-adv-x="720" 
d="M16 0l149 700h97l273 -531l113 531h96l-149 -700h-88l-279 546l-115 -546h-97z" />
    <glyph glyph-name="O" unicode="O" horiz-adv-x="795" 
d="M391 -11q-71 0 -131.5 25t-105.5 70t-70 105.5t-25 130.5q0 80 30 150.5t83 124.5t122.5 85t148.5 31q70 0 131 -25t106 -70t70 -105t25 -131q0 -80 -30 -150.5t-83 -124.5t-122.5 -85t-148.5 -31zM398 86q57 0 106 22.5t86.5 62t59 92t21.5 111.5q0 68 -30.5 123t-84 86
t-120.5 31q-56 0 -105.5 -22.5t-87 -62t-59 -92t-21.5 -111.5q0 -68 30.5 -122.5t84 -86t120.5 -31.5z" />
    <glyph glyph-name="P" unicode="P" horiz-adv-x="648" 
d="M16 0l149 700h291q63 0 109 -23t71.5 -64t25.5 -97q0 -67 -33 -120t-90 -83.5t-130 -30.5h-231l-60 -282h-102zM197 371h211q44 0 78 17.5t53.5 48.5t19.5 70q0 48 -32 74.5t-87 26.5h-192z" />
    <glyph glyph-name="Q" unicode="Q" horiz-adv-x="794" 
d="M391 -11q-71 0 -131.5 25t-105.5 70t-70 105.5t-25 130.5q0 80 30 150.5t83 124.5t122.5 85t148.5 31q70 0 131 -25t106 -70t70 -105t25 -131q0 -90 -38 -168.5t-103 -133.5l54 -91l-99 -10l-32 53q-36 -20 -78.5 -30.5t-87.5 -10.5zM398 86q30 0 58 7t52 21l-69 116
l98 10l46 -76q40 40 64 94t24 116q0 68 -30.5 123t-84 86t-120.5 31q-56 0 -105.5 -22.5t-87 -62t-59 -92t-21.5 -111.5q0 -68 30.5 -122.5t84 -86t120.5 -31.5z" />
    <glyph glyph-name="R" unicode="R" horiz-adv-x="646" 
d="M16 0l149 700h291q63 0 109 -23t71 -63.5t25 -96.5q0 -55 -24 -101.5t-66 -77.5t-98 -43l101 -295h-108l-94 287h-193l-61 -287h-102zM198 375h209q44 0 78 17t53 47.5t19 68.5q0 46 -32 73t-86 27h-191z" />
    <glyph glyph-name="S" unicode="S" horiz-adv-x="602" 
d="M298 -10q-92 0 -170 38t-133 109l71 68q50 -62 110 -94.5t129 -32.5q49 0 86 15t58 42.5t21 63.5q0 38 -29 62.5t-95 40.5l-110 29q-82 22 -122.5 65t-40.5 108q0 63 31 109t88.5 71t135.5 25t153 -30t133 -85l-66 -75q-52 50 -109.5 76t-119.5 26q-67 0 -107 -28.5
t-40 -76.5q0 -37 26.5 -60t83.5 -38l107 -26q94 -23 138.5 -66.5t44.5 -112.5q0 -67 -34 -117.5t-95.5 -78t-144.5 -27.5z" />
    <glyph glyph-name="T" unicode="T" horiz-adv-x="619" 
d="M204 0l129 607h-242l21 93h584l-20 -93h-241l-129 -607h-102z" />
    <glyph glyph-name="U" unicode="U" horiz-adv-x="698" 
d="M323 -10q-96 0 -159.5 41t-89 114t-4.5 168l82 387h103l-84 -395q-14 -65 1.5 -114t55.5 -77t100 -28q81 0 139 55.5t78 150.5l87 408h103l-89 -415q-20 -94 -64.5 -160t-110.5 -100.5t-148 -34.5z" />
    <glyph glyph-name="V" unicode="V" horiz-adv-x="687" 
d="M230 0l-135 700h107l108 -597l360 597h111l-429 -700h-122z" />
    <glyph glyph-name="W" unicode="W" horiz-adv-x="890" 
d="M126 0l-1 700h102l-6 -533l268 533h98l42 -533l220 533h105l-298 -700h-107l-41 550l-276 -550h-106z" />
    <glyph glyph-name="X" unicode="X" horiz-adv-x="650" 
d="M-55 0l344 366l-172 334h116l131 -258l240 258h126l-322 -341l185 -359h-115l-144 283l-263 -283h-126z" />
    <glyph glyph-name="Y" unicode="Y" horiz-adv-x="654" 
d="M220 0l59 279l-185 421h109l143 -329l280 329h123l-367 -424l-58 -276h-104z" />
    <glyph glyph-name="Z" unicode="Z" horiz-adv-x="597" 
d="M-32 0l16 73l518 535h-401l19 92h544l-17 -73l-519 -535h413l-20 -92h-553z" />
    <glyph glyph-name="bracketleft" unicode="[" horiz-adv-x="360" 
d="M-43 -209l193 909h266l-17 -79h-172l-160 -751h173l-17 -79h-266z" />
    <glyph glyph-name="backslash" unicode="\" horiz-adv-x="438" 
d="M422 -206h-97l-221 906h97z" />
    <glyph glyph-name="bracketright" unicode="]" horiz-adv-x="360" 
d="M399 700l-194 -909h-266l17 79h173l159 751h-172l17 79h266z" />
    <glyph glyph-name="asciicircum" unicode="^" 
d="M107 350l249 350h83l98 -350h-79l-76 269l-189 -269h-86z" />
    <glyph glyph-name="underscore" unicode="_" horiz-adv-x="477" 
d="M-88 -153l15 73h479l-15 -73h-479z" />
    <glyph glyph-name="grave" unicode="`" 
d="M344 603l-125 122h118l89 -122h-82z" />
    <glyph glyph-name="a" unicode="a" horiz-adv-x="522" 
d="M186 -6q-78 0 -125.5 38.5t-47.5 103.5q0 50 25.5 87.5t73 58t111.5 20.5q41 0 80.5 -9.5t72.5 -26.5l10 46q13 62 -15.5 92.5t-98.5 30.5q-30 0 -65.5 -8.5t-83.5 -28.5l-25 77q55 23 103 33t90 10q73 0 120 -24t66 -69.5t5 -108.5l-66 -316h-97l8 37
q-33 -22 -67.5 -32.5t-73.5 -10.5zM217 67q34 0 65.5 10.5t60.5 31.5l18 87q-55 37 -134 37q-54 0 -87.5 -24.5t-33.5 -64.5q0 -36 29.5 -56.5t81.5 -20.5z" />
    <glyph glyph-name="b" unicode="b" horiz-adv-x="595" 
d="M278 -8q-49 0 -91 17.5t-73 49.5l-13 -59h-96l149 700l102 22l-52 -244q60 38 130 38q65 0 115.5 -30.5t80.5 -83.5t30 -120q0 -60 -22 -113t-60.5 -92.5t-89.5 -62t-110 -22.5zM275 79q54 0 96.5 26t67.5 70.5t25 97.5q0 46 -19.5 81.5t-54.5 55.5t-79 20
q-36 0 -68.5 -12t-59.5 -36l-49 -231q20 -33 58 -52.5t83 -19.5z" />
    <glyph glyph-name="c" unicode="c" horiz-adv-x="509" 
d="M266 -10q-67 0 -120 30.5t-83.5 83.5t-30.5 121q0 60 22.5 113t61.5 93.5t89.5 63.5t109.5 23t113 -27t87 -73l-69 -63q-26 37 -60 55.5t-76 18.5q-36 0 -68.5 -15.5t-58 -43.5t-39.5 -63.5t-14 -76.5q0 -43 19.5 -78t52.5 -54.5t75 -19.5q35 0 67.5 13.5t65.5 39.5
l49 -68q-88 -73 -193 -73z" />
    <glyph glyph-name="d" unicode="d" horiz-adv-x="596" 
d="M260 -8q-64 0 -115 31t-80.5 84t-29.5 120q0 60 22 112t60.5 92t89.5 62.5t110 22.5q49 0 91 -16.5t73 -48.5l52 249l102 22l-153 -722h-97l6 31q-60 -39 -131 -39zM284 78q36 0 68.5 12.5t58.5 36.5l50 233q-20 31 -58 50.5t-83 19.5q-52 0 -95 -26.5t-68.5 -70
t-25.5 -98.5q0 -45 19.5 -81t54.5 -56t79 -20z" />
    <glyph glyph-name="e" unicode="e" horiz-adv-x="562" 
d="M285 -10q-73 0 -130 31t-89 85.5t-32 124.5q0 58 21 110t58.5 92t86.5 62t105 22q64 0 114 -31.5t79 -86t29 -124.5q0 -10 -0.5 -22.5t-3.5 -29.5h-392q3 -43 24.5 -76.5t56.5 -52.5t79 -19q35 0 67.5 10.5t58.5 29.5l53 -66q-44 -31 -88.5 -45t-96.5 -14zM139 297h295
q-4 40 -22.5 70t-47.5 47.5t-66 17.5t-69.5 -17.5t-55.5 -48t-34 -69.5z" />
    <glyph glyph-name="f" unicode="f" horiz-adv-x="389" 
d="M77 0l90 425h-114l17 84h116l18 88q16 74 63.5 113.5t121.5 39.5q22 0 45 -3.5t39 -10.5l-17 -86q-16 6 -32 9t-36 3q-38 0 -59 -17.5t-29 -55.5l-16 -80h142l-19 -84h-142l-90 -425h-98z" />
    <glyph glyph-name="g" unicode="g" horiz-adv-x="596" 
d="M251 -211q-58 0 -119 19.5t-106 53.5l48 74q44 -30 87.5 -46t86.5 -16q109 0 132 108l11 51q-60 -39 -131 -39q-64 0 -114.5 31t-80 83.5t-29.5 119.5q0 59 22 111.5t60 92.5t89 62t110 22q48 0 90.5 -16t72.5 -48l12 57h97l-112 -538q-19 -88 -76.5 -135t-149.5 -47z
M284 79q72 0 127 49l49 232q-20 32 -58 51t-82 19q-52 0 -95 -26t-68 -70t-25 -98q0 -45 19.5 -80.5t54 -56t78.5 -20.5z" />
    <glyph glyph-name="h" unicode="h" horiz-adv-x="557" 
d="M5 0l149 700l102 22l-55 -258q65 54 147 54q61 0 102 -27.5t58 -75.5t4 -109l-65 -306h-97l62 295q13 62 -15 99.5t-86 37.5q-38 0 -70.5 -15.5t-58.5 -44.5l-79 -372h-98z" />
    <glyph glyph-name="i" unicode="i" horiz-adv-x="215" 
d="M5 0l108 509h97l-107 -509h-98zM185 591q-23 0 -38.5 16t-15.5 39q0 19 9 34.5t25 24.5t34 9q23 0 38.5 -15.5t15.5 -38.5q0 -18 -9.5 -33.5t-25 -25.5t-33.5 -10z" />
    <glyph glyph-name="j" unicode="j" horiz-adv-x="215" 
d="M185 591q-23 0 -38.5 16t-15.5 39q0 19 9 34.5t25 24.5t34 9q23 0 38.5 -15.5t15.5 -38.5q0 -18 -9.5 -33.5t-25 -25.5t-33.5 -10zM-74 -210q-15 0 -33.5 2.5t-30.5 7.5l17 79q9 -3 20 -4.5t25 -1.5q28 0 44 14.5t22 44.5l123 577h98l-126 -588q-13 -64 -54.5 -97.5
t-104.5 -33.5z" />
    <glyph glyph-name="k" unicode="k" horiz-adv-x="514" 
d="M5 0l149 700l102 22l-92 -434l281 221h126l-321 -250l222 -259h-120l-199 237l-50 -237h-98z" />
    <glyph glyph-name="l" unicode="l" horiz-adv-x="215" 
d="M5 0l149 700l102 22l-153 -722h-98z" />
    <glyph glyph-name="m" unicode="m" horiz-adv-x="861" 
d="M5 0l108 509h97l-10 -47q63 56 142 56q52 0 89 -24.5t54 -66.5q40 46 85.5 68.5t95.5 22.5q57 0 95 -27t53.5 -73.5t2.5 -106.5l-66 -311h-97l64 303q12 57 -13 93t-77 36q-69 0 -130 -72q0 -12 -1 -24t-4 -25l-66 -311h-98l63 298q13 60 -11.5 97t-77.5 37
q-33 0 -64 -15.5t-58 -46.5l-78 -370h-98z" />
    <glyph glyph-name="n" unicode="n" horiz-adv-x="557" 
d="M5 0l108 509h97l-9 -45q66 54 147 54q61 0 102 -27.5t58 -75.5t4 -109l-65 -306h-97l62 295q13 62 -15 99.5t-86 37.5q-38 0 -70.5 -15.5t-59.5 -44.5l-78 -372h-98z" />
    <glyph glyph-name="o" unicode="o" horiz-adv-x="592" 
d="M278 -10q-70 0 -124.5 31.5t-86.5 87.5t-32 125q0 58 22 109.5t60.5 91t89 62t106.5 22.5q70 0 124.5 -31.5t86.5 -86.5t32 -125q0 -58 -22 -110t-60.5 -91.5t-88.5 -62t-107 -22.5zM282 78q37 0 68.5 15t56 42t39 62t14.5 74q0 46 -19.5 82.5t-54 57t-77.5 20.5
q-37 0 -68.5 -15t-56.5 -41.5t-39 -62t-14 -73.5q0 -46 19.5 -83t54 -57.5t77.5 -20.5z" />
    <glyph glyph-name="p" unicode="p" horiz-adv-x="595" 
d="M-39 -204l152 713h97l-7 -32q61 39 131 39q65 0 115.5 -30.5t80.5 -83.5t30 -120q0 -60 -22 -113t-60.5 -92.5t-89.5 -62t-110 -22.5q-48 0 -90.5 17t-72.5 49l-56 -262h-98zM275 79q54 0 96.5 26t67.5 70.5t25 97.5q0 46 -19.5 81.5t-54.5 55.5t-79 20q-36 0 -68.5 -12
t-58.5 -35l-49 -232q20 -33 57.5 -52.5t82.5 -19.5z" />
    <glyph glyph-name="q" unicode="q" horiz-adv-x="596" 
d="M341 -204l50 235q-29 -19 -62 -29t-69 -10q-64 0 -115 31t-80.5 84t-29.5 120q0 60 22 112t60.5 92t89.5 62.5t110 22.5q49 0 91 -16.5t73 -48.5l12 58h97l-151 -713h-98zM284 78q36 0 68.5 12.5t59.5 36.5l49 232q-20 32 -58 51.5t-83 19.5q-52 0 -95 -26.5t-68.5 -70
t-25.5 -98.5q0 -45 19.5 -81t54.5 -56t79 -20z" />
    <glyph glyph-name="r" unicode="r" horiz-adv-x="363" 
d="M4 0l108 509h97l-12 -58q28 33 64.5 51t77.5 18q35 0 57 -11l-18 -90q-10 6 -28.5 10t-35.5 4q-83 0 -139 -85l-74 -348h-97z" />
    <glyph glyph-name="s" unicode="s" horiz-adv-x="457" 
d="M211 -10q-66 0 -127 24.5t-99 66.5l59 62q38 -37 80.5 -56t87.5 -19q50 0 82 21.5t32 55.5q0 24 -17 38.5t-54 22.5l-87 20q-65 14 -96.5 47.5t-31.5 85.5q0 48 24 83.5t67.5 55t101.5 19.5q59 0 112.5 -20t98.5 -59l-57 -63q-38 32 -79 49t-81 17q-45 0 -72 -20t-27 -53
q0 -24 17 -38t56 -23l87 -20q66 -14 99 -47t33 -84q0 -47 -27.5 -85t-75 -59.5t-106.5 -21.5z" />
    <glyph glyph-name="t" unicode="t" horiz-adv-x="381" 
d="M229 -8q-77 0 -111.5 37t-20.5 105l62 291h-106l18 84h105l28 130l103 24l-33 -154h146l-18 -84h-146l-58 -272q-9 -41 7.5 -59t62.5 -18q15 0 28.5 2.5t31.5 7.5l-17 -85q-17 -4 -39.5 -6.5t-42.5 -2.5z" />
    <glyph glyph-name="u" unicode="u" horiz-adv-x="556" 
d="M208 -9q-61 0 -102.5 28t-58 76t-4.5 109l65 305h98l-63 -295q-13 -62 15.5 -99.5t86.5 -37.5q38 0 71 16t59 46l78 370h98l-108 -509h-98l10 45q-66 -54 -147 -54z" />
    <glyph glyph-name="v" unicode="v" horiz-adv-x="530" 
d="M163 0l-106 509h104l74 -381l238 381h108l-324 -509h-94z" />
    <glyph glyph-name="w" unicode="w" horiz-adv-x="717" 
d="M98 0l-32 509h92l18 -374l193 374h84l35 -374l176 374h94l-246 -509h-95l-33 373l-192 -373h-94z" />
    <glyph glyph-name="x" unicode="x" horiz-adv-x="506" 
d="M-54 0l253 264l-131 245h110l91 -175l165 175h117l-241 -249l139 -260h-109l-98 188l-179 -188h-117z" />
    <glyph glyph-name="y" unicode="y" horiz-adv-x="528" 
d="M5 -214q-17 0 -33 2.5t-32 6.5l19 87q8 -3 20 -4.5t25 -1.5q33 0 60.5 17t50.5 53l35 55l-93 508h104l66 -394l244 394h108l-369 -587q-46 -73 -93.5 -104.5t-111.5 -31.5z" />
    <glyph glyph-name="z" unicode="z" horiz-adv-x="468" 
d="M-25 0l15 74l346 349h-269l18 86h400l-15 -73l-347 -350h277l-19 -86h-406z" />
    <glyph glyph-name="braceleft" unicode="{" horiz-adv-x="392" 
d="M180 -215q-67 0 -102.5 30t-36.5 78t34 103l59 88q22 33 23.5 61.5t-15.5 46.5t-52 18h-79l16 77h80q53 0 80 35.5t16 87.5l-20 100q-10 57 8 102.5t59.5 71.5t98.5 26q25 0 49 -4.5t48 -16.5l-32 -72q-16 7 -32.5 11t-31.5 4q-43 0 -67 -30t-15 -86l22 -115
q7 -40 -7 -72.5t-43.5 -54.5t-68.5 -29q36 -12 55.5 -37t20.5 -57t-23 -70l-66 -103q-21 -34 -21.5 -60.5t16.5 -40.5t47 -14q17 0 29.5 1.5t25.5 5.5l2 -75q-23 -5 -40 -7.5t-37 -2.5z" />
    <glyph glyph-name="bar" unicode="|" horiz-adv-x="289" 
d="M0 -208l194 908h91l-194 -908h-91z" />
    <glyph glyph-name="braceright" unicode="}" horiz-adv-x="392" 
d="M209 702q67 0 102.5 -30t36.5 -77.5t-35 -102.5l-59 -88q-21 -33 -23 -62t15.5 -46.5t51.5 -17.5h80l-17 -78h-80q-52 0 -79 -35t-17 -88l20 -99q11 -57 -7.5 -102.5t-59 -71.5t-99.5 -26q-25 0 -49 5t-48 15l33 73q15 -7 32 -11t32 -4q43 0 67 30t14 85l-21 116
q-7 39 7 71.5t43 55t68 29.5q-35 12 -55 36.5t-20.5 57t22.5 69.5l66 104q22 35 22 60.5t-17 40t-47 14.5q-17 0 -29.5 -2t-25.5 -6l-1 75q23 6 40 8t37 2z" />
    <glyph glyph-name="asciitilde" unicode="~" 
d="M143 306l-68 16q22 68 59 104.5t82 36.5q21 0 44 -7.5t53 -27.5l65 -42q22 -13 34 -18t24 -5q25 0 44 19.5t32 59.5l68 -16q-22 -69 -59 -105.5t-83 -36.5q-22 0 -44 8t-53 27l-65 42q-21 14 -33.5 18.5t-24.5 4.5q-24 0 -43 -19.5t-32 -58.5z" />
    <glyph glyph-name="uni00A0" unicode="&#xa0;" horiz-adv-x="209" 
 />
    <glyph glyph-name="exclamdown" unicode="&#xa1;" horiz-adv-x="211" 
d="M152 296l-95 -503h-101l119 503h77zM152 504q24 0 40 -16t16 -40q0 -19 -10 -35t-26 -26t-35 -10q-24 0 -39.5 16.5t-15.5 40.5q0 19 10 34.5t26 25.5t34 10z" />
    <glyph glyph-name="cent" unicode="&#xa2;" horiz-adv-x="512" 
d="M186 -116l24 112q-52 12 -92 44t-63 79.5t-23 105.5q0 61 22 114t61.5 93t92 63t114.5 23l20 96h48l-22 -102q45 -10 83.5 -34t63.5 -60l-69 -63q-19 28 -43.5 45t-52.5 24l-74 -346q37 0 69.5 13.5t64.5 39.5l49 -68q-46 -38 -95 -55.5t-106 -17.5l-23 -106h-49zM229 86
l73 343q-46 -3 -85.5 -30.5t-63 -71.5t-23.5 -97q0 -52 27.5 -91t71.5 -53z" />
    <glyph glyph-name="sterling" unicode="&#xa3;" horiz-adv-x="621" 
d="M415 -31q-17 0 -36.5 3.5t-40.5 9.5l-172 48q-13 4 -24 5.5t-22 1.5q-57 0 -98 -56l-63 54q34 43 72.5 63.5t83.5 21.5q18 11 28 30.5t11 47.5l3 103h-103l16 70h87l2 88q2 76 33 132.5t83.5 88t121.5 31.5q98 0 156 -50t68 -144l-86 -21q-11 133 -141 133
q-64 0 -102 -44.5t-40 -122.5l-2 -91h197l-15 -70h-182l-2 -81q-2 -76 -48 -113l173 -48q12 -3 23 -4.5t21 -1.5q52 0 92 49l62 -50q-34 -42 -71.5 -62.5t-84.5 -20.5z" />
    <glyph glyph-name="uni00A4" unicode="&#xa4;" horiz-adv-x="682" 
d="M88 57l-50 50l94 95q-25 32 -39 73.5t-14 86.5q0 46 14.5 86.5t38.5 73.5l-94 95l51 52l95 -96q33 24 73 38t85 14q44 0 84.5 -14t72.5 -39l96 96l49 -50l-95 -95q25 -33 39.5 -74t14.5 -87q0 -45 -13.5 -86t-38.5 -73l94 -96l-50 -51l-96 95q-32 -25 -72.5 -38.5
t-84.5 -13.5q-45 0 -86 14t-74 39zM342 185q46 0 84 23.5t60 64t22 89.5q0 50 -22 89.5t-60 63t-85 23.5q-46 0 -84 -23.5t-60 -63t-22 -89.5q0 -49 22 -89.5t60 -64t85 -23.5z" />
    <glyph glyph-name="yen" unicode="&#xa5;" horiz-adv-x="656" 
d="M220 0l28 133h-179l13 61h179l14 69h-177l12 62h150l-166 375h109l143 -329l280 329h123l-326 -375h148l-13 -62h-178l-15 -69h178l-12 -61h-179l-28 -133h-104z" />
    <glyph glyph-name="uni00A6" unicode="&#xa6;" horiz-adv-x="293" 
d="M199 287h-92l89 413h92zM3 -207l87 414h92l-87 -414h-92z" />
    <glyph glyph-name="section" unicode="&#xa7;" horiz-adv-x="559" 
d="M241 -52q-53 0 -105.5 19t-96.5 54l52 60q41 -32 79.5 -47.5t74.5 -15.5q39 0 62.5 19.5t23.5 51.5q0 39 -52 64l-99 48q-61 30 -87 59.5t-26 70.5q0 57 37 97t100 53q-30 32 -30 77q0 44 23 78.5t63.5 54t93.5 19.5q52 0 104.5 -19t96.5 -53l-51 -61q-42 32 -81 47.5
t-74 15.5q-39 0 -62.5 -19.5t-23.5 -51.5q0 -39 51 -64l100 -48q62 -30 87.5 -59.5t25.5 -69.5q0 -58 -36.5 -98t-99.5 -54q30 -31 30 -75q0 -45 -23 -79.5t-63.5 -54t-93.5 -19.5zM328 223q49 2 81.5 26t32.5 60q0 23 -15.5 41t-50.5 34l-107 50q-51 -1 -84 -24.5
t-33 -59.5q0 -23 16 -41.5t49 -33.5z" />
    <glyph glyph-name="dieresis" unicode="&#xa8;" 
d="M286 602q-23 0 -37 15t-14 37q0 26 19 45.5t45 19.5q22 0 36.5 -15t14.5 -37q0 -26 -19.5 -45.5t-44.5 -19.5zM474 602q-21 0 -36 15t-15 37q0 26 19.5 45.5t45.5 19.5q22 0 36 -15t14 -37q0 -26 -19 -45.5t-45 -19.5z" />
    <glyph glyph-name="copyright" unicode="&#xa9;" horiz-adv-x="785" 
d="M379 -10q-92 0 -165 41.5t-115 114t-42 163.5q0 81 30.5 153.5t84.5 127.5t124 86.5t150 31.5q92 0 165 -41.5t114.5 -113.5t41.5 -163q0 -82 -30.5 -154.5t-84 -127.5t-124 -86.5t-149.5 -31.5zM382 42q66 0 125.5 27t105 74.5t72 109.5t26.5 130q0 79 -35 140.5t-96 97
t-139 35.5q-66 0 -125 -27.5t-104.5 -75t-71.5 -109t-26 -130.5q0 -78 35 -139.5t95.5 -97t137.5 -35.5zM398 165q-47 0 -83.5 21t-58 58t-21.5 84q0 57 28.5 104.5t76 76t102.5 28.5q45 0 84 -20t62 -55l-57 -47q-18 25 -42 38.5t-52 13.5q-33 0 -62 -18.5t-46 -49
t-17 -66.5q0 -43 27.5 -71t69.5 -28q44 0 90 35l34 -55q-28 -24 -63 -36.5t-72 -12.5z" />
    <glyph glyph-name="ordfeminine" unicode="&#xaa;" horiz-adv-x="412" 
d="M202 314q-59 0 -95 29t-36 78q0 58 43.5 92.5t116.5 34.5q30 0 59 -7.5t54 -19.5l7 32q18 89 -85 89q-21 0 -47 -6t-64 -21l-20 62q80 32 148 32q84 0 122.5 -41.5t23.5 -112.5l-51 -236h-77l5 26q-48 -31 -104 -31zM227 372q50 0 92 31l13 62q-42 27 -97 27
q-39 0 -63 -17.5t-24 -46.5q0 -26 21 -41t58 -15z" />
    <glyph glyph-name="guillemotleft" unicode="&#xab;" horiz-adv-x="631" 
d="M417 509l-285 -257l174 -252h-102l-179 255l287 254h105zM641 509l-285 -257l174 -252h-102l-179 255l287 254h105z" />
    <glyph glyph-name="uni00AC" unicode="&#xac;" horiz-adv-x="552" 
d="M358 0l51 239h-366l18 87h460l-69 -326h-94z" />
    <glyph glyph-name="uni00AD" unicode="&#xad;" horiz-adv-x="452" 
d="M60 326h353l-18 -87h-354z" />
    <glyph glyph-name="registered" unicode="&#xae;" horiz-adv-x="479" 
d="M275 309q-52 0 -92 23.5t-63 63.5t-23 91q0 47 17.5 88t48 72.5t70.5 50t85 18.5q52 0 92 -23.5t63 -63.5t23 -92q0 -45 -17.5 -86.5t-48.5 -73t-71 -50t-84 -18.5zM279 347q48 0 88 26t63.5 69t23.5 94q0 63 -38.5 102t-101.5 39q-49 0 -89 -25.5t-63.5 -68t-23.5 -94.5
q0 -63 39 -102.5t102 -39.5zM207 419l40 188h72q27 0 41.5 -13.5t14.5 -39.5q0 -19 -11.5 -35.5t-31.5 -24.5l26 -75h-41l-25 70h-31l-15 -70h-39zM309 576h-30l-12 -58h36q15 0 24 9t9 23q0 26 -27 26z" />
    <glyph glyph-name="macron" unicode="&#xaf;" 
d="M229 622l15 67h291l-15 -67h-291z" />
    <glyph glyph-name="degree" unicode="&#xb0;" horiz-adv-x="375" 
d="M239 421q-37 0 -65.5 16.5t-45.5 46t-17 66.5q0 42 22 78t57.5 58t77.5 22q37 0 66 -16.5t46 -45.5t17 -67q0 -42 -22 -78t-57.5 -58t-78.5 -22zM243 479q26 0 47 13t33.5 34t12.5 47q0 33 -20.5 55t-51.5 22q-25 0 -46 -13t-33.5 -34t-12.5 -47q0 -32 20.5 -54.5
t50.5 -22.5z" />
    <glyph glyph-name="plusminus" unicode="&#xb1;" horiz-adv-x="599" 
d="M42 -1l17 80h411l-17 -80h-411zM249 184l35 168h-167l17 78h167l35 168h78l-36 -168h167l-18 -78h-166l-35 -168h-77z" />
    <glyph glyph-name="twosuperior" unicode="&#xb2;" horiz-adv-x="292" 
d="M46 350l10 46l169 129q28 21 40.5 39t12.5 37q0 21 -17 34.5t-44 13.5q-21 0 -42.5 -9t-49.5 -30l-27 47q32 24 65 35.5t66 11.5q50 0 81.5 -25.5t31.5 -66.5q0 -33 -18 -61.5t-59 -59.5l-112 -86h151l-12 -55h-246z" />
    <glyph glyph-name="threesuperior" unicode="&#xb3;" horiz-adv-x="313" 
d="M187 345q-46 0 -80.5 16t-56.5 47l49 38q17 -23 39 -34t53 -11t52 15t21 37q0 20 -15.5 32t-41.5 12h-32l11 53h26q31 0 52.5 15t21.5 37q0 20 -16.5 32.5t-43.5 12.5q-45 0 -88 -35l-34 44q29 24 63 36.5t69 12.5q50 0 83 -26t33 -67q0 -30 -19.5 -54t-51.5 -37
q22 -10 34.5 -27t12.5 -40q0 -30 -19 -55t-51 -39.5t-71 -14.5z" />
    <glyph glyph-name="acute" unicode="&#xb4;" 
d="M317 603l117 122h119l-151 -122h-85z" />
    <glyph glyph-name="uni00B5" unicode="&#xb5;" horiz-adv-x="567" 
d="M-42 -207l152 716h100l-64 -302q-13 -60 14.5 -95t84.5 -35q41 0 77 17.5t63 49.5l77 365h100l-108 -509h-100l11 52q-72 -62 -165 -62q-29 0 -53 7t-41 21l-48 -225h-100z" />
    <glyph glyph-name="paragraph" unicode="&#xb6;" horiz-adv-x="679" 
d="M266 0l58 274h-26q-62 0 -108.5 23t-72 65t-25.5 97q0 70 32.5 124.5t89 85.5t129.5 31h350l-149 -700h-85l59 274h-109l-58 -274h-85zM427 356h108l55 261h-108zM305 356h37l55 261h-64q-44 0 -78 -19t-54 -51.5t-20 -76.5q0 -53 33.5 -83.5t90.5 -30.5z" />
    <glyph glyph-name="periodcentered" unicode="&#xb7;" horiz-adv-x="250" 
d="M124 220q-24 0 -40 16t-16 40q0 19 10 35t26 26t35 10q24 0 39 -16t15 -41q0 -18 -9.5 -34t-25.5 -26t-34 -10z" />
    <glyph glyph-name="cedilla" unicode="&#xb8;" 
d="M200 -231q-36 0 -65.5 12.5t-49.5 36.5l40 36q31 -34 77 -34q29 0 46.5 13t17.5 34q0 19 -14.5 29.5t-41.5 10.5h-33l46 93h53l-26 -52q36 -5 56.5 -25t20.5 -51q0 -29 -16.5 -52.5t-45.5 -37t-65 -13.5z" />
    <glyph glyph-name="onesuperior" unicode="&#xb9;" horiz-adv-x="174" 
d="M105 350l60 283l-73 -27l13 56l98 38h40l-75 -350h-63z" />
    <glyph glyph-name="ordmasculine" unicode="&#xba;" horiz-adv-x="463" 
d="M273 311q-53 0 -95 24t-66 66t-24 94q0 59 29 107.5t77 78t106 29.5q52 0 93.5 -24t65.5 -65.5t24 -94.5q0 -58 -28.5 -107t-76.5 -78.5t-105 -29.5zM277 382q35 0 64.5 19t46.5 51.5t17 69.5q0 34 -14.5 60t-39 41.5t-56.5 15.5q-35 0 -64 -19t-47 -51t-18 -70
q0 -34 14.5 -60t39.5 -41.5t57 -15.5z" />
    <glyph glyph-name="guillemotright" unicode="&#xbb;" horiz-adv-x="631" 
d="M214 0l285 257l-173 252h101l180 -255l-288 -254h-105zM-10 0l284 257l-173 252h101l180 -255l-288 -254h-104z" />
    <glyph glyph-name="onequarter" unicode="&#xbc;" horiz-adv-x="629" 
d="M449 0l17 83h-194l12 53l229 214h74l-45 -212h42l-12 -55h-41l-18 -83h-64zM358 138h120l30 140zM105 350l60 283l-73 -27l13 56l98 38h40l-75 -350h-63zM-3 0l535 700h76l-537 -700h-74z" />
    <glyph glyph-name="onehalf" unicode="&#xbd;" horiz-adv-x="660" 
d="M105 350l60 283l-73 -27l13 56l98 38h40l-75 -350h-63zM-6 0l535 700h76l-537 -700h-74zM335 0l10 46l169 129q28 21 40.5 39t12.5 37q0 21 -17 34.5t-44 13.5q-21 0 -42.5 -9t-49.5 -30l-27 47q32 24 65 35.5t66 11.5q50 0 81.5 -25.5t31.5 -66.5q0 -33 -18 -61.5
t-59 -59.5l-112 -86h151l-12 -55h-246z" />
    <glyph glyph-name="threequarters" unicode="&#xbe;" horiz-adv-x="722" 
d="M187 345q-46 0 -80.5 16t-56.5 47l49 38q17 -23 39 -34t53 -11t52 15t21 37q0 20 -15.5 32t-41.5 12h-32l11 53h26q31 0 52.5 15t21.5 37q0 20 -16.5 32.5t-43.5 12.5q-45 0 -88 -35l-34 44q29 24 63 36.5t69 12.5q50 0 83 -26t33 -67q0 -30 -19.5 -54t-51.5 -37
q22 -10 34.5 -27t12.5 -40q0 -30 -19 -55t-51 -39.5t-71 -14.5zM542 0l17 83h-194l12 53l229 214h74l-45 -212h42l-12 -55h-41l-18 -83h-64zM451 138h120l30 140zM90 0l535 700h76l-537 -700h-74z" />
    <glyph glyph-name="questiondown" unicode="&#xbf;" horiz-adv-x="503" 
d="M338 292q-7 -48 -20.5 -82t-37 -59t-59.5 -46l-63 -36q-39 -23 -61 -51.5t-22 -59.5q0 -38 32.5 -62t85.5 -24q45 0 87.5 21.5t75.5 57.5l67 -45q-48 -56 -111.5 -88t-131.5 -32q-59 0 -105 20t-71.5 56t-25.5 83q0 58 33.5 103t107.5 88l52 29q38 22 57.5 51t26.5 76h83
zM334 504q24 0 39.5 -16t15.5 -39q0 -19 -9.5 -35t-25.5 -26t-35 -10q-23 0 -39 16.5t-16 39.5q0 19 10 34.5t26 25.5t34 10z" />
    <glyph glyph-name="Agrave" unicode="&#xc0;" horiz-adv-x="687" 
d="M-53 0l429 700h122l135 -700h-107l-37 205h-306l-123 -205h-113zM235 292h239l-56 306zM419 794l-125 122h118l89 -122h-82z" />
    <glyph glyph-name="Aacute" unicode="&#xc1;" horiz-adv-x="687" 
d="M-53 0l429 700h122l135 -700h-107l-37 205h-306l-123 -205h-113zM235 292h239l-56 306zM392 794l117 122h119l-151 -122h-85z" />
    <glyph glyph-name="Acircumflex" unicode="&#xc2;" horiz-adv-x="687" 
d="M-53 0l429 700h122l135 -700h-107l-37 205h-306l-123 -205h-113zM235 292h239l-56 306zM291 791l133 127h104l79 -127h-78l-61 77l-94 -77h-83z" />
    <glyph glyph-name="Atilde" unicode="&#xc3;" horiz-adv-x="687" 
d="M-53 0l429 700h122l135 -700h-107l-37 205h-306l-123 -205h-113zM235 292h239l-56 306zM339 791l-61 20q44 100 110 100q29 0 54 -14.5t47.5 -29t41.5 -14.5q16 0 26.5 11.5t24.5 41.5l61 -20q-22 -51 -49 -76t-62 -25q-29 0 -54 14.5t-46.5 29t-43.5 14.5
q-14 0 -25.5 -12t-23.5 -40z" />
    <glyph glyph-name="Adieresis" unicode="&#xc4;" horiz-adv-x="687" 
d="M-53 0l429 700h122l135 -700h-107l-37 205h-306l-123 -205h-113zM235 292h239l-56 306zM361 793q-23 0 -37 15t-14 37q0 26 19 45.5t45 19.5q22 0 36.5 -15t14.5 -37q0 -26 -19.5 -45.5t-44.5 -19.5zM549 793q-21 0 -36 15t-15 37q0 26 19.5 45.5t45.5 19.5q22 0 36 -15
t14 -37q0 -26 -19 -45.5t-45 -19.5z" />
    <glyph glyph-name="Aring" unicode="&#xc5;" horiz-adv-x="687" 
d="M-53 0l429 700h122l135 -700h-107l-37 205h-306l-123 -205h-113zM235 292h239l-56 306zM459 774q-46 0 -75.5 29t-29.5 73q0 34 17.5 63t45.5 47t61 18q46 0 75.5 -29t29.5 -73q0 -34 -17 -62.5t-45.5 -47t-61.5 -18.5zM460 822q30 0 51.5 22.5t21.5 52.5q0 26 -16 42.5
t-41 16.5q-29 0 -51 -22.5t-22 -53.5q0 -25 16.5 -41.5t40.5 -16.5z" />
    <glyph glyph-name="AE" unicode="&#xc6;" horiz-adv-x="946" 
d="M-53 0l430 700h627l-19 -92h-464l36 -210h250l-19 -89h-217l38 -217h266l-19 -92h-334l-35 205h-307l-125 -205h-108zM234 292h240l-52 308z" />
    <glyph glyph-name="Ccedilla" unicode="&#xc7;" horiz-adv-x="708" 
d="M334 -231q-36 0 -65.5 12.5t-49.5 36.5l40 36q31 -34 77 -34q29 0 46.5 13t17.5 34q0 19 -14.5 29.5t-41.5 10.5h-33l42 85q-85 9 -151 54t-104 116t-38 158q0 80 30 150t83 124t122.5 84t148.5 30q90 0 161.5 -33.5t116.5 -97.5l-78 -69q-33 50 -86.5 77.5t-118.5 27.5
q-57 0 -107 -22.5t-87.5 -62t-58.5 -92t-21 -112.5q0 -68 31.5 -122.5t85 -85.5t122.5 -31q58 0 113 22.5t98 63.5l56 -71q-55 -51 -124.5 -80t-141.5 -31l-22 -41q37 -5 57.5 -25t20.5 -51q0 -29 -16.5 -52.5t-45.5 -37t-65 -13.5z" />
    <glyph glyph-name="Egrave" unicode="&#xc8;" horiz-adv-x="616" 
d="M16 0l149 700h506l-20 -92h-403l-45 -210h264l-19 -89h-264l-46 -217h407l-19 -92h-510zM399 794l-125 122h118l89 -122h-82z" />
    <glyph glyph-name="Eacute" unicode="&#xc9;" horiz-adv-x="616" 
d="M16 0l149 700h506l-20 -92h-403l-45 -210h264l-19 -89h-264l-46 -217h407l-19 -92h-510zM372 794l117 122h119l-151 -122h-85z" />
    <glyph glyph-name="Ecircumflex" unicode="&#xca;" horiz-adv-x="616" 
d="M16 0l149 700h506l-20 -92h-403l-45 -210h264l-19 -89h-264l-46 -217h407l-19 -92h-510zM272 791l133 127h104l79 -127h-78l-61 77l-94 -77h-83z" />
    <glyph glyph-name="Edieresis" unicode="&#xcb;" horiz-adv-x="616" 
d="M16 0l149 700h506l-20 -92h-403l-45 -210h264l-19 -89h-264l-46 -217h407l-19 -92h-510zM341 793q-23 0 -37 15t-14 37q0 26 19 45.5t45 19.5q22 0 36.5 -15t14.5 -37q0 -26 -19.5 -45.5t-44.5 -19.5zM529 793q-21 0 -36 15t-15 37q0 26 19.5 45.5t45.5 19.5q22 0 36 -15
t14 -37q0 -26 -19 -45.5t-45 -19.5z" />
    <glyph glyph-name="Igrave" unicode="&#xcc;" horiz-adv-x="243" 
d="M16 0l149 700h102l-149 -700h-102zM204 794l-125 122h118l89 -122h-82z" />
    <glyph glyph-name="Iacute" unicode="&#xcd;" horiz-adv-x="243" 
d="M16 0l149 700h102l-149 -700h-102zM177 794l117 122h119l-151 -122h-85z" />
    <glyph glyph-name="Icircumflex" unicode="&#xce;" horiz-adv-x="243" 
d="M16 0l149 700h102l-149 -700h-102zM76 791l133 127h104l79 -127h-78l-61 77l-94 -77h-83z" />
    <glyph glyph-name="Idieresis" unicode="&#xcf;" horiz-adv-x="243" 
d="M16 0l149 700h102l-149 -700h-102zM146 793q-23 0 -37 15t-14 37q0 26 19 45.5t45 19.5q22 0 36.5 -15t14.5 -37q0 -26 -19.5 -45.5t-44.5 -19.5zM334 793q-21 0 -36 15t-15 37q0 26 19.5 45.5t45.5 19.5q22 0 36 -15t14 -37q0 -26 -19 -45.5t-45 -19.5z" />
    <glyph glyph-name="Eth" unicode="&#xd0;" horiz-adv-x="735" 
d="M38 0l65 307h-82l19 86h82l65 307h211q70 0 129 -22.5t101.5 -64t66 -98.5t23.5 -125q0 -81 -32 -151.5t-88 -124t-129.5 -84t-157.5 -30.5h-273zM160 94h162q60 0 112.5 22.5t92 62.5t62 92.5t22.5 112.5q0 66 -28 116t-78 78t-116 28h-120l-45 -213h178l-17 -86h-180z
" />
    <glyph glyph-name="Ntilde" unicode="&#xd1;" horiz-adv-x="720" 
d="M16 0l149 700h97l273 -531l113 531h96l-149 -700h-88l-279 546l-115 -546h-97zM362 791l-61 20q44 100 110 100q29 0 54 -14.5t47.5 -29t41.5 -14.5q16 0 26.5 11.5t24.5 41.5l61 -20q-22 -51 -49 -76t-62 -25q-29 0 -54 14.5t-46.5 29t-43.5 14.5q-14 0 -25.5 -12
t-23.5 -40z" />
    <glyph glyph-name="Ograve" unicode="&#xd2;" horiz-adv-x="795" 
d="M391 -11q-71 0 -131.5 25t-105.5 70t-70 105.5t-25 130.5q0 80 30 150.5t83 124.5t122.5 85t148.5 31q70 0 131 -25t106 -70t70 -105t25 -131q0 -80 -30 -150.5t-83 -124.5t-122.5 -85t-148.5 -31zM398 86q57 0 106 22.5t86.5 62t59 92t21.5 111.5q0 68 -30.5 123t-84 86
t-120.5 31q-56 0 -105.5 -22.5t-87 -62t-59 -92t-21.5 -111.5q0 -68 30.5 -122.5t84 -86t120.5 -31.5zM435 794l-125 122h118l89 -122h-82z" />
    <glyph glyph-name="Oacute" unicode="&#xd3;" horiz-adv-x="795" 
d="M391 -11q-71 0 -131.5 25t-105.5 70t-70 105.5t-25 130.5q0 80 30 150.5t83 124.5t122.5 85t148.5 31q70 0 131 -25t106 -70t70 -105t25 -131q0 -80 -30 -150.5t-83 -124.5t-122.5 -85t-148.5 -31zM398 86q57 0 106 22.5t86.5 62t59 92t21.5 111.5q0 68 -30.5 123t-84 86
t-120.5 31q-56 0 -105.5 -22.5t-87 -62t-59 -92t-21.5 -111.5q0 -68 30.5 -122.5t84 -86t120.5 -31.5zM408 794l117 122h119l-151 -122h-85z" />
    <glyph glyph-name="Ocircumflex" unicode="&#xd4;" horiz-adv-x="795" 
d="M391 -11q-71 0 -131.5 25t-105.5 70t-70 105.5t-25 130.5q0 80 30 150.5t83 124.5t122.5 85t148.5 31q70 0 131 -25t106 -70t70 -105t25 -131q0 -80 -30 -150.5t-83 -124.5t-122.5 -85t-148.5 -31zM398 86q57 0 106 22.5t86.5 62t59 92t21.5 111.5q0 68 -30.5 123t-84 86
t-120.5 31q-56 0 -105.5 -22.5t-87 -62t-59 -92t-21.5 -111.5q0 -68 30.5 -122.5t84 -86t120.5 -31.5zM308 791l133 127h104l79 -127h-78l-61 77l-94 -77h-83z" />
    <glyph glyph-name="Otilde" unicode="&#xd5;" horiz-adv-x="795" 
d="M391 -11q-71 0 -131.5 25t-105.5 70t-70 105.5t-25 130.5q0 80 30 150.5t83 124.5t122.5 85t148.5 31q70 0 131 -25t106 -70t70 -105t25 -131q0 -80 -30 -150.5t-83 -124.5t-122.5 -85t-148.5 -31zM398 86q57 0 106 22.5t86.5 62t59 92t21.5 111.5q0 68 -30.5 123t-84 86
t-120.5 31q-56 0 -105.5 -22.5t-87 -62t-59 -92t-21.5 -111.5q0 -68 30.5 -122.5t84 -86t120.5 -31.5zM355 791l-61 20q44 100 110 100q29 0 54 -14.5t47.5 -29t41.5 -14.5q16 0 26.5 11.5t24.5 41.5l61 -20q-22 -51 -49 -76t-62 -25q-29 0 -54 14.5t-46.5 29t-43.5 14.5
q-14 0 -25.5 -12t-23.5 -40z" />
    <glyph glyph-name="Odieresis" unicode="&#xd6;" horiz-adv-x="795" 
d="M391 -11q-71 0 -131.5 25t-105.5 70t-70 105.5t-25 130.5q0 80 30 150.5t83 124.5t122.5 85t148.5 31q70 0 131 -25t106 -70t70 -105t25 -131q0 -80 -30 -150.5t-83 -124.5t-122.5 -85t-148.5 -31zM398 86q57 0 106 22.5t86.5 62t59 92t21.5 111.5q0 68 -30.5 123t-84 86
t-120.5 31q-56 0 -105.5 -22.5t-87 -62t-59 -92t-21.5 -111.5q0 -68 30.5 -122.5t84 -86t120.5 -31.5zM377 793q-23 0 -37 15t-14 37q0 26 19 45.5t45 19.5q22 0 36.5 -15t14.5 -37q0 -26 -19.5 -45.5t-44.5 -19.5zM565 793q-21 0 -36 15t-15 37q0 26 19.5 45.5t45.5 19.5
q22 0 36 -15t14 -37q0 -26 -19 -45.5t-45 -19.5z" />
    <glyph glyph-name="multiply" unicode="&#xd7;" horiz-adv-x="599" 
d="M134 153l-37 51l178 155l-112 155l58 50l112 -154l179 155l39 -51l-180 -156l113 -155l-60 -51l-112 155z" />
    <glyph glyph-name="Oslash" unicode="&#xd8;" horiz-adv-x="796" 
d="M391 -11q-62 0 -117 20t-98 56l-66 -65h-102l118 116q-32 42 -49.5 93.5t-17.5 110.5q0 80 30 150.5t83 124.5t122.5 85t148.5 31q63 0 117 -19.5t97 -54.5l64 63h103l-117 -115q32 -41 50 -93.5t18 -111.5q0 -80 -30 -150.5t-83 -124.5t-122.5 -85t-148.5 -31zM202 191
l381 373q-30 24 -67 37t-80 13q-56 0 -105.5 -22.5t-87 -62t-59 -92t-21.5 -111.5q0 -38 10.5 -72.5t28.5 -62.5zM398 86q57 0 106 22.5t86.5 62t59 92t21.5 111.5q0 39 -10.5 73.5t-29.5 62.5l-381 -372q30 -25 67.5 -38.5t80.5 -13.5z" />
    <glyph glyph-name="Ugrave" unicode="&#xd9;" horiz-adv-x="698" 
d="M323 -10q-96 0 -159.5 41t-89 114t-4.5 168l82 387h103l-84 -395q-14 -65 1.5 -114t55.5 -77t100 -28q81 0 139 55.5t78 150.5l87 408h103l-89 -415q-20 -94 -64.5 -160t-110.5 -100.5t-148 -34.5zM427 794l-125 122h118l89 -122h-82z" />
    <glyph glyph-name="Uacute" unicode="&#xda;" horiz-adv-x="698" 
d="M323 -10q-96 0 -159.5 41t-89 114t-4.5 168l82 387h103l-84 -395q-14 -65 1.5 -114t55.5 -77t100 -28q81 0 139 55.5t78 150.5l87 408h103l-89 -415q-20 -94 -64.5 -160t-110.5 -100.5t-148 -34.5zM400 794l117 122h119l-151 -122h-85z" />
    <glyph glyph-name="Ucircumflex" unicode="&#xdb;" horiz-adv-x="698" 
d="M323 -10q-96 0 -159.5 41t-89 114t-4.5 168l82 387h103l-84 -395q-14 -65 1.5 -114t55.5 -77t100 -28q81 0 139 55.5t78 150.5l87 408h103l-89 -415q-20 -94 -64.5 -160t-110.5 -100.5t-148 -34.5zM300 791l133 127h104l79 -127h-78l-61 77l-94 -77h-83z" />
    <glyph glyph-name="Udieresis" unicode="&#xdc;" horiz-adv-x="698" 
d="M323 -10q-96 0 -159.5 41t-89 114t-4.5 168l82 387h103l-84 -395q-14 -65 1.5 -114t55.5 -77t100 -28q81 0 139 55.5t78 150.5l87 408h103l-89 -415q-20 -94 -64.5 -160t-110.5 -100.5t-148 -34.5zM369 793q-23 0 -37 15t-14 37q0 26 19 45.5t45 19.5q22 0 36.5 -15
t14.5 -37q0 -26 -19.5 -45.5t-44.5 -19.5zM557 793q-21 0 -36 15t-15 37q0 26 19.5 45.5t45.5 19.5q22 0 36 -15t14 -37q0 -26 -19 -45.5t-45 -19.5z" />
    <glyph glyph-name="Yacute" unicode="&#xdd;" horiz-adv-x="654" 
d="M220 0l59 279l-185 421h109l143 -329l280 329h123l-367 -424l-58 -276h-104zM375 794l117 122h119l-151 -122h-85z" />
    <glyph glyph-name="Thorn" unicode="&#xde;" horiz-adv-x="648" 
d="M16 0l149 700h103l-30 -137h179q62 0 107 -23t70.5 -64.5t25.5 -97.5q0 -69 -33 -123.5t-89 -86t-128 -31.5h-222l-29 -137h-103zM166 226h201q44 0 77.5 18.5t52 51t18.5 74.5q0 47 -31 74.5t-85 27.5h-180z" />
    <glyph glyph-name="germandbls" unicode="&#xdf;" horiz-adv-x="635" 
d="M416 -12q-63 0 -117 24t-90 72l64 50q27 -38 63.5 -55.5t79.5 -17.5t68 19t25 50q0 21 -15 36t-49 31l-73 34q-42 19 -61 43t-19 57t16.5 55.5t42 38t54.5 28t54.5 25t42 29.5t16.5 41q0 26 -17.5 45.5t-47 32t-66.5 12.5q-72 0 -119 -39t-63 -116l-103 -483h-97l105 493
q24 110 96.5 168t182.5 58q66 0 117 -20.5t80 -55.5t29 -82q0 -40 -17 -67t-43 -44t-55.5 -29t-55.5 -23t-42.5 -23.5t-16.5 -31.5q0 -15 10.5 -26.5t34.5 -22.5l71 -33q52 -25 74.5 -53t22.5 -68q0 -44 -23.5 -78.5t-64.5 -54t-94 -19.5z" />
    <glyph glyph-name="agrave" unicode="&#xe0;" horiz-adv-x="522" 
d="M186 -6q-78 0 -125.5 38.5t-47.5 103.5q0 50 25.5 87.5t73 58t111.5 20.5q41 0 80.5 -9.5t72.5 -26.5l10 46q13 62 -15.5 92.5t-98.5 30.5q-30 0 -65.5 -8.5t-83.5 -28.5l-25 77q55 23 103 33t90 10q73 0 120 -24t66 -69.5t5 -108.5l-66 -316h-97l8 37
q-33 -22 -67.5 -32.5t-73.5 -10.5zM217 67q34 0 65.5 10.5t60.5 31.5l18 87q-55 37 -134 37q-54 0 -87.5 -24.5t-33.5 -64.5q0 -36 29.5 -56.5t81.5 -20.5zM279 603l-125 122h118l89 -122h-82z" />
    <glyph glyph-name="aacute" unicode="&#xe1;" horiz-adv-x="522" 
d="M186 -6q-78 0 -125.5 38.5t-47.5 103.5q0 50 25.5 87.5t73 58t111.5 20.5q41 0 80.5 -9.5t72.5 -26.5l10 46q13 62 -15.5 92.5t-98.5 30.5q-30 0 -65.5 -8.5t-83.5 -28.5l-25 77q55 23 103 33t90 10q73 0 120 -24t66 -69.5t5 -108.5l-66 -316h-97l8 37
q-33 -22 -67.5 -32.5t-73.5 -10.5zM217 67q34 0 65.5 10.5t60.5 31.5l18 87q-55 37 -134 37q-54 0 -87.5 -24.5t-33.5 -64.5q0 -36 29.5 -56.5t81.5 -20.5zM252 603l117 122h119l-151 -122h-85z" />
    <glyph glyph-name="acircumflex" unicode="&#xe2;" horiz-adv-x="522" 
d="M186 -6q-78 0 -125.5 38.5t-47.5 103.5q0 50 25.5 87.5t73 58t111.5 20.5q41 0 80.5 -9.5t72.5 -26.5l10 46q13 62 -15.5 92.5t-98.5 30.5q-30 0 -65.5 -8.5t-83.5 -28.5l-25 77q55 23 103 33t90 10q73 0 120 -24t66 -69.5t5 -108.5l-66 -316h-97l8 37
q-33 -22 -67.5 -32.5t-73.5 -10.5zM217 67q34 0 65.5 10.5t60.5 31.5l18 87q-55 37 -134 37q-54 0 -87.5 -24.5t-33.5 -64.5q0 -36 29.5 -56.5t81.5 -20.5zM152 600l133 127h104l79 -127h-78l-61 77l-94 -77h-83z" />
    <glyph glyph-name="atilde" unicode="&#xe3;" horiz-adv-x="522" 
d="M186 -6q-78 0 -125.5 38.5t-47.5 103.5q0 50 25.5 87.5t73 58t111.5 20.5q41 0 80.5 -9.5t72.5 -26.5l10 46q13 62 -15.5 92.5t-98.5 30.5q-30 0 -65.5 -8.5t-83.5 -28.5l-25 77q55 23 103 33t90 10q73 0 120 -24t66 -69.5t5 -108.5l-66 -316h-97l8 37
q-33 -22 -67.5 -32.5t-73.5 -10.5zM217 67q34 0 65.5 10.5t60.5 31.5l18 87q-55 37 -134 37q-54 0 -87.5 -24.5t-33.5 -64.5q0 -36 29.5 -56.5t81.5 -20.5zM199 600l-61 20q44 100 110 100q29 0 54 -14.5t47.5 -29t41.5 -14.5q16 0 26.5 11.5t24.5 41.5l61 -20
q-22 -51 -49 -76t-62 -25q-29 0 -54 14.5t-46.5 29t-43.5 14.5q-14 0 -25.5 -12t-23.5 -40z" />
    <glyph glyph-name="adieresis" unicode="&#xe4;" horiz-adv-x="522" 
d="M186 -6q-78 0 -125.5 38.5t-47.5 103.5q0 50 25.5 87.5t73 58t111.5 20.5q41 0 80.5 -9.5t72.5 -26.5l10 46q13 62 -15.5 92.5t-98.5 30.5q-30 0 -65.5 -8.5t-83.5 -28.5l-25 77q55 23 103 33t90 10q73 0 120 -24t66 -69.5t5 -108.5l-66 -316h-97l8 37
q-33 -22 -67.5 -32.5t-73.5 -10.5zM217 67q34 0 65.5 10.5t60.5 31.5l18 87q-55 37 -134 37q-54 0 -87.5 -24.5t-33.5 -64.5q0 -36 29.5 -56.5t81.5 -20.5zM221 602q-23 0 -37 15t-14 37q0 26 19 45.5t45 19.5q22 0 36.5 -15t14.5 -37q0 -26 -19.5 -45.5t-44.5 -19.5z
M409 602q-21 0 -36 15t-15 37q0 26 19.5 45.5t45.5 19.5q22 0 36 -15t14 -37q0 -26 -19 -45.5t-45 -19.5z" />
    <glyph glyph-name="aring" unicode="&#xe5;" horiz-adv-x="522" 
d="M186 -6q-78 0 -125.5 38.5t-47.5 103.5q0 50 25.5 87.5t73 58t111.5 20.5q41 0 80.5 -9.5t72.5 -26.5l10 46q13 62 -15.5 92.5t-98.5 30.5q-30 0 -65.5 -8.5t-83.5 -28.5l-25 77q55 23 103 33t90 10q73 0 120 -24t66 -69.5t5 -108.5l-66 -316h-97l8 37
q-33 -22 -67.5 -32.5t-73.5 -10.5zM217 67q34 0 65.5 10.5t60.5 31.5l18 87q-55 37 -134 37q-54 0 -87.5 -24.5t-33.5 -64.5q0 -36 29.5 -56.5t81.5 -20.5zM320 583q-46 0 -75.5 29t-29.5 73q0 34 17.5 63t45.5 47t61 18q46 0 75.5 -29t29.5 -73q0 -34 -17 -62.5t-45.5 -47
t-61.5 -18.5zM321 631q30 0 51.5 22.5t21.5 52.5q0 26 -16 42.5t-41 16.5q-29 0 -51 -22.5t-22 -53.5q0 -25 16.5 -41.5t40.5 -16.5z" />
    <glyph glyph-name="ae" unicode="&#xe6;" horiz-adv-x="885" 
d="M202 -6q-82 0 -132 39.5t-50 105.5q0 50 25 86.5t71 56.5t109 20q73 0 136 -27l9 40q12 59 -17 89.5t-97 30.5q-29 0 -63.5 -8.5t-82.5 -28.5l-26 77q56 23 103.5 33t90.5 10q64 0 107 -21t62 -61q37 38 84 59.5t97 21.5q64 0 114.5 -31.5t79 -86t28.5 -124.5
q0 -10 -0.5 -22.5t-3.5 -29.5h-391q3 -43 24.5 -76.5t56.5 -52.5t78 -19q36 0 68.5 10.5t57.5 29.5l53 -66q-43 -31 -88 -45t-97 -14q-63 0 -114.5 24t-84.5 65q-49 -43 -99.5 -64t-107.5 -21zM462 297h296q-4 40 -22.5 70t-48 47.5t-66.5 17.5t-69 -17.5t-55.5 -48
t-34.5 -69.5zM221 67q42 0 81 15.5t76 47.5q-7 16 -11.5 34.5t-6.5 37.5q-26 15 -59.5 23t-70.5 8q-52 0 -85 -24.5t-33 -62.5q0 -37 29.5 -58t79.5 -21z" />
    <glyph glyph-name="ccedilla" unicode="&#xe7;" horiz-adv-x="509" 
d="M214 -230q-36 0 -65.5 12.5t-49.5 35.5l40 37q31 -34 77 -34q29 0 46.5 13t17.5 34q0 18 -14.5 29t-41.5 11h-33l42 85q-58 7 -103.5 38.5t-71.5 81.5t-26 112q0 60 22.5 113t61.5 93.5t89.5 63.5t109.5 23t113 -27t87 -73l-69 -63q-26 37 -60 55.5t-76 18.5
q-36 0 -68.5 -15.5t-58 -43.5t-39.5 -63.5t-14 -76.5q0 -43 19.5 -78t52.5 -54.5t75 -19.5q35 0 67.5 13.5t65.5 39.5l49 -68q-79 -66 -174 -72l-21 -43q36 -5 56.5 -24.5t20.5 -51.5q0 -28 -16.5 -51.5t-45.5 -37t-65 -13.5z" />
    <glyph glyph-name="egrave" unicode="&#xe8;" horiz-adv-x="562" 
d="M285 -10q-73 0 -130 31t-89 85.5t-32 124.5q0 58 21 110t58.5 92t86.5 62t105 22q64 0 114 -31.5t79 -86t29 -124.5q0 -10 -0.5 -22.5t-3.5 -29.5h-392q3 -43 24.5 -76.5t56.5 -52.5t79 -19q35 0 67.5 10.5t58.5 29.5l53 -66q-44 -31 -88.5 -45t-96.5 -14zM139 297h295
q-4 40 -22.5 70t-47.5 47.5t-66 17.5t-69.5 -17.5t-55.5 -48t-34 -69.5zM295 603l-125 122h118l89 -122h-82z" />
    <glyph glyph-name="eacute" unicode="&#xe9;" horiz-adv-x="562" 
d="M285 -10q-73 0 -130 31t-89 85.5t-32 124.5q0 58 21 110t58.5 92t86.5 62t105 22q64 0 114 -31.5t79 -86t29 -124.5q0 -10 -0.5 -22.5t-3.5 -29.5h-392q3 -43 24.5 -76.5t56.5 -52.5t79 -19q35 0 67.5 10.5t58.5 29.5l53 -66q-44 -31 -88.5 -45t-96.5 -14zM139 297h295
q-4 40 -22.5 70t-47.5 47.5t-66 17.5t-69.5 -17.5t-55.5 -48t-34 -69.5zM268 603l117 122h119l-151 -122h-85z" />
    <glyph glyph-name="ecircumflex" unicode="&#xea;" horiz-adv-x="562" 
d="M285 -10q-73 0 -130 31t-89 85.5t-32 124.5q0 58 21 110t58.5 92t86.5 62t105 22q64 0 114 -31.5t79 -86t29 -124.5q0 -10 -0.5 -22.5t-3.5 -29.5h-392q3 -43 24.5 -76.5t56.5 -52.5t79 -19q35 0 67.5 10.5t58.5 29.5l53 -66q-44 -31 -88.5 -45t-96.5 -14zM139 297h295
q-4 40 -22.5 70t-47.5 47.5t-66 17.5t-69.5 -17.5t-55.5 -48t-34 -69.5zM168 600l133 127h104l79 -127h-78l-61 77l-94 -77h-83z" />
    <glyph glyph-name="edieresis" unicode="&#xeb;" horiz-adv-x="562" 
d="M285 -10q-73 0 -130 31t-89 85.5t-32 124.5q0 58 21 110t58.5 92t86.5 62t105 22q64 0 114 -31.5t79 -86t29 -124.5q0 -10 -0.5 -22.5t-3.5 -29.5h-392q3 -43 24.5 -76.5t56.5 -52.5t79 -19q35 0 67.5 10.5t58.5 29.5l53 -66q-44 -31 -88.5 -45t-96.5 -14zM139 297h295
q-4 40 -22.5 70t-47.5 47.5t-66 17.5t-69.5 -17.5t-55.5 -48t-34 -69.5zM237 602q-23 0 -37 15t-14 37q0 26 19 45.5t45 19.5q22 0 36.5 -15t14.5 -37q0 -26 -19.5 -45.5t-44.5 -19.5zM425 602q-21 0 -36 15t-15 37q0 26 19.5 45.5t45.5 19.5q22 0 36 -15t14 -37
q0 -26 -19 -45.5t-45 -19.5z" />
    <glyph glyph-name="igrave" unicode="&#xec;" horiz-adv-x="215" 
d="M5 0l108 509h97l-107 -509h-98zM149 603l-125 122h118l89 -122h-82z" />
    <glyph glyph-name="iacute" unicode="&#xed;" horiz-adv-x="215" 
d="M5 0l108 509h97l-107 -509h-98zM122 603l117 122h119l-151 -122h-85z" />
    <glyph glyph-name="icircumflex" unicode="&#xee;" horiz-adv-x="215" 
d="M5 0l108 509h97l-107 -509h-98zM21 600l133 127h104l79 -127h-78l-61 77l-94 -77h-83z" />
    <glyph glyph-name="idieresis" unicode="&#xef;" horiz-adv-x="215" 
d="M5 0l108 509h97l-107 -509h-98zM91 602q-23 0 -37 15t-14 37q0 26 19 45.5t45 19.5q22 0 36.5 -15t14.5 -37q0 -26 -19.5 -45.5t-44.5 -19.5zM279 602q-21 0 -36 15t-15 37q0 26 19.5 45.5t45.5 19.5q22 0 36 -15t14 -37q0 -26 -19 -45.5t-45 -19.5z" />
    <glyph glyph-name="eth" unicode="&#xf0;" horiz-adv-x="586" 
d="M263 -9q-66 0 -117.5 29.5t-81 80.5t-29.5 118q0 56 21 104.5t57.5 86t84.5 58.5t103 21q58 0 101 -25.5t66 -69.5q1 50 -13.5 96t-41.5 85l-105 -50l-26 60l87 41q-18 17 -39 31t-45 24l59 65q63 -32 110 -79l115 55l27 -60l-100 -48q65 -97 65 -232q0 -86 -22 -157.5
t-62 -124t-94.5 -81t-119.5 -28.5zM268 80q46 0 85.5 25.5t63.5 67t24 90.5q0 41 -18 73t-49.5 50.5t-70.5 18.5q-47 0 -87 -25.5t-64 -67t-24 -90.5q0 -42 18 -73.5t49.5 -50t72.5 -18.5z" />
    <glyph glyph-name="ntilde" unicode="&#xf1;" horiz-adv-x="557" 
d="M5 0l108 509h97l-9 -45q66 54 147 54q61 0 102 -27.5t58 -75.5t4 -109l-65 -306h-97l62 295q13 62 -15 99.5t-86 37.5q-38 0 -70.5 -15.5t-59.5 -44.5l-78 -372h-98zM239 600l-61 20q44 100 110 100q29 0 54 -14.5t47.5 -29t41.5 -14.5q16 0 26.5 11.5t24.5 41.5l61 -20
q-22 -51 -49 -76t-62 -25q-29 0 -54 14.5t-46.5 29t-43.5 14.5q-14 0 -25.5 -12t-23.5 -40z" />
    <glyph glyph-name="ograve" unicode="&#xf2;" horiz-adv-x="592" 
d="M278 -10q-70 0 -124.5 31.5t-86.5 87.5t-32 125q0 58 22 109.5t60.5 91t89 62t106.5 22.5q70 0 124.5 -31.5t86.5 -86.5t32 -125q0 -58 -22 -110t-60.5 -91.5t-88.5 -62t-107 -22.5zM282 78q37 0 68.5 15t56 42t39 62t14.5 74q0 46 -19.5 82.5t-54 57t-77.5 20.5
q-37 0 -68.5 -15t-56.5 -41.5t-39 -62t-14 -73.5q0 -46 19.5 -83t54 -57.5t77.5 -20.5zM307 603l-125 122h118l89 -122h-82z" />
    <glyph glyph-name="oacute" unicode="&#xf3;" horiz-adv-x="592" 
d="M278 -10q-70 0 -124.5 31.5t-86.5 87.5t-32 125q0 58 22 109.5t60.5 91t89 62t106.5 22.5q70 0 124.5 -31.5t86.5 -86.5t32 -125q0 -58 -22 -110t-60.5 -91.5t-88.5 -62t-107 -22.5zM282 78q37 0 68.5 15t56 42t39 62t14.5 74q0 46 -19.5 82.5t-54 57t-77.5 20.5
q-37 0 -68.5 -15t-56.5 -41.5t-39 -62t-14 -73.5q0 -46 19.5 -83t54 -57.5t77.5 -20.5zM280 603l117 122h119l-151 -122h-85z" />
    <glyph glyph-name="ocircumflex" unicode="&#xf4;" horiz-adv-x="592" 
d="M278 -10q-70 0 -124.5 31.5t-86.5 87.5t-32 125q0 58 22 109.5t60.5 91t89 62t106.5 22.5q70 0 124.5 -31.5t86.5 -86.5t32 -125q0 -58 -22 -110t-60.5 -91.5t-88.5 -62t-107 -22.5zM282 78q37 0 68.5 15t56 42t39 62t14.5 74q0 46 -19.5 82.5t-54 57t-77.5 20.5
q-37 0 -68.5 -15t-56.5 -41.5t-39 -62t-14 -73.5q0 -46 19.5 -83t54 -57.5t77.5 -20.5zM180 600l133 127h104l79 -127h-78l-61 77l-94 -77h-83z" />
    <glyph glyph-name="otilde" unicode="&#xf5;" horiz-adv-x="592" 
d="M278 -10q-70 0 -124.5 31.5t-86.5 87.5t-32 125q0 58 22 109.5t60.5 91t89 62t106.5 22.5q70 0 124.5 -31.5t86.5 -86.5t32 -125q0 -58 -22 -110t-60.5 -91.5t-88.5 -62t-107 -22.5zM282 78q37 0 68.5 15t56 42t39 62t14.5 74q0 46 -19.5 82.5t-54 57t-77.5 20.5
q-37 0 -68.5 -15t-56.5 -41.5t-39 -62t-14 -73.5q0 -46 19.5 -83t54 -57.5t77.5 -20.5zM227 600l-61 20q44 100 110 100q29 0 54 -14.5t47.5 -29t41.5 -14.5q16 0 26.5 11.5t24.5 41.5l61 -20q-22 -51 -49 -76t-62 -25q-29 0 -54 14.5t-46.5 29t-43.5 14.5q-14 0 -25.5 -12
t-23.5 -40z" />
    <glyph glyph-name="odieresis" unicode="&#xf6;" horiz-adv-x="592" 
d="M278 -10q-70 0 -124.5 31.5t-86.5 87.5t-32 125q0 58 22 109.5t60.5 91t89 62t106.5 22.5q70 0 124.5 -31.5t86.5 -86.5t32 -125q0 -58 -22 -110t-60.5 -91.5t-88.5 -62t-107 -22.5zM282 78q37 0 68.5 15t56 42t39 62t14.5 74q0 46 -19.5 82.5t-54 57t-77.5 20.5
q-37 0 -68.5 -15t-56.5 -41.5t-39 -62t-14 -73.5q0 -46 19.5 -83t54 -57.5t77.5 -20.5zM249 602q-23 0 -37 15t-14 37q0 26 19 45.5t45 19.5q22 0 36.5 -15t14.5 -37q0 -26 -19.5 -45.5t-44.5 -19.5zM437 602q-21 0 -36 15t-15 37q0 26 19.5 45.5t45.5 19.5q22 0 36 -15
t14 -37q0 -26 -19 -45.5t-45 -19.5z" />
    <glyph glyph-name="divide" unicode="&#xf7;" horiz-adv-x="599" 
d="M110 318l17 79h410l-17 -79h-410zM277 97q-25 0 -42.5 17.5t-17.5 42.5q0 28 21.5 49t50.5 21q24 0 41.5 -17.5t17.5 -43.5q0 -28 -21 -48.5t-50 -20.5zM361 492q-25 0 -42.5 17.5t-17.5 42.5q0 28 21.5 49t50.5 21q24 0 41.5 -17.5t17.5 -43.5q0 -27 -21 -48t-50 -21z
" />
    <glyph glyph-name="oslash" unicode="&#xf8;" horiz-adv-x="591" 
d="M278 -10q-46 0 -85.5 14t-69.5 40l-45 -44h-82l86 85q-23 31 -35 68.5t-12 80.5q0 58 22 109.5t60.5 91t89 62t106.5 22.5q45 0 84.5 -14t70.5 -39l44 43h83l-86 -85q22 -30 34.5 -68t12.5 -80q0 -58 -22 -110t-60.5 -91.5t-88.5 -62t-107 -22.5zM152 154l249 245
q-19 16 -42 24t-50 8q-37 0 -68.5 -15t-56.5 -41.5t-39 -61.5t-14 -74q0 -24 5.5 -45.5t15.5 -39.5zM282 78q37 0 68.5 15t56.5 41.5t39 61.5t14 75q0 24 -5.5 45t-15.5 39l-250 -245q20 -15 43 -23.5t50 -8.5z" />
    <glyph glyph-name="ugrave" unicode="&#xf9;" horiz-adv-x="556" 
d="M208 -9q-61 0 -102.5 28t-58 76t-4.5 109l65 305h98l-63 -295q-13 -62 15.5 -99.5t86.5 -37.5q38 0 71 16t59 46l78 370h98l-108 -509h-98l10 45q-66 -54 -147 -54zM309 603l-125 122h118l89 -122h-82z" />
    <glyph glyph-name="uacute" unicode="&#xfa;" horiz-adv-x="556" 
d="M208 -9q-61 0 -102.5 28t-58 76t-4.5 109l65 305h98l-63 -295q-13 -62 15.5 -99.5t86.5 -37.5q38 0 71 16t59 46l78 370h98l-108 -509h-98l10 45q-66 -54 -147 -54zM282 603l117 122h119l-151 -122h-85z" />
    <glyph glyph-name="ucircumflex" unicode="&#xfb;" horiz-adv-x="556" 
d="M208 -9q-61 0 -102.5 28t-58 76t-4.5 109l65 305h98l-63 -295q-13 -62 15.5 -99.5t86.5 -37.5q38 0 71 16t59 46l78 370h98l-108 -509h-98l10 45q-66 -54 -147 -54zM182 600l133 127h104l79 -127h-78l-61 77l-94 -77h-83z" />
    <glyph glyph-name="udieresis" unicode="&#xfc;" horiz-adv-x="556" 
d="M208 -9q-61 0 -102.5 28t-58 76t-4.5 109l65 305h98l-63 -295q-13 -62 15.5 -99.5t86.5 -37.5q38 0 71 16t59 46l78 370h98l-108 -509h-98l10 45q-66 -54 -147 -54zM251 602q-23 0 -37 15t-14 37q0 26 19 45.5t45 19.5q22 0 36.5 -15t14.5 -37q0 -26 -19.5 -45.5
t-44.5 -19.5zM439 602q-21 0 -36 15t-15 37q0 26 19.5 45.5t45.5 19.5q22 0 36 -15t14 -37q0 -26 -19 -45.5t-45 -19.5z" />
    <glyph glyph-name="yacute" unicode="&#xfd;" horiz-adv-x="528" 
d="M5 -214q-17 0 -33 2.5t-32 6.5l19 87q8 -3 20 -4.5t25 -1.5q33 0 60.5 17t50.5 53l35 55l-93 508h104l66 -394l244 394h108l-369 -587q-46 -73 -93.5 -104.5t-111.5 -31.5zM269 603l117 122h119l-151 -122h-85z" />
    <glyph glyph-name="thorn" unicode="&#xfe;" horiz-adv-x="594" 
d="M-39 -207l193 907l102 22l-52 -244q60 38 130 38q65 0 115.5 -30.5t80.5 -83.5t30 -120q0 -60 -22 -113t-60.5 -92.5t-89.5 -62t-110 -22.5q-48 0 -90.5 17t-73.5 49l-56 -265h-97zM311 430q-36 0 -68.5 -12t-59.5 -35l-49 -232q20 -33 58 -52.5t83 -19.5q54 0 96.5 26
t67.5 70.5t25 97.5q0 46 -19.5 81.5t-54.5 55.5t-79 20z" />
    <glyph glyph-name="ydieresis" unicode="&#xff;" horiz-adv-x="528" 
d="M5 -214q-17 0 -33 2.5t-32 6.5l19 87q8 -3 20 -4.5t25 -1.5q33 0 60.5 17t50.5 53l35 55l-93 508h104l66 -394l244 394h108l-369 -587q-46 -73 -93.5 -104.5t-111.5 -31.5zM238 602q-23 0 -37 15t-14 37q0 26 19 45.5t45 19.5q22 0 36.5 -15t14.5 -37q0 -26 -19.5 -45.5
t-44.5 -19.5zM426 602q-21 0 -36 15t-15 37q0 26 19.5 45.5t45.5 19.5q22 0 36 -15t14 -37q0 -26 -19 -45.5t-45 -19.5z" />
    <glyph glyph-name="Amacron" unicode="&#x100;" horiz-adv-x="687" 
d="M-53 0l429 700h122l135 -700h-107l-37 205h-306l-123 -205h-113zM235 292h239l-56 306zM304 813l15 67h291l-15 -67h-291z" />
    <glyph glyph-name="amacron" unicode="&#x101;" horiz-adv-x="522" 
d="M186 -6q-78 0 -125.5 38.5t-47.5 103.5q0 50 25.5 87.5t73 58t111.5 20.5q41 0 80.5 -9.5t72.5 -26.5l10 46q13 62 -15.5 92.5t-98.5 30.5q-30 0 -65.5 -8.5t-83.5 -28.5l-25 77q55 23 103 33t90 10q73 0 120 -24t66 -69.5t5 -108.5l-66 -316h-97l8 37
q-33 -22 -67.5 -32.5t-73.5 -10.5zM217 67q34 0 65.5 10.5t60.5 31.5l18 87q-55 37 -134 37q-54 0 -87.5 -24.5t-33.5 -64.5q0 -36 29.5 -56.5t81.5 -20.5zM164 622l15 67h291l-15 -67h-291z" />
    <glyph glyph-name="Abreve" unicode="&#x102;" horiz-adv-x="687" 
d="M-53 0l429 700h122l135 -700h-107l-37 205h-306l-123 -205h-113zM235 292h239l-56 306zM460 786q-65 0 -103.5 36.5t-39.5 97.5l63 13q2 -42 23 -64.5t59 -22.5q69 0 108 82l64 -20q-27 -59 -72 -90.5t-102 -31.5z" />
    <glyph glyph-name="abreve" unicode="&#x103;" horiz-adv-x="522" 
d="M186 -6q-78 0 -125.5 38.5t-47.5 103.5q0 50 25.5 87.5t73 58t111.5 20.5q41 0 80.5 -9.5t72.5 -26.5l10 46q13 62 -15.5 92.5t-98.5 30.5q-30 0 -65.5 -8.5t-83.5 -28.5l-25 77q55 23 103 33t90 10q73 0 120 -24t66 -69.5t5 -108.5l-66 -316h-97l8 37
q-33 -22 -67.5 -32.5t-73.5 -10.5zM217 67q34 0 65.5 10.5t60.5 31.5l18 87q-55 37 -134 37q-54 0 -87.5 -24.5t-33.5 -64.5q0 -36 29.5 -56.5t81.5 -20.5zM320 595q-65 0 -103.5 36.5t-39.5 97.5l63 13q2 -42 23 -64.5t59 -22.5q69 0 108 82l64 -20q-27 -59 -72 -90.5
t-102 -31.5z" />
    <glyph glyph-name="Aogonek" unicode="&#x104;" horiz-adv-x="687" 
d="M-53 0l429 700h122l135 -700q-63 -33 -93 -63.5t-30 -62.5q0 -18 12.5 -29t33.5 -11q23 0 44 11l5 -49q-17 -8 -35.5 -13t-37.5 -5q-40 0 -64 20t-24 53q0 41 30 78t90 71h-38l-37 205h-306l-123 -205h-113zM235 292h239l-56 306z" />
    <glyph glyph-name="aogonek" unicode="&#x105;" horiz-adv-x="522" 
d="M315 -222q-40 0 -64 20t-24 53q0 41 30 78t90 71h-28l8 37q-33 -22 -67.5 -32.5t-73.5 -10.5q-78 0 -125.5 38.5t-47.5 103.5q0 50 25.5 87.5t73 58t111.5 20.5q41 0 80.5 -9.5t72.5 -26.5l10 46q13 62 -15.5 92.5t-98.5 30.5q-30 0 -65.5 -8.5t-83.5 -28.5l-25 77
q55 23 103 33t90 10q73 0 120 -24t66 -69.5t5 -108.5l-66 -316q-63 -33 -93 -63.5t-30 -62.5q0 -18 12.5 -29t33.5 -11q23 0 44 11l5 -49q-17 -8 -35.5 -13t-37.5 -5zM217 67q34 0 65.5 10.5t60.5 31.5l18 87q-55 37 -134 37q-54 0 -87.5 -24.5t-33.5 -64.5
q0 -36 29.5 -56.5t81.5 -20.5z" />
    <glyph glyph-name="Cacute" unicode="&#x106;" horiz-adv-x="708" 
d="M394 -11q-71 0 -132 25t-106.5 70t-70.5 105.5t-25 130.5q0 80 30 150t83 124t122.5 84t148.5 30q90 0 161.5 -33.5t116.5 -97.5l-78 -69q-33 50 -86.5 77.5t-118.5 27.5q-57 0 -107 -22.5t-87.5 -62t-58.5 -92t-21 -112.5q0 -68 31.5 -122.5t85 -85.5t122.5 -31
q58 0 113 22.5t98 63.5l56 -71q-57 -53 -129.5 -82t-147.5 -29zM413 794l117 122h119l-151 -122h-85z" />
    <glyph glyph-name="cacute" unicode="&#x107;" horiz-adv-x="509" 
d="M266 -10q-67 0 -120 30.5t-83.5 83.5t-30.5 121q0 60 22.5 113t61.5 93.5t89.5 63.5t109.5 23t113 -27t87 -73l-69 -63q-26 37 -60 55.5t-76 18.5q-36 0 -68.5 -15.5t-58 -43.5t-39.5 -63.5t-14 -76.5q0 -43 19.5 -78t52.5 -54.5t75 -19.5q35 0 67.5 13.5t65.5 39.5
l49 -68q-88 -73 -193 -73zM281 603l117 122h119l-151 -122h-85z" />
    <glyph glyph-name="Ccircumflex" unicode="&#x108;" horiz-adv-x="708" 
d="M394 -11q-71 0 -132 25t-106.5 70t-70.5 105.5t-25 130.5q0 80 30 150t83 124t122.5 84t148.5 30q90 0 161.5 -33.5t116.5 -97.5l-78 -69q-33 50 -86.5 77.5t-118.5 27.5q-57 0 -107 -22.5t-87.5 -62t-58.5 -92t-21 -112.5q0 -68 31.5 -122.5t85 -85.5t122.5 -31
q58 0 113 22.5t98 63.5l56 -71q-57 -53 -129.5 -82t-147.5 -29zM312 791l133 127h104l79 -127h-78l-61 77l-94 -77h-83z" />
    <glyph glyph-name="ccircumflex" unicode="&#x109;" horiz-adv-x="509" 
d="M266 -10q-67 0 -120 30.5t-83.5 83.5t-30.5 121q0 60 22.5 113t61.5 93.5t89.5 63.5t109.5 23t113 -27t87 -73l-69 -63q-26 37 -60 55.5t-76 18.5q-36 0 -68.5 -15.5t-58 -43.5t-39.5 -63.5t-14 -76.5q0 -43 19.5 -78t52.5 -54.5t75 -19.5q35 0 67.5 13.5t65.5 39.5
l49 -68q-88 -73 -193 -73zM181 600l133 127h104l79 -127h-78l-61 77l-94 -77h-83z" />
    <glyph glyph-name="Cdotaccent" unicode="&#x10a;" horiz-adv-x="708" 
d="M394 -11q-71 0 -132 25t-106.5 70t-70.5 105.5t-25 130.5q0 80 30 150t83 124t122.5 84t148.5 30q90 0 161.5 -33.5t116.5 -97.5l-78 -69q-33 50 -86.5 77.5t-118.5 27.5q-57 0 -107 -22.5t-87.5 -62t-58.5 -92t-21 -112.5q0 -68 31.5 -122.5t85 -85.5t122.5 -31
q58 0 113 22.5t98 63.5l56 -71q-57 -53 -129.5 -82t-147.5 -29zM475 793q-23 0 -37 15t-14 37q0 26 19 45.5t45 19.5q22 0 36.5 -15t14.5 -37q0 -26 -19.5 -45.5t-44.5 -19.5z" />
    <glyph glyph-name="cdotaccent" unicode="&#x10b;" horiz-adv-x="509" 
d="M266 -10q-67 0 -120 30.5t-83.5 83.5t-30.5 121q0 60 22.5 113t61.5 93.5t89.5 63.5t109.5 23t113 -27t87 -73l-69 -63q-26 37 -60 55.5t-76 18.5q-36 0 -68.5 -15.5t-58 -43.5t-39.5 -63.5t-14 -76.5q0 -43 19.5 -78t52.5 -54.5t75 -19.5q35 0 67.5 13.5t65.5 39.5
l49 -68q-88 -73 -193 -73zM343 602q-23 0 -37 15t-14 37q0 26 19 45.5t45 19.5q22 0 36.5 -15t14.5 -37q0 -26 -19.5 -45.5t-44.5 -19.5z" />
    <glyph glyph-name="Ccaron" unicode="&#x10c;" horiz-adv-x="708" 
d="M394 -11q-71 0 -132 25t-106.5 70t-70.5 105.5t-25 130.5q0 80 30 150t83 124t122.5 84t148.5 30q90 0 161.5 -33.5t116.5 -97.5l-78 -69q-33 50 -86.5 77.5t-118.5 27.5q-57 0 -107 -22.5t-87.5 -62t-58.5 -92t-21 -112.5q0 -68 31.5 -122.5t85 -85.5t122.5 -31
q58 0 113 22.5t98 63.5l56 -71q-57 -53 -129.5 -82t-147.5 -29zM421 792l-79 126h78l60 -76l93 76h84l-133 -126h-103z" />
    <glyph glyph-name="ccaron" unicode="&#x10d;" horiz-adv-x="509" 
d="M266 -10q-67 0 -120 30.5t-83.5 83.5t-30.5 121q0 60 22.5 113t61.5 93.5t89.5 63.5t109.5 23t113 -27t87 -73l-69 -63q-26 37 -60 55.5t-76 18.5q-36 0 -68.5 -15.5t-58 -43.5t-39.5 -63.5t-14 -76.5q0 -43 19.5 -78t52.5 -54.5t75 -19.5q35 0 67.5 13.5t65.5 39.5
l49 -68q-88 -73 -193 -73zM289 601l-79 126h78l60 -76l93 76h84l-133 -126h-103z" />
    <glyph glyph-name="Dcaron" unicode="&#x10e;" horiz-adv-x="713" 
d="M16 0l149 700h210q71 0 130 -22.5t101.5 -64t65.5 -98.5t23 -125q0 -81 -31.5 -151.5t-87.5 -124t-129.5 -84t-157.5 -30.5h-273zM138 94h162q60 0 112.5 22.5t92 62.5t62 92.5t22.5 112.5q0 66 -28 116t-78 78t-117 28h-119zM415 792l-79 126h78l60 -76l93 76h84
l-133 -126h-103z" />
    <glyph glyph-name="dcaron" unicode="&#x10f;" horiz-adv-x="716" 
d="M260 -8q-64 0 -115 31t-80.5 84t-29.5 120q0 60 22 112t60.5 92t89.5 62.5t110 22.5q49 0 91 -16.5t73 -48.5l52 249l102 22l-153 -722h-97l6 31q-60 -39 -131 -39zM284 78q36 0 68.5 12.5t58.5 36.5l50 233q-20 31 -58 50.5t-83 19.5q-52 0 -95 -26.5t-68.5 -70
t-25.5 -98.5q0 -45 19.5 -81t54.5 -56t79 -20zM668 505l51 198l92 18l-76 -216h-67z" />
    <glyph glyph-name="Dcroat" unicode="&#x110;" horiz-adv-x="735" 
d="M38 0l65 307h-82l19 86h82l65 307h211q70 0 129 -22.5t101.5 -64t66 -98.5t23.5 -125q0 -81 -32 -151.5t-88 -124t-129.5 -84t-157.5 -30.5h-273zM160 94h162q60 0 112.5 22.5t92 62.5t62 92.5t22.5 112.5q0 66 -28 116t-78 78t-116 28h-120l-45 -213h178l-17 -86h-180z
" />
    <glyph glyph-name="dcroat" unicode="&#x111;" horiz-adv-x="594" 
d="M260 -8q-64 0 -115 31t-80.5 84t-29.5 120q0 60 22 112t60.5 92t89.5 62.5t110 22.5q49 0 91 -16.5t73 -48.5l28 132h-150l14 69h150l10 48l102 22l-14 -70h58l-15 -69h-59l-123 -583h-97l6 31q-60 -39 -131 -39zM284 78q36 0 68.5 12.5t58.5 36.5l50 233
q-20 31 -58 50.5t-83 19.5q-52 0 -95 -26.5t-68.5 -70t-25.5 -98.5q0 -45 19.5 -81t54.5 -56t79 -20z" />
    <glyph glyph-name="Emacron" unicode="&#x112;" horiz-adv-x="616" 
d="M16 0l149 700h506l-20 -92h-403l-45 -210h264l-19 -89h-264l-46 -217h407l-19 -92h-510zM284 813l15 67h291l-15 -67h-291z" />
    <glyph glyph-name="emacron" unicode="&#x113;" horiz-adv-x="562" 
d="M285 -10q-73 0 -130 31t-89 85.5t-32 124.5q0 58 21 110t58.5 92t86.5 62t105 22q64 0 114 -31.5t79 -86t29 -124.5q0 -10 -0.5 -22.5t-3.5 -29.5h-392q3 -43 24.5 -76.5t56.5 -52.5t79 -19q35 0 67.5 10.5t58.5 29.5l53 -66q-44 -31 -88.5 -45t-96.5 -14zM139 297h295
q-4 40 -22.5 70t-47.5 47.5t-66 17.5t-69.5 -17.5t-55.5 -48t-34 -69.5zM180 622l15 67h291l-15 -67h-291z" />
    <glyph glyph-name="Ebreve" unicode="&#x114;" horiz-adv-x="616" 
d="M16 0l149 700h506l-20 -92h-403l-45 -210h264l-19 -89h-264l-46 -217h407l-19 -92h-510zM440 786q-65 0 -103.5 36.5t-39.5 97.5l63 13q2 -42 23 -64.5t59 -22.5q69 0 108 82l64 -20q-27 -59 -72 -90.5t-102 -31.5z" />
    <glyph glyph-name="ebreve" unicode="&#x115;" horiz-adv-x="562" 
d="M285 -10q-73 0 -130 31t-89 85.5t-32 124.5q0 58 21 110t58.5 92t86.5 62t105 22q64 0 114 -31.5t79 -86t29 -124.5q0 -10 -0.5 -22.5t-3.5 -29.5h-392q3 -43 24.5 -76.5t56.5 -52.5t79 -19q35 0 67.5 10.5t58.5 29.5l53 -66q-44 -31 -88.5 -45t-96.5 -14zM139 297h295
q-4 40 -22.5 70t-47.5 47.5t-66 17.5t-69.5 -17.5t-55.5 -48t-34 -69.5zM336 595q-65 0 -103.5 36.5t-39.5 97.5l63 13q2 -42 23 -64.5t59 -22.5q69 0 108 82l64 -20q-27 -59 -72 -90.5t-102 -31.5z" />
    <glyph glyph-name="Edotaccent" unicode="&#x116;" horiz-adv-x="616" 
d="M16 0l149 700h506l-20 -92h-403l-45 -210h264l-19 -89h-264l-46 -217h407l-19 -92h-510zM434 793q-23 0 -37 15t-14 37q0 26 19 45.5t45 19.5q22 0 36.5 -15t14.5 -37q0 -26 -19.5 -45.5t-44.5 -19.5z" />
    <glyph glyph-name="edotaccent" unicode="&#x117;" horiz-adv-x="562" 
d="M285 -10q-73 0 -130 31t-89 85.5t-32 124.5q0 58 21 110t58.5 92t86.5 62t105 22q64 0 114 -31.5t79 -86t29 -124.5q0 -10 -0.5 -22.5t-3.5 -29.5h-392q3 -43 24.5 -76.5t56.5 -52.5t79 -19q35 0 67.5 10.5t58.5 29.5l53 -66q-44 -31 -88.5 -45t-96.5 -14zM139 297h295
q-4 40 -22.5 70t-47.5 47.5t-66 17.5t-69.5 -17.5t-55.5 -48t-34 -69.5zM330 602q-23 0 -37 15t-14 37q0 26 19 45.5t45 19.5q22 0 36.5 -15t14.5 -37q0 -26 -19.5 -45.5t-44.5 -19.5z" />
    <glyph glyph-name="Eogonek" unicode="&#x118;" horiz-adv-x="616" 
d="M425 -222q-40 0 -64 20t-24 53q0 41 30 78t90 71h-441l149 700h506l-20 -92h-403l-45 -210h264l-19 -89h-264l-46 -217h407l-19 -92q-63 -33 -93 -63.5t-30 -62.5q0 -18 12.5 -29t33.5 -11q23 0 44 11l5 -49q-17 -8 -35.5 -13t-37.5 -5z" />
    <glyph glyph-name="eogonek" unicode="&#x119;" horiz-adv-x="562" 
d="M266 -222q-40 0 -64 20t-24 53q0 38 26 72.5t77 66.5q-72 1 -128 32t-87.5 85.5t-31.5 123.5q0 58 21 110t58.5 92t86.5 62t105 22q64 0 114 -31.5t79 -86t29 -124.5q0 -10 -0.5 -22.5t-3.5 -29.5h-392q3 -43 24.5 -76.5t56.5 -52.5t79 -19q35 0 67.5 10.5t58.5 29.5
l53 -66q-26 -18 -51.5 -30.5t-52.5 -18.5q-63 -33 -93 -63.5t-30 -62.5q0 -18 13 -29t34 -11q23 0 43 11l6 -49q-17 -8 -36 -13t-37 -5zM139 297h295q-4 40 -22.5 70t-47.5 47.5t-66 17.5t-69.5 -17.5t-55.5 -48t-34 -69.5z" />
    <glyph glyph-name="Ecaron" unicode="&#x11a;" horiz-adv-x="616" 
d="M16 0l149 700h506l-20 -92h-403l-45 -210h264l-19 -89h-264l-46 -217h407l-19 -92h-510zM380 792l-79 126h78l60 -76l93 76h84l-133 -126h-103z" />
    <glyph glyph-name="ecaron" unicode="&#x11b;" horiz-adv-x="562" 
d="M285 -10q-73 0 -130 31t-89 85.5t-32 124.5q0 58 21 110t58.5 92t86.5 62t105 22q64 0 114 -31.5t79 -86t29 -124.5q0 -10 -0.5 -22.5t-3.5 -29.5h-392q3 -43 24.5 -76.5t56.5 -52.5t79 -19q35 0 67.5 10.5t58.5 29.5l53 -66q-44 -31 -88.5 -45t-96.5 -14zM139 297h295
q-4 40 -22.5 70t-47.5 47.5t-66 17.5t-69.5 -17.5t-55.5 -48t-34 -69.5zM276 601l-79 126h78l60 -76l93 76h84l-133 -126h-103z" />
    <glyph glyph-name="Gcircumflex" unicode="&#x11c;" horiz-adv-x="776" 
d="M387 -12q-71 0 -131 25t-104.5 69.5t-69.5 104.5t-25 129q0 81 30.5 152t84.5 125.5t124 85t148 30.5q89 0 161.5 -35t119.5 -101l-80 -68q-33 51 -88.5 79.5t-119.5 28.5q-57 0 -106.5 -22.5t-87.5 -62.5t-59.5 -93t-21.5 -114q0 -68 30 -121.5t83 -84.5t120 -31
q59 0 109 26t85 71t48 105h-229l17 91h335l-10 -59q-16 -96 -68 -170.5t-128.5 -117t-166.5 -42.5zM312 791l133 127h104l79 -127h-78l-61 77l-94 -77h-83z" />
    <glyph glyph-name="gcircumflex" unicode="&#x11d;" horiz-adv-x="596" 
d="M251 -211q-58 0 -119 19.5t-106 53.5l48 74q44 -30 87.5 -46t86.5 -16q109 0 132 108l11 51q-60 -39 -131 -39q-64 0 -114.5 31t-80 83.5t-29.5 119.5q0 59 22 111.5t60 92.5t89 62t110 22q48 0 90.5 -16t72.5 -48l12 57h97l-112 -538q-19 -88 -76.5 -135t-149.5 -47z
M284 79q72 0 127 49l49 232q-20 32 -58 51t-82 19q-52 0 -95 -26t-68 -70t-25 -98q0 -45 19.5 -80.5t54 -56t78.5 -20.5zM189 600l133 127h104l79 -127h-78l-61 77l-94 -77h-83z" />
    <glyph glyph-name="Gbreve" unicode="&#x11e;" horiz-adv-x="776" 
d="M387 -12q-71 0 -131 25t-104.5 69.5t-69.5 104.5t-25 129q0 81 30.5 152t84.5 125.5t124 85t148 30.5q89 0 161.5 -35t119.5 -101l-80 -68q-33 51 -88.5 79.5t-119.5 28.5q-57 0 -106.5 -22.5t-87.5 -62.5t-59.5 -93t-21.5 -114q0 -68 30 -121.5t83 -84.5t120 -31
q59 0 109 26t85 71t48 105h-229l17 91h335l-10 -59q-16 -96 -68 -170.5t-128.5 -117t-166.5 -42.5zM480 786q-65 0 -103.5 36.5t-39.5 97.5l63 13q2 -42 23 -64.5t59 -22.5q69 0 108 82l64 -20q-27 -59 -72 -90.5t-102 -31.5z" />
    <glyph glyph-name="gbreve" unicode="&#x11f;" horiz-adv-x="596" 
d="M251 -211q-58 0 -119 19.5t-106 53.5l48 74q44 -30 87.5 -46t86.5 -16q109 0 132 108l11 51q-60 -39 -131 -39q-64 0 -114.5 31t-80 83.5t-29.5 119.5q0 59 22 111.5t60 92.5t89 62t110 22q48 0 90.5 -16t72.5 -48l12 57h97l-112 -538q-19 -88 -76.5 -135t-149.5 -47z
M284 79q72 0 127 49l49 232q-20 32 -58 51t-82 19q-52 0 -95 -26t-68 -70t-25 -98q0 -45 19.5 -80.5t54 -56t78.5 -20.5zM357 595q-65 0 -103.5 36.5t-39.5 97.5l63 13q2 -42 23 -64.5t59 -22.5q69 0 108 82l64 -20q-27 -59 -72 -90.5t-102 -31.5z" />
    <glyph glyph-name="Gdotaccent" unicode="&#x120;" horiz-adv-x="776" 
d="M387 -12q-71 0 -131 25t-104.5 69.5t-69.5 104.5t-25 129q0 81 30.5 152t84.5 125.5t124 85t148 30.5q89 0 161.5 -35t119.5 -101l-80 -68q-33 51 -88.5 79.5t-119.5 28.5q-57 0 -106.5 -22.5t-87.5 -62.5t-59.5 -93t-21.5 -114q0 -68 30 -121.5t83 -84.5t120 -31
q59 0 109 26t85 71t48 105h-229l17 91h335l-10 -59q-16 -96 -68 -170.5t-128.5 -117t-166.5 -42.5zM474 793q-23 0 -37 15t-14 37q0 26 19 45.5t45 19.5q22 0 36.5 -15t14.5 -37q0 -26 -19.5 -45.5t-44.5 -19.5z" />
    <glyph glyph-name="gdotaccent" unicode="&#x121;" horiz-adv-x="596" 
d="M251 -211q-58 0 -119 19.5t-106 53.5l48 74q44 -30 87.5 -46t86.5 -16q109 0 132 108l11 51q-60 -39 -131 -39q-64 0 -114.5 31t-80 83.5t-29.5 119.5q0 59 22 111.5t60 92.5t89 62t110 22q48 0 90.5 -16t72.5 -48l12 57h97l-112 -538q-19 -88 -76.5 -135t-149.5 -47z
M284 79q72 0 127 49l49 232q-20 32 -58 51t-82 19q-52 0 -95 -26t-68 -70t-25 -98q0 -45 19.5 -80.5t54 -56t78.5 -20.5zM351 602q-23 0 -37 15t-14 37q0 26 19 45.5t45 19.5q22 0 36.5 -15t14.5 -37q0 -26 -19.5 -45.5t-44.5 -19.5z" />
    <glyph glyph-name="Gcommaaccent" unicode="&#x122;" horiz-adv-x="776" 
d="M387 -12q-71 0 -131 25t-104.5 69.5t-69.5 104.5t-25 129q0 81 30.5 152t84.5 125.5t124 85t148 30.5q89 0 161.5 -35t119.5 -101l-80 -68q-33 51 -88.5 79.5t-119.5 28.5q-57 0 -106.5 -22.5t-87.5 -62.5t-59.5 -93t-21.5 -114q0 -68 30 -121.5t83 -84.5t120 -31
q59 0 109 26t85 71t48 105h-229l17 91h335l-10 -59q-16 -96 -68 -170.5t-128.5 -117t-166.5 -42.5zM245 -273l85 189h96l-108 -189h-73z" />
    <glyph glyph-name="gcommaaccent" unicode="&#x123;" horiz-adv-x="597" 
d="M251 -211q-58 0 -119 19.5t-106 53.5l48 74q44 -30 87.5 -46t86.5 -16q109 0 132 108l11 51q-60 -39 -131 -39q-64 0 -114.5 31t-80 83.5t-29.5 119.5q0 59 22 111.5t60 92.5t89 62t110 22q48 0 90.5 -16t72.5 -48l12 57h97l-112 -538q-19 -88 -76.5 -135t-149.5 -47z
M284 79q72 0 127 49l49 232q-20 32 -58 51t-82 19q-52 0 -95 -26t-68 -70t-25 -98q0 -45 19.5 -80.5t54 -56t78.5 -20.5zM477 800l-85 -189h-96l108 189h73z" />
    <glyph glyph-name="Hcircumflex" unicode="&#x124;" horiz-adv-x="710" 
d="M16 0l149 700h102l-64 -300h365l64 300h103l-149 -700h-103l65 305h-365l-65 -305h-102zM310 791l133 127h104l79 -127h-78l-61 77l-94 -77h-83z" />
    <glyph glyph-name="hcircumflex" unicode="&#x125;" horiz-adv-x="557" 
d="M5 0l149 700l102 22l-55 -258q65 54 147 54q61 0 102 -27.5t58 -75.5t4 -109l-65 -306h-97l62 295q13 62 -15 99.5t-86 37.5q-38 0 -70.5 -15.5t-58.5 -44.5l-79 -372h-98zM60 791l133 127h104l79 -127h-78l-61 77l-94 -77h-83z" />
    <glyph glyph-name="Hbar" unicode="&#x126;" horiz-adv-x="731" 
d="M26 0l108 510h-67l18 86h67l23 104h102l-22 -104h365l23 104h102l-22 -104h67l-18 -86h-68l-108 -510h-102l65 305h-366l-65 -305h-102zM213 400h366l23 110h-366z" />
    <glyph glyph-name="hbar" unicode="&#x127;" horiz-adv-x="556" 
d="M5 0l124 583h-61l14 69h62l10 48l102 22l-15 -70h148l-14 -69h-149l-25 -119q65 54 147 54q61 0 102 -27.5t58 -75.5t4 -109l-65 -306h-97l62 295q13 62 -15 99.5t-86 37.5q-38 0 -70.5 -15.5t-58.5 -44.5l-79 -372h-98z" />
    <glyph glyph-name="Itilde" unicode="&#x128;" horiz-adv-x="243" 
d="M16 0l149 700h102l-149 -700h-102zM124 791l-61 20q44 100 110 100q29 0 54 -14.5t47.5 -29t41.5 -14.5q16 0 26.5 11.5t24.5 41.5l61 -20q-22 -51 -49 -76t-62 -25q-29 0 -54 14.5t-46.5 29t-43.5 14.5q-14 0 -25.5 -12t-23.5 -40z" />
    <glyph glyph-name="itilde" unicode="&#x129;" horiz-adv-x="215" 
d="M5 0l108 509h97l-107 -509h-98zM69 600l-61 20q44 100 110 100q29 0 54 -14.5t47.5 -29t41.5 -14.5q16 0 26.5 11.5t24.5 41.5l61 -20q-22 -51 -49 -76t-62 -25q-29 0 -54 14.5t-46.5 29t-43.5 14.5q-14 0 -25.5 -12t-23.5 -40z" />
    <glyph glyph-name="Imacron" unicode="&#x12a;" horiz-adv-x="243" 
d="M16 0l149 700h102l-149 -700h-102zM89 813l15 67h291l-15 -67h-291z" />
    <glyph glyph-name="imacron" unicode="&#x12b;" horiz-adv-x="215" 
d="M5 0l108 509h97l-107 -509h-98zM34 622l15 67h291l-15 -67h-291z" />
    <glyph glyph-name="Ibreve" unicode="&#x12c;" horiz-adv-x="243" 
d="M16 0l149 700h102l-149 -700h-102zM245 786q-65 0 -103.5 36.5t-39.5 97.5l63 13q2 -42 23 -64.5t59 -22.5q69 0 108 82l64 -20q-27 -59 -72 -90.5t-102 -31.5z" />
    <glyph glyph-name="ibreve" unicode="&#x12d;" horiz-adv-x="215" 
d="M5 0l108 509h97l-107 -509h-98zM190 595q-65 0 -103.5 36.5t-39.5 97.5l63 13q2 -42 23 -64.5t59 -22.5q69 0 108 82l64 -20q-27 -59 -72 -90.5t-102 -31.5z" />
    <glyph glyph-name="Iogonek" unicode="&#x12e;" horiz-adv-x="243" 
d="M18 -222q-40 0 -64 20t-24 53q0 41 29.5 78t89.5 71h-33l149 700h102l-149 -700q-62 -33 -92.5 -63.5t-30.5 -62.5q0 -18 13 -29t34 -11q23 0 43 11l6 -49q-17 -8 -36 -13t-37 -5z" />
    <glyph glyph-name="iogonek" unicode="&#x12f;" horiz-adv-x="215" 
d="M185 591q-23 0 -38.5 16t-15.5 39q0 19 9 34.5t25 24.5t34 9q23 0 38.5 -15.5t15.5 -38.5q0 -18 -9.5 -33.5t-25 -25.5t-33.5 -10zM2 -222q-40 0 -64 20t-24 53q0 41 30 78t90 71h-29l108 509h97l-107 -509q-63 -33 -93 -63.5t-30 -62.5q0 -18 12.5 -29t33.5 -11
q23 0 44 11l5 -49q-17 -8 -35.5 -13t-37.5 -5z" />
    <glyph glyph-name="Idotaccent" unicode="&#x130;" horiz-adv-x="243" 
d="M16 0l149 700h102l-149 -700h-102zM239 793q-23 0 -37 15t-14 37q0 26 19 45.5t45 19.5q22 0 36.5 -15t14.5 -37q0 -26 -19.5 -45.5t-44.5 -19.5z" />
    <glyph glyph-name="dotlessi" unicode="&#x131;" horiz-adv-x="215" 
d="M5 0l108 509h97l-107 -509h-98z" />
    <glyph glyph-name="IJ" unicode="&#x132;" horiz-adv-x="848" 
d="M16 0l149 700h102l-149 -700h-102zM497 -10q-98 0 -161.5 51t-81.5 144l95 34q26 -134 147 -134q73 0 124.5 48.5t69.5 134.5l92 432h104l-96 -446q-18 -83 -58.5 -142.5t-100 -90.5t-134.5 -31z" />
    <glyph glyph-name="ij" unicode="&#x133;" horiz-adv-x="430" 
d="M5 0l108 509h97l-107 -509h-98zM185 591q-23 0 -38.5 16t-15.5 39q0 19 9 34.5t25 24.5t34 9q23 0 38.5 -15.5t15.5 -38.5q0 -18 -9.5 -33.5t-25 -25.5t-33.5 -10zM400 591q-23 0 -38.5 16t-15.5 39q0 19 9 34.5t25 24.5t34 9q23 0 38.5 -15.5t15.5 -38.5
q0 -18 -9.5 -33.5t-25 -25.5t-33.5 -10zM141 -210q-15 0 -33.5 2.5t-30.5 7.5l17 79q9 -3 20 -4.5t25 -1.5q28 0 44 14.5t22 44.5l123 577h98l-126 -588q-13 -64 -54.5 -97.5t-104.5 -33.5z" />
    <glyph glyph-name="Jcircumflex" unicode="&#x134;" horiz-adv-x="605" 
d="M254 -10q-98 0 -161.5 51t-81.5 144l95 34q26 -134 147 -134q73 0 124.5 48.5t69.5 134.5l92 432h104l-96 -446q-18 -83 -58.5 -142.5t-100 -90.5t-134.5 -31zM451 791l133 127h104l79 -127h-78l-61 77l-94 -77h-83z" />
    <glyph glyph-name="jcircumflex" unicode="&#x135;" horiz-adv-x="215" 
d="M-74 -210q-15 0 -33.5 2.5t-30.5 7.5l17 79q9 -3 20 -4.5t25 -1.5q28 0 44 14.5t22 44.5l123 577h98l-126 -588q-13 -64 -54.5 -97.5t-104.5 -33.5zM22 600l133 127h104l79 -127h-78l-61 77l-94 -77h-83z" />
    <glyph glyph-name="Kcommaaccent" unicode="&#x136;" horiz-adv-x="636" 
d="M16 0l149 700h102l-67 -314l395 314h138l-433 -340l288 -360h-132l-266 340l-72 -340h-102zM128 -273l85 189h96l-108 -189h-73z" />
    <glyph glyph-name="kcommaaccent" unicode="&#x137;" horiz-adv-x="514" 
d="M5 0l149 700l102 22l-92 -434l281 221h126l-321 -250l222 -259h-120l-199 237l-50 -237h-98zM60 -273l85 189h96l-108 -189h-73z" />
    <glyph glyph-name="kgreenlandic" unicode="&#x138;" horiz-adv-x="514" 
d="M5 0l108 509h97l-47 -224l285 224h126l-324 -252l216 -257h-121l-193 234l-49 -234h-98z" />
    <glyph glyph-name="Lacute" unicode="&#x139;" horiz-adv-x="602" 
d="M16 0l149 700h102l-129 -607h395l-20 -93h-497zM176 794l117 122h119l-151 -122h-85z" />
    <glyph glyph-name="lacute" unicode="&#x13a;" horiz-adv-x="215" 
d="M5 0l149 700l102 22l-153 -722h-98zM162 794l117 122h119l-151 -122h-85z" />
    <glyph glyph-name="Lcommaaccent" unicode="&#x13b;" horiz-adv-x="602" 
d="M16 0l149 700h102l-129 -607h395l-20 -93h-497zM133 -273l85 189h96l-108 -189h-73z" />
    <glyph glyph-name="lcommaaccent" unicode="&#x13c;" horiz-adv-x="215" 
d="M5 0l149 700l102 22l-153 -722h-98zM-98 -273l85 189h96l-108 -189h-73z" />
    <glyph glyph-name="Lcaron" unicode="&#x13d;" horiz-adv-x="602" 
d="M16 0l149 700h102l-129 -607h395l-20 -93h-497zM425 505l51 198l92 18l-76 -216h-67z" />
    <glyph glyph-name="lcaron" unicode="&#x13e;" horiz-adv-x="336" 
d="M5 0l149 700l102 22l-153 -722h-98zM289 505l51 198l92 18l-76 -216h-67z" />
    <glyph glyph-name="Ldot" unicode="&#x13f;" horiz-adv-x="602" 
d="M16 0l149 700h102l-129 -607h395l-20 -93h-497zM437 302q-23 0 -37 15t-14 37q0 26 19 45.5t45 19.5q22 0 36.5 -15t14.5 -37q0 -26 -19.5 -45.5t-44.5 -19.5z" />
    <glyph glyph-name="ldot" unicode="&#x140;" horiz-adv-x="337" 
d="M5 0l149 700l102 22l-153 -722h-98zM291 296q-23 0 -37 15t-14 37q0 26 19 45.5t45 19.5q22 0 36.5 -15t14.5 -37q0 -26 -19.5 -45.5t-44.5 -19.5z" />
    <glyph glyph-name="Lslash" unicode="&#x141;" horiz-adv-x="621" 
d="M35 0l46 221l-89 -56l20 96l90 56l82 383h102l-67 -313l219 136l-20 -95l-219 -137l-42 -198h394l-19 -93h-497z" />
    <glyph glyph-name="lslash" unicode="&#x142;" horiz-adv-x="255" 
d="M27 0l62 291l-82 -56l20 95l82 56l67 314l102 22l-56 -262l87 58l-21 -95l-86 -58l-77 -365h-98z" />
    <glyph glyph-name="Nacute" unicode="&#x143;" horiz-adv-x="720" 
d="M16 0l149 700h97l273 -531l113 531h96l-149 -700h-88l-279 546l-115 -546h-97zM415 794l117 122h119l-151 -122h-85z" />
    <glyph glyph-name="nacute" unicode="&#x144;" horiz-adv-x="557" 
d="M5 0l108 509h97l-9 -45q66 54 147 54q61 0 102 -27.5t58 -75.5t4 -109l-65 -306h-97l62 295q13 62 -15 99.5t-86 37.5q-38 0 -70.5 -15.5t-59.5 -44.5l-78 -372h-98zM292 603l117 122h119l-151 -122h-85z" />
    <glyph glyph-name="Ncommaaccent" unicode="&#x145;" horiz-adv-x="720" 
d="M16 0l149 700h97l273 -531l113 531h96l-149 -700h-88l-279 546l-115 -546h-97zM155 -273l85 189h96l-108 -189h-73z" />
    <glyph glyph-name="ncommaaccent" unicode="&#x146;" horiz-adv-x="557" 
d="M5 0l108 509h97l-9 -45q66 54 147 54q61 0 102 -27.5t58 -75.5t4 -109l-65 -306h-97l62 295q13 62 -15 99.5t-86 37.5q-38 0 -70.5 -15.5t-59.5 -44.5l-78 -372h-98zM75 -273l85 189h96l-108 -189h-73z" />
    <glyph glyph-name="Ncaron" unicode="&#x147;" horiz-adv-x="720" 
d="M16 0l149 700h97l273 -531l113 531h96l-149 -700h-88l-279 546l-115 -546h-97zM423 792l-79 126h78l60 -76l93 76h84l-133 -126h-103z" />
    <glyph glyph-name="ncaron" unicode="&#x148;" horiz-adv-x="557" 
d="M5 0l108 509h97l-9 -45q66 54 147 54q61 0 102 -27.5t58 -75.5t4 -109l-65 -306h-97l62 295q13 62 -15 99.5t-86 37.5q-38 0 -70.5 -15.5t-59.5 -44.5l-78 -372h-98zM300 601l-79 126h78l60 -76l93 76h84l-133 -126h-103z" />
    <glyph glyph-name="Eng" unicode="&#x14a;" horiz-adv-x="720" 
d="M420 -209q-17 0 -35 3t-30 7l18 79q9 -2 19.5 -4t25.5 -2q29 0 44.5 14.5t21.5 44.5l17 79l-273 529l-115 -541h-97l149 700h98l273 -526l112 526h96l-165 -778q-14 -63 -55 -97t-104 -34z" />
    <glyph glyph-name="eng" unicode="&#x14b;" horiz-adv-x="556" 
d="M271 -210q-15 0 -33.5 2.5t-30.5 7.5l17 79q9 -3 20 -4.5t26 -1.5q27 0 43 14.5t22 44.5l77 364q13 61 -15 98.5t-86 37.5q-38 0 -70.5 -15.5t-59.5 -44.5l-78 -372h-98l108 509h97l-9 -45q66 54 147 54q61 0 102.5 -27.5t58.5 -75t4 -107.5l-83 -387q-13 -63 -54.5 -97
t-104.5 -34z" />
    <glyph glyph-name="Omacron" unicode="&#x14c;" horiz-adv-x="795" 
d="M391 -11q-71 0 -131.5 25t-105.5 70t-70 105.5t-25 130.5q0 80 30 150.5t83 124.5t122.5 85t148.5 31q70 0 131 -25t106 -70t70 -105t25 -131q0 -80 -30 -150.5t-83 -124.5t-122.5 -85t-148.5 -31zM398 86q57 0 106 22.5t86.5 62t59 92t21.5 111.5q0 68 -30.5 123t-84 86
t-120.5 31q-56 0 -105.5 -22.5t-87 -62t-59 -92t-21.5 -111.5q0 -68 30.5 -122.5t84 -86t120.5 -31.5zM320 813l15 67h291l-15 -67h-291z" />
    <glyph glyph-name="omacron" unicode="&#x14d;" horiz-adv-x="592" 
d="M278 -10q-70 0 -124.5 31.5t-86.5 87.5t-32 125q0 58 22 109.5t60.5 91t89 62t106.5 22.5q70 0 124.5 -31.5t86.5 -86.5t32 -125q0 -58 -22 -110t-60.5 -91.5t-88.5 -62t-107 -22.5zM282 78q37 0 68.5 15t56 42t39 62t14.5 74q0 46 -19.5 82.5t-54 57t-77.5 20.5
q-37 0 -68.5 -15t-56.5 -41.5t-39 -62t-14 -73.5q0 -46 19.5 -83t54 -57.5t77.5 -20.5zM192 622l15 67h291l-15 -67h-291z" />
    <glyph glyph-name="Obreve" unicode="&#x14e;" horiz-adv-x="795" 
d="M391 -11q-71 0 -131.5 25t-105.5 70t-70 105.5t-25 130.5q0 80 30 150.5t83 124.5t122.5 85t148.5 31q70 0 131 -25t106 -70t70 -105t25 -131q0 -80 -30 -150.5t-83 -124.5t-122.5 -85t-148.5 -31zM398 86q57 0 106 22.5t86.5 62t59 92t21.5 111.5q0 68 -30.5 123t-84 86
t-120.5 31q-56 0 -105.5 -22.5t-87 -62t-59 -92t-21.5 -111.5q0 -68 30.5 -122.5t84 -86t120.5 -31.5zM476 786q-65 0 -103.5 36.5t-39.5 97.5l63 13q2 -42 23 -64.5t59 -22.5q69 0 108 82l64 -20q-27 -59 -72 -90.5t-102 -31.5z" />
    <glyph glyph-name="obreve" unicode="&#x14f;" horiz-adv-x="592" 
d="M278 -10q-70 0 -124.5 31.5t-86.5 87.5t-32 125q0 58 22 109.5t60.5 91t89 62t106.5 22.5q70 0 124.5 -31.5t86.5 -86.5t32 -125q0 -58 -22 -110t-60.5 -91.5t-88.5 -62t-107 -22.5zM282 78q37 0 68.5 15t56 42t39 62t14.5 74q0 46 -19.5 82.5t-54 57t-77.5 20.5
q-37 0 -68.5 -15t-56.5 -41.5t-39 -62t-14 -73.5q0 -46 19.5 -83t54 -57.5t77.5 -20.5zM348 595q-65 0 -103.5 36.5t-39.5 97.5l63 13q2 -42 23 -64.5t59 -22.5q69 0 108 82l64 -20q-27 -59 -72 -90.5t-102 -31.5z" />
    <glyph glyph-name="Ohungarumlaut" unicode="&#x150;" horiz-adv-x="795" 
d="M391 -11q-71 0 -131.5 25t-105.5 70t-70 105.5t-25 130.5q0 80 30 150.5t83 124.5t122.5 85t148.5 31q70 0 131 -25t106 -70t70 -105t25 -131q0 -80 -30 -150.5t-83 -124.5t-122.5 -85t-148.5 -31zM398 86q57 0 106 22.5t86.5 62t59 92t21.5 111.5q0 68 -30.5 123t-84 86
t-120.5 31q-56 0 -105.5 -22.5t-87 -62t-59 -92t-21.5 -111.5q0 -68 30.5 -122.5t84 -86t120.5 -31.5zM446 916h105l-152 -119h-80zM624 916h106l-156 -119h-76z" />
    <glyph glyph-name="ohungarumlaut" unicode="&#x151;" horiz-adv-x="592" 
d="M278 -10q-70 0 -124.5 31.5t-86.5 87.5t-32 125q0 58 22 109.5t60.5 91t89 62t106.5 22.5q70 0 124.5 -31.5t86.5 -86.5t32 -125q0 -58 -22 -110t-60.5 -91.5t-88.5 -62t-107 -22.5zM282 78q37 0 68.5 15t56 42t39 62t14.5 74q0 46 -19.5 82.5t-54 57t-77.5 20.5
q-37 0 -68.5 -15t-56.5 -41.5t-39 -62t-14 -73.5q0 -46 19.5 -83t54 -57.5t77.5 -20.5zM318 725h105l-152 -119h-80zM496 725h106l-156 -119h-76z" />
    <glyph glyph-name="OE" unicode="&#x152;" horiz-adv-x="1078" 
d="M379 0q-69 0 -127 24t-101.5 66.5t-67.5 100.5t-24 126q0 77 30 146.5t83 123t122.5 83.5t146.5 30h694l-19 -92h-455q45 -36 70.5 -91t27.5 -119h187l-19 -89h-175q-13 -65 -49 -121.5t-88 -95.5h391l-19 -92h-608zM386 96q55 0 103.5 22.5t85.5 61t58 89.5t21 109
q0 66 -28.5 116.5t-78.5 79.5t-113 29q-55 0 -104 -22t-86 -61t-58.5 -89.5t-21.5 -108.5q0 -65 29.5 -116t79.5 -80.5t113 -29.5z" />
    <glyph glyph-name="oe" unicode="&#x153;" horiz-adv-x="987" 
d="M278 -10q-70 0 -124.5 31.5t-86.5 87.5t-32 125q0 58 22 109.5t60.5 91t89 62t106.5 22.5q68 0 121.5 -32t83.5 -85q36 52 91.5 83.5t120.5 31.5t115 -31.5t79 -86t29 -124.5q0 -10 -1 -22.5t-3 -29.5h-392q3 -43 24.5 -76.5t56.5 -52.5t78 -19q36 0 68.5 10.5t57.5 29.5
l54 -66q-44 -31 -89 -45t-97 -14q-48 0 -88.5 14.5t-72 40.5t-52.5 62q-38 -52 -95 -84.5t-124 -32.5zM564 297h295q-4 40 -22.5 70t-47 47.5t-65.5 17.5q-38 0 -70 -17.5t-55.5 -48t-34.5 -69.5zM282 78q37 0 68.5 15t56.5 41.5t39 61.5t14 75q0 46 -19.5 82.5t-54 57
t-77.5 20.5q-37 0 -68.5 -15t-56.5 -41.5t-39 -61.5t-14 -74q0 -46 19.5 -83t54 -57.5t77.5 -20.5z" />
    <glyph glyph-name="Racute" unicode="&#x154;" horiz-adv-x="646" 
d="M16 0l149 700h291q63 0 109 -23t71 -63.5t25 -96.5q0 -55 -24 -101.5t-66 -77.5t-98 -43l101 -295h-108l-94 287h-193l-61 -287h-102zM198 375h209q44 0 78 17t53 47.5t19 68.5q0 46 -32 73t-86 27h-191zM370 794l117 122h119l-151 -122h-85z" />
    <glyph glyph-name="racute" unicode="&#x155;" horiz-adv-x="363" 
d="M4 0l108 509h97l-12 -58q28 33 64.5 51t77.5 18q35 0 57 -11l-18 -90q-10 6 -28.5 10t-35.5 4q-83 0 -139 -85l-74 -348h-97zM211 603l117 122h119l-151 -122h-85z" />
    <glyph glyph-name="Rcommaaccent" unicode="&#x156;" horiz-adv-x="646" 
d="M16 0l149 700h291q63 0 109 -23t71 -63.5t25 -96.5q0 -55 -24 -101.5t-66 -77.5t-98 -43l101 -295h-108l-94 287h-193l-61 -287h-102zM198 375h209q44 0 78 17t53 47.5t19 68.5q0 46 -32 73t-86 27h-191zM120 -273l85 189h96l-108 -189h-73z" />
    <glyph glyph-name="rcommaaccent" unicode="&#x157;" horiz-adv-x="363" 
d="M4 0l108 509h97l-12 -58q28 33 64.5 51t77.5 18q35 0 57 -11l-18 -90q-10 6 -28.5 10t-35.5 4q-83 0 -139 -85l-74 -348h-97zM-99 -273l85 189h96l-108 -189h-73z" />
    <glyph glyph-name="Rcaron" unicode="&#x158;" horiz-adv-x="646" 
d="M16 0l149 700h291q63 0 109 -23t71 -63.5t25 -96.5q0 -55 -24 -101.5t-66 -77.5t-98 -43l101 -295h-108l-94 287h-193l-61 -287h-102zM198 375h209q44 0 78 17t53 47.5t19 68.5q0 46 -32 73t-86 27h-191zM378 792l-79 126h78l60 -76l93 76h84l-133 -126h-103z" />
    <glyph glyph-name="rcaron" unicode="&#x159;" horiz-adv-x="363" 
d="M4 0l108 509h97l-12 -58q28 33 64.5 51t77.5 18q35 0 57 -11l-18 -90q-10 6 -28.5 10t-35.5 4q-83 0 -139 -85l-74 -348h-97zM219 601l-79 126h78l60 -76l93 76h84l-133 -126h-103z" />
    <glyph glyph-name="Sacute" unicode="&#x15a;" horiz-adv-x="602" 
d="M298 -10q-92 0 -170 38t-133 109l71 68q50 -62 110 -94.5t129 -32.5q49 0 86 15t58 42.5t21 63.5q0 38 -29 62.5t-95 40.5l-110 29q-82 22 -122.5 65t-40.5 108q0 63 31 109t88.5 71t135.5 25t153 -30t133 -85l-66 -75q-52 50 -109.5 76t-119.5 26q-67 0 -107 -28.5
t-40 -76.5q0 -37 26.5 -60t83.5 -38l107 -26q94 -23 138.5 -66.5t44.5 -112.5q0 -67 -34 -117.5t-95.5 -78t-144.5 -27.5zM304 794l117 122h119l-151 -122h-85z" />
    <glyph glyph-name="sacute" unicode="&#x15b;" horiz-adv-x="457" 
d="M211 -10q-66 0 -127 24.5t-99 66.5l59 62q38 -37 80.5 -56t87.5 -19q50 0 82 21.5t32 55.5q0 24 -17 38.5t-54 22.5l-87 20q-65 14 -96.5 47.5t-31.5 85.5q0 48 24 83.5t67.5 55t101.5 19.5q59 0 112.5 -20t98.5 -59l-57 -63q-38 32 -79 49t-81 17q-45 0 -72 -20t-27 -53
q0 -24 17 -38t56 -23l87 -20q66 -14 99 -47t33 -84q0 -47 -27.5 -85t-75 -59.5t-106.5 -21.5zM203 603l117 122h119l-151 -122h-85z" />
    <glyph glyph-name="Scircumflex" unicode="&#x15c;" horiz-adv-x="602" 
d="M298 -10q-92 0 -170 38t-133 109l71 68q50 -62 110 -94.5t129 -32.5q49 0 86 15t58 42.5t21 63.5q0 38 -29 62.5t-95 40.5l-110 29q-82 22 -122.5 65t-40.5 108q0 63 31 109t88.5 71t135.5 25t153 -30t133 -85l-66 -75q-52 50 -109.5 76t-119.5 26q-67 0 -107 -28.5
t-40 -76.5q0 -37 26.5 -60t83.5 -38l107 -26q94 -23 138.5 -66.5t44.5 -112.5q0 -67 -34 -117.5t-95.5 -78t-144.5 -27.5zM204 791l133 127h104l79 -127h-78l-61 77l-94 -77h-83z" />
    <glyph glyph-name="scircumflex" unicode="&#x15d;" horiz-adv-x="457" 
d="M211 -10q-66 0 -127 24.5t-99 66.5l59 62q38 -37 80.5 -56t87.5 -19q50 0 82 21.5t32 55.5q0 24 -17 38.5t-54 22.5l-87 20q-65 14 -96.5 47.5t-31.5 85.5q0 48 24 83.5t67.5 55t101.5 19.5q59 0 112.5 -20t98.5 -59l-57 -63q-38 32 -79 49t-81 17q-45 0 -72 -20t-27 -53
q0 -24 17 -38t56 -23l87 -20q66 -14 99 -47t33 -84q0 -47 -27.5 -85t-75 -59.5t-106.5 -21.5zM103 600l133 127h104l79 -127h-78l-61 77l-94 -77h-83z" />
    <glyph glyph-name="Scedilla" unicode="&#x15e;" horiz-adv-x="602" 
d="M239 -231q-36 0 -65.5 12.5t-49.5 36.5l40 36q31 -34 77 -34q29 0 46.5 13t17.5 34q0 19 -14.5 29.5t-41.5 10.5h-33l43 85q-80 7 -147.5 44t-116.5 101l71 68q50 -62 110 -94.5t129 -32.5q49 0 86 15t58 42.5t21 63.5q0 38 -29 62.5t-95 40.5l-110 29q-82 22 -122.5 65
t-40.5 108q0 63 31 109t88.5 71t135.5 25t153 -30t133 -85l-66 -75q-52 50 -109.5 76t-119.5 26q-67 0 -107 -28.5t-40 -76.5q0 -37 26.5 -60t83.5 -38l107 -26q94 -23 138.5 -66.5t44.5 -112.5q0 -65 -32 -114.5t-91 -78t-139 -30.5l-21 -42q36 -5 56.5 -25t20.5 -51
q0 -29 -16.5 -52.5t-45.5 -37t-65 -13.5z" />
    <glyph glyph-name="scedilla" unicode="&#x15f;" horiz-adv-x="457" 
d="M154 -231q-36 0 -66 12.5t-50 36.5l40 36q31 -34 77 -34q29 0 47 13t18 34q0 19 -15 29.5t-41 10.5h-34l43 85q-56 6 -106 29.5t-82 59.5l59 62q38 -37 80.5 -56t87.5 -19q50 0 82 21.5t32 55.5q0 24 -17 38.5t-54 22.5l-87 20q-65 14 -96.5 47.5t-31.5 85.5
q0 48 24 83.5t67.5 55t101.5 19.5q59 0 112.5 -20t98.5 -59l-57 -63q-38 32 -79 49t-81 17q-45 0 -72 -20t-27 -53q0 -24 17 -38t56 -23l87 -20q66 -14 99 -47t33 -84q0 -45 -25.5 -82t-70 -59.5t-100.5 -24.5l-21 -42q37 -5 57 -25t20 -51q0 -29 -16.5 -52.5t-45.5 -37
t-64 -13.5z" />
    <glyph glyph-name="Scaron" unicode="&#x160;" horiz-adv-x="602" 
d="M298 -10q-92 0 -170 38t-133 109l71 68q50 -62 110 -94.5t129 -32.5q49 0 86 15t58 42.5t21 63.5q0 38 -29 62.5t-95 40.5l-110 29q-82 22 -122.5 65t-40.5 108q0 63 31 109t88.5 71t135.5 25t153 -30t133 -85l-66 -75q-52 50 -109.5 76t-119.5 26q-67 0 -107 -28.5
t-40 -76.5q0 -37 26.5 -60t83.5 -38l107 -26q94 -23 138.5 -66.5t44.5 -112.5q0 -67 -34 -117.5t-95.5 -78t-144.5 -27.5zM312 792l-79 126h78l60 -76l93 76h84l-133 -126h-103z" />
    <glyph glyph-name="scaron" unicode="&#x161;" horiz-adv-x="457" 
d="M211 -10q-66 0 -127 24.5t-99 66.5l59 62q38 -37 80.5 -56t87.5 -19q50 0 82 21.5t32 55.5q0 24 -17 38.5t-54 22.5l-87 20q-65 14 -96.5 47.5t-31.5 85.5q0 48 24 83.5t67.5 55t101.5 19.5q59 0 112.5 -20t98.5 -59l-57 -63q-38 32 -79 49t-81 17q-45 0 -72 -20t-27 -53
q0 -24 17 -38t56 -23l87 -20q66 -14 99 -47t33 -84q0 -47 -27.5 -85t-75 -59.5t-106.5 -21.5zM211 601l-79 126h78l60 -76l93 76h84l-133 -126h-103z" />
    <glyph glyph-name="Tcedilla" unicode="&#x162;" horiz-adv-x="619" 
d="M206 -231q-37 0 -66.5 12.5t-49.5 36.5l40 36q31 -34 77 -34q29 0 47 13t18 34q0 19 -15 29.5t-41 10.5h-34l47 93h-25l129 607h-242l21 93h584l-20 -93h-241l-129 -607h-25l-26 -52q36 -5 56.5 -25t20.5 -51q0 -29 -16.5 -52.5t-45.5 -37t-64 -13.5z" />
    <glyph glyph-name="tcedilla" unicode="&#x163;" horiz-adv-x="381" 
d="M159 -231q-36 0 -65.5 12.5t-50.5 36.5l40 36q32 -34 78 -34q28 0 46 13t18 34q0 19 -15 29.5t-41 10.5h-33l44 89q-52 12 -73.5 46.5t-9.5 91.5l62 291h-106l18 84h105l28 130l103 24l-33 -154h146l-18 -84h-146l-58 -272q-9 -41 7.5 -59t62.5 -18q15 0 28.5 2.5
t31.5 7.5l-17 -85q-16 -4 -37.5 -6.5t-42.5 -2.5l-23 -44q37 -5 57.5 -25t20.5 -51q0 -29 -17 -52.5t-45.5 -37t-64.5 -13.5z" />
    <glyph glyph-name="Tcaron" unicode="&#x164;" horiz-adv-x="619" 
d="M204 0l129 607h-242l21 93h584l-20 -93h-241l-129 -607h-102zM372 792l-79 126h78l60 -76l93 76h84l-133 -126h-103z" />
    <glyph glyph-name="tcaron" unicode="&#x165;" horiz-adv-x="385" 
d="M229 -8q-77 0 -111.5 37t-20.5 105l62 291h-106l18 84h105l28 130l103 24l-33 -154h146l-18 -84h-146l-58 -272q-9 -41 7.5 -59t62.5 -18q15 0 28.5 2.5t31.5 7.5l-17 -85q-17 -4 -39.5 -6.5t-42.5 -2.5zM361 585l47 190l93 18l-73 -208h-67z" />
    <glyph glyph-name="Tbar" unicode="&#x166;" horiz-adv-x="619" 
d="M204 0l62 295h-143l19 86h143l48 226h-242l21 93h584l-20 -93h-241l-48 -226h144l-18 -86h-144l-63 -295h-102z" />
    <glyph glyph-name="tbar" unicode="&#x167;" horiz-adv-x="389" 
d="M229 -8q-77 0 -111.5 37t-20.5 105l24 115h-105l16 75h106l21 101h-106l18 84h105l28 130l103 24l-33 -154h146l-18 -84h-146l-22 -101h146l-15 -75h-146l-21 -96q-9 -41 7.5 -59t62.5 -18q15 0 28.5 2.5t31.5 7.5l-17 -85q-17 -4 -39.5 -6.5t-42.5 -2.5z" />
    <glyph glyph-name="Utilde" unicode="&#x168;" horiz-adv-x="698" 
d="M323 -10q-96 0 -159.5 41t-89 114t-4.5 168l82 387h103l-84 -395q-14 -65 1.5 -114t55.5 -77t100 -28q81 0 139 55.5t78 150.5l87 408h103l-89 -415q-20 -94 -64.5 -160t-110.5 -100.5t-148 -34.5zM347 791l-61 20q44 100 110 100q29 0 54 -14.5t47.5 -29t41.5 -14.5
q16 0 26.5 11.5t24.5 41.5l61 -20q-22 -51 -49 -76t-62 -25q-29 0 -54 14.5t-46.5 29t-43.5 14.5q-14 0 -25.5 -12t-23.5 -40z" />
    <glyph glyph-name="utilde" unicode="&#x169;" horiz-adv-x="556" 
d="M208 -9q-61 0 -102.5 28t-58 76t-4.5 109l65 305h98l-63 -295q-13 -62 15.5 -99.5t86.5 -37.5q38 0 71 16t59 46l78 370h98l-108 -509h-98l10 45q-66 -54 -147 -54zM229 600l-61 20q44 100 110 100q29 0 54 -14.5t47.5 -29t41.5 -14.5q16 0 26.5 11.5t24.5 41.5l61 -20
q-22 -51 -49 -76t-62 -25q-29 0 -54 14.5t-46.5 29t-43.5 14.5q-14 0 -25.5 -12t-23.5 -40z" />
    <glyph glyph-name="Umacron" unicode="&#x16a;" horiz-adv-x="698" 
d="M323 -10q-96 0 -159.5 41t-89 114t-4.5 168l82 387h103l-84 -395q-14 -65 1.5 -114t55.5 -77t100 -28q81 0 139 55.5t78 150.5l87 408h103l-89 -415q-20 -94 -64.5 -160t-110.5 -100.5t-148 -34.5zM312 813l15 67h291l-15 -67h-291z" />
    <glyph glyph-name="umacron" unicode="&#x16b;" horiz-adv-x="556" 
d="M208 -9q-61 0 -102.5 28t-58 76t-4.5 109l65 305h98l-63 -295q-13 -62 15.5 -99.5t86.5 -37.5q38 0 71 16t59 46l78 370h98l-108 -509h-98l10 45q-66 -54 -147 -54zM194 622l15 67h291l-15 -67h-291z" />
    <glyph glyph-name="Ubreve" unicode="&#x16c;" horiz-adv-x="698" 
d="M323 -10q-96 0 -159.5 41t-89 114t-4.5 168l82 387h103l-84 -395q-14 -65 1.5 -114t55.5 -77t100 -28q81 0 139 55.5t78 150.5l87 408h103l-89 -415q-20 -94 -64.5 -160t-110.5 -100.5t-148 -34.5zM468 786q-65 0 -103.5 36.5t-39.5 97.5l63 13q2 -42 23 -64.5t59 -22.5
q69 0 108 82l64 -20q-27 -59 -72 -90.5t-102 -31.5z" />
    <glyph glyph-name="ubreve" unicode="&#x16d;" horiz-adv-x="556" 
d="M208 -9q-61 0 -102.5 28t-58 76t-4.5 109l65 305h98l-63 -295q-13 -62 15.5 -99.5t86.5 -37.5q38 0 71 16t59 46l78 370h98l-108 -509h-98l10 45q-66 -54 -147 -54zM350 595q-65 0 -103.5 36.5t-39.5 97.5l63 13q2 -42 23 -64.5t59 -22.5q69 0 108 82l64 -20
q-27 -59 -72 -90.5t-102 -31.5z" />
    <glyph glyph-name="Uring" unicode="&#x16e;" horiz-adv-x="698" 
d="M323 -10q-96 0 -159.5 41t-89 114t-4.5 168l82 387h103l-84 -395q-14 -65 1.5 -114t55.5 -77t100 -28q81 0 139 55.5t78 150.5l87 408h103l-89 -415q-20 -94 -64.5 -160t-110.5 -100.5t-148 -34.5zM468 774q-46 0 -75.5 29t-29.5 73q0 34 17.5 63t45.5 47t61 18
q46 0 75.5 -29t29.5 -73q0 -34 -17 -62.5t-45.5 -47t-61.5 -18.5zM469 822q30 0 51.5 22.5t21.5 52.5q0 26 -16 42.5t-41 16.5q-29 0 -51 -22.5t-22 -53.5q0 -25 16.5 -41.5t40.5 -16.5z" />
    <glyph glyph-name="uring" unicode="&#x16f;" horiz-adv-x="556" 
d="M208 -9q-61 0 -102.5 28t-58 76t-4.5 109l65 305h98l-63 -295q-13 -62 15.5 -99.5t86.5 -37.5q38 0 71 16t59 46l78 370h98l-108 -509h-98l10 45q-66 -54 -147 -54zM350 583q-46 0 -75.5 29t-29.5 73q0 34 17.5 63t45.5 47t61 18q46 0 75.5 -29t29.5 -73q0 -34 -17 -62.5
t-45.5 -47t-61.5 -18.5zM351 631q30 0 51.5 22.5t21.5 52.5q0 26 -16 42.5t-41 16.5q-29 0 -51 -22.5t-22 -53.5q0 -25 16.5 -41.5t40.5 -16.5z" />
    <glyph glyph-name="Uhungarumlaut" unicode="&#x170;" horiz-adv-x="698" 
d="M323 -10q-96 0 -159.5 41t-89 114t-4.5 168l82 387h103l-84 -395q-14 -65 1.5 -114t55.5 -77t100 -28q81 0 139 55.5t78 150.5l87 408h103l-89 -415q-20 -94 -64.5 -160t-110.5 -100.5t-148 -34.5zM438 916h105l-152 -119h-80zM616 916h106l-156 -119h-76z" />
    <glyph glyph-name="uhungarumlaut" unicode="&#x171;" horiz-adv-x="556" 
d="M208 -9q-61 0 -102.5 28t-58 76t-4.5 109l65 305h98l-63 -295q-13 -62 15.5 -99.5t86.5 -37.5q38 0 71 16t59 46l78 370h98l-108 -509h-98l10 45q-66 -54 -147 -54zM320 725h105l-152 -119h-80zM498 725h106l-156 -119h-76z" />
    <glyph glyph-name="Uogonek" unicode="&#x172;" horiz-adv-x="698" 
d="M306 -222q-40 0 -64 20t-24 53q0 38 25.5 72t77.5 67q-95 1 -158.5 42t-88 114t-4.5 167l82 387h103l-84 -395q-14 -65 1.5 -114t55.5 -77t100 -28q81 0 139 55.5t78 150.5l87 408h103l-89 -415q-25 -116 -86.5 -189.5t-153.5 -96.5q-59 -30 -90.5 -60.5t-31.5 -64.5
q0 -18 13 -29t33 -11q24 0 44 11l5 -49q-17 -8 -35.5 -13t-37.5 -5z" />
    <glyph glyph-name="uogonek" unicode="&#x173;" horiz-adv-x="556" 
d="M342 -222q-40 0 -64 20t-24 53q0 41 30 78t90 71h-29l10 45q-66 -54 -147 -54q-61 0 -102.5 28t-58 76t-4.5 109l65 305h98l-63 -295q-13 -62 15.5 -99.5t86.5 -37.5q38 0 71 16t59 46l78 370h98l-108 -509q-63 -33 -93.5 -63.5t-30.5 -62.5q0 -18 13 -29t34 -11
q23 0 44 11l5 -49q-17 -8 -35.5 -13t-37.5 -5z" />
    <glyph glyph-name="Wcircumflex" unicode="&#x174;" horiz-adv-x="890" 
d="M126 0l-1 700h102l-6 -533l268 533h98l42 -533l220 533h105l-298 -700h-107l-41 550l-276 -550h-106zM397 791l133 127h104l79 -127h-78l-61 77l-94 -77h-83z" />
    <glyph glyph-name="wcircumflex" unicode="&#x175;" horiz-adv-x="717" 
d="M98 0l-32 509h92l18 -374l193 374h84l35 -374l176 374h94l-246 -509h-95l-33 373l-192 -373h-94zM271 600l133 127h104l79 -127h-78l-61 77l-94 -77h-83z" />
    <glyph glyph-name="Ycircumflex" unicode="&#x176;" horiz-adv-x="654" 
d="M220 0l59 279l-185 421h109l143 -329l280 329h123l-367 -424l-58 -276h-104zM275 791l133 127h104l79 -127h-78l-61 77l-94 -77h-83z" />
    <glyph glyph-name="ycircumflex" unicode="&#x177;" horiz-adv-x="528" 
d="M5 -214q-17 0 -33 2.5t-32 6.5l19 87q8 -3 20 -4.5t25 -1.5q33 0 60.5 17t50.5 53l35 55l-93 508h104l66 -394l244 394h108l-369 -587q-46 -73 -93.5 -104.5t-111.5 -31.5zM168 600l133 127h104l79 -127h-78l-61 77l-94 -77h-83z" />
    <glyph glyph-name="Ydieresis" unicode="&#x178;" horiz-adv-x="654" 
d="M220 0l59 279l-185 421h109l143 -329l280 329h123l-367 -424l-58 -276h-104zM344 793q-23 0 -37 15t-14 37q0 26 19 45.5t45 19.5q22 0 36.5 -15t14.5 -37q0 -26 -19.5 -45.5t-44.5 -19.5zM532 793q-21 0 -36 15t-15 37q0 26 19.5 45.5t45.5 19.5q22 0 36 -15t14 -37
q0 -26 -19 -45.5t-45 -19.5z" />
    <glyph glyph-name="Zacute" unicode="&#x179;" horiz-adv-x="597" 
d="M-32 0l16 73l518 535h-401l19 92h544l-17 -73l-519 -535h413l-20 -92h-553zM332 794l117 122h119l-151 -122h-85z" />
    <glyph glyph-name="zacute" unicode="&#x17a;" horiz-adv-x="468" 
d="M-25 0l15 74l346 349h-269l18 86h400l-15 -73l-347 -350h277l-19 -86h-406zM235 603l117 122h119l-151 -122h-85z" />
    <glyph glyph-name="Zdotaccent" unicode="&#x17b;" horiz-adv-x="597" 
d="M-32 0l16 73l518 535h-401l19 92h544l-17 -73l-519 -535h413l-20 -92h-553zM394 793q-23 0 -37 15t-14 37q0 26 19 45.5t45 19.5q22 0 36.5 -15t14.5 -37q0 -26 -19.5 -45.5t-44.5 -19.5z" />
    <glyph glyph-name="zdotaccent" unicode="&#x17c;" horiz-adv-x="468" 
d="M-25 0l15 74l346 349h-269l18 86h400l-15 -73l-347 -350h277l-19 -86h-406zM297 602q-23 0 -37 15t-14 37q0 26 19 45.5t45 19.5q22 0 36.5 -15t14.5 -37q0 -26 -19.5 -45.5t-44.5 -19.5z" />
    <glyph glyph-name="Zcaron" unicode="&#x17d;" horiz-adv-x="597" 
d="M-32 0l16 73l518 535h-401l19 92h544l-17 -73l-519 -535h413l-20 -92h-553zM340 792l-79 126h78l60 -76l93 76h84l-133 -126h-103z" />
    <glyph glyph-name="zcaron" unicode="&#x17e;" horiz-adv-x="468" 
d="M-25 0l15 74l346 349h-269l18 86h400l-15 -73l-347 -350h277l-19 -86h-406zM243 601l-79 126h78l60 -76l93 76h84l-133 -126h-103z" />
    <glyph glyph-name="Scommaaccent" unicode="&#x218;" horiz-adv-x="602" 
d="M298 -10q-92 0 -170 38t-133 109l71 68q50 -62 110 -94.5t129 -32.5q49 0 86 15t58 42.5t21 63.5q0 38 -29 62.5t-95 40.5l-110 29q-82 22 -122.5 65t-40.5 108q0 63 31 109t88.5 71t135.5 25t153 -30t133 -85l-66 -75q-52 50 -109.5 76t-119.5 26q-67 0 -107 -28.5
t-40 -76.5q0 -37 26.5 -60t83.5 -38l107 -26q94 -23 138.5 -66.5t44.5 -112.5q0 -67 -34 -117.5t-95.5 -78t-144.5 -27.5zM138 -273l85 189h96l-108 -189h-73z" />
    <glyph glyph-name="scommaaccent" unicode="&#x219;" horiz-adv-x="457" 
d="M211 -10q-66 0 -127 24.5t-99 66.5l59 62q38 -37 80.5 -56t87.5 -19q50 0 82 21.5t32 55.5q0 24 -17 38.5t-54 22.5l-87 20q-65 14 -96.5 47.5t-31.5 85.5q0 48 24 83.5t67.5 55t101.5 19.5q59 0 112.5 -20t98.5 -59l-57 -63q-38 32 -79 49t-81 17q-45 0 -72 -20t-27 -53
q0 -24 17 -38t56 -23l87 -20q66 -14 99 -47t33 -84q0 -47 -27.5 -85t-75 -59.5t-106.5 -21.5zM52 -273l85 189h96l-108 -189h-73z" />
    <glyph glyph-name="uni021A" unicode="&#x21a;" horiz-adv-x="619" 
d="M204 0l129 607h-242l21 93h584l-20 -93h-241l-129 -607h-102zM104 -273l85 189h96l-108 -189h-73z" />
    <glyph glyph-name="uni021B" unicode="&#x21b;" horiz-adv-x="381" 
d="M229 -8q-77 0 -111.5 37t-20.5 105l62 291h-106l18 84h105l28 130l103 24l-33 -154h146l-18 -84h-146l-58 -272q-9 -41 7.5 -59t62.5 -18q15 0 28.5 2.5t31.5 7.5l-17 -85q-17 -4 -39.5 -6.5t-42.5 -2.5zM58 -273l85 189h96l-108 -189h-73z" />
    <glyph glyph-name="dotlessj" unicode="&#x237;" horiz-adv-x="215" 
d="M-74 -210q-15 0 -33.5 2.5t-30.5 7.5l17 79q9 -3 20 -4.5t25 -1.5q28 0 44 14.5t22 44.5l123 577h98l-126 -588q-13 -64 -54.5 -97.5t-104.5 -33.5z" />
    <glyph glyph-name="uni02BB" unicode="&#x2bb;" horiz-adv-x="250" 
d="M308 728l-110 -232h-104l138 232h76z" />
    <glyph glyph-name="uni02BC" unicode="&#x2bc;" horiz-adv-x="250" 
d="M105 496l111 233h104l-139 -233h-76z" />
    <glyph glyph-name="circumflex" unicode="&#x2c6;" 
d="M217 600l133 127h104l79 -127h-78l-61 77l-94 -77h-83z" />
    <glyph glyph-name="caron" unicode="&#x2c7;" 
d="M325 601l-79 126h78l60 -76l93 76h84l-133 -126h-103z" />
    <glyph glyph-name="breve" unicode="&#x2d8;" 
d="M385 595q-65 0 -103.5 36.5t-39.5 97.5l63 13q2 -42 23 -64.5t59 -22.5q69 0 108 82l64 -20q-27 -59 -72 -90.5t-102 -31.5z" />
    <glyph glyph-name="dotaccent" unicode="&#x2d9;" 
d="M379 602q-23 0 -37 15t-14 37q0 26 19 45.5t45 19.5q22 0 36.5 -15t14.5 -37q0 -26 -19.5 -45.5t-44.5 -19.5z" />
    <glyph glyph-name="ring" unicode="&#x2da;" 
d="M384 583q-46 0 -75.5 29t-29.5 73q0 34 17.5 63t45.5 47t61 18q46 0 75.5 -29t29.5 -73q0 -34 -17 -62.5t-45.5 -47t-61.5 -18.5zM385 631q30 0 51.5 22.5t21.5 52.5q0 26 -16 42.5t-41 16.5q-29 0 -51 -22.5t-22 -53.5q0 -25 16.5 -41.5t40.5 -16.5z" />
    <glyph glyph-name="ogonek" unicode="&#x2db;" 
d="M198 -222q-40 0 -64 20t-24 53q0 46 39 88t116 80l33 -19q-62 -33 -92.5 -63.5t-30.5 -62.5q0 -18 13 -29t34 -11q23 0 43 11l6 -49q-17 -8 -36 -13t-37 -5z" />
    <glyph glyph-name="tilde" unicode="&#x2dc;" 
d="M264 600l-61 20q44 100 110 100q29 0 54 -14.5t47.5 -29t41.5 -14.5q16 0 26.5 11.5t24.5 41.5l61 -20q-22 -51 -49 -76t-62 -25q-29 0 -54 14.5t-46.5 29t-43.5 14.5q-14 0 -25.5 -12t-23.5 -40z" />
    <glyph glyph-name="hungarumlaut" unicode="&#x2dd;" 
d="M354 725h105l-152 -119h-80zM532 725h106l-156 -119h-76z" />
    <glyph glyph-name="uni0327" unicode="&#x327;" horiz-adv-x="0" 
d="M200 -231q-36 0 -65.5 12.5t-49.5 36.5l40 36q31 -34 77 -34q29 0 46.5 13t17.5 34q0 19 -14.5 29.5t-41.5 10.5h-33l46 93h53l-26 -52q36 -5 56.5 -25t20.5 -51q0 -29 -16.5 -52.5t-45.5 -37t-65 -13.5z" />
    <glyph glyph-name="uni0328" unicode="&#x328;" horiz-adv-x="0" 
d="M198 -222q-40 0 -64 20t-24 53q0 46 39 88t116 80l33 -19q-62 -33 -92.5 -63.5t-30.5 -62.5q0 -18 13 -29t34 -11q23 0 43 11l6 -49q-17 -8 -36 -13t-37 -5z" />
    <glyph glyph-name="Wgrave" unicode="&#x1e80;" horiz-adv-x="890" 
d="M126 0l-1 700h102l-6 -533l268 533h98l42 -533l220 533h105l-298 -700h-107l-41 550l-276 -550h-106zM524 794l-125 122h118l89 -122h-82z" />
    <glyph glyph-name="wgrave" unicode="&#x1e81;" horiz-adv-x="717" 
d="M98 0l-32 509h92l18 -374l193 374h84l35 -374l176 374h94l-246 -509h-95l-33 373l-192 -373h-94zM398 603l-125 122h118l89 -122h-82z" />
    <glyph glyph-name="Wacute" unicode="&#x1e82;" horiz-adv-x="890" 
d="M126 0l-1 700h102l-6 -533l268 533h98l42 -533l220 533h105l-298 -700h-107l-41 550l-276 -550h-106zM497 794l117 122h119l-151 -122h-85z" />
    <glyph glyph-name="wacute" unicode="&#x1e83;" horiz-adv-x="717" 
d="M98 0l-32 509h92l18 -374l193 374h84l35 -374l176 374h94l-246 -509h-95l-33 373l-192 -373h-94zM371 603l117 122h119l-151 -122h-85z" />
    <glyph glyph-name="Wdieresis" unicode="&#x1e84;" horiz-adv-x="890" 
d="M126 0l-1 700h102l-6 -533l268 533h98l42 -533l220 533h105l-298 -700h-107l-41 550l-276 -550h-106zM466 793q-23 0 -37 15t-14 37q0 26 19 45.5t45 19.5q22 0 36.5 -15t14.5 -37q0 -26 -19.5 -45.5t-44.5 -19.5zM654 793q-21 0 -36 15t-15 37q0 26 19.5 45.5t45.5 19.5
q22 0 36 -15t14 -37q0 -26 -19 -45.5t-45 -19.5z" />
    <glyph glyph-name="wdieresis" unicode="&#x1e85;" horiz-adv-x="717" 
d="M98 0l-32 509h92l18 -374l193 374h84l35 -374l176 374h94l-246 -509h-95l-33 373l-192 -373h-94zM340 602q-23 0 -37 15t-14 37q0 26 19 45.5t45 19.5q22 0 36.5 -15t14.5 -37q0 -26 -19.5 -45.5t-44.5 -19.5zM528 602q-21 0 -36 15t-15 37q0 26 19.5 45.5t45.5 19.5
q22 0 36 -15t14 -37q0 -26 -19 -45.5t-45 -19.5z" />
    <glyph glyph-name="Ygrave" unicode="&#x1ef2;" horiz-adv-x="654" 
d="M220 0l59 279l-185 421h109l143 -329l280 329h123l-367 -424l-58 -276h-104zM402 794l-125 122h118l89 -122h-82z" />
    <glyph glyph-name="ygrave" unicode="&#x1ef3;" horiz-adv-x="528" 
d="M5 -214q-17 0 -33 2.5t-32 6.5l19 87q8 -3 20 -4.5t25 -1.5q33 0 60.5 17t50.5 53l35 55l-93 508h104l66 -394l244 394h108l-369 -587q-46 -73 -93.5 -104.5t-111.5 -31.5zM296 603l-125 122h118l89 -122h-82z" />
    <glyph glyph-name="enspace" unicode="&#x2002;" horiz-adv-x="500" 
 />
    <glyph glyph-name="emspace" unicode="&#x2003;" horiz-adv-x="1000" 
 />
    <glyph glyph-name="thinspace" unicode="&#x2009;" horiz-adv-x="175" 
 />
    <glyph glyph-name="hairspace" unicode="&#x200a;" horiz-adv-x="100" 
 />
    <glyph glyph-name="zerowidthspace" unicode="&#x200b;" horiz-adv-x="0" 
 />
    <glyph glyph-name="endash" unicode="&#x2013;" horiz-adv-x="541" 
d="M60 326h451l-18 -87h-452z" />
    <glyph glyph-name="emdash" unicode="&#x2014;" horiz-adv-x="688" 
d="M60 326h598l-18 -87h-599z" />
    <glyph glyph-name="uni2015" unicode="&#x2015;" horiz-adv-x="933" 
d="M60 326h843l-18 -87h-844z" />
    <glyph glyph-name="quoteleft" unicode="&#x2018;" horiz-adv-x="250" 
d="M308 728l-110 -232h-104l138 232h76z" />
    <glyph glyph-name="quoteright" unicode="&#x2019;" horiz-adv-x="250" 
d="M105 496l111 233h104l-139 -233h-76z" />
    <glyph glyph-name="quotesinglbase" unicode="&#x201a;" horiz-adv-x="250" 
d="M-56 -143l111 233h104l-139 -233h-76z" />
    <glyph glyph-name="quotedblleft" unicode="&#x201c;" horiz-adv-x="408" 
d="M308 728l-110 -232h-105l139 232h76zM467 728l-110 -232h-105l139 232h76z" />
    <glyph glyph-name="quotedblright" unicode="&#x201d;" horiz-adv-x="409" 
d="M264 496l111 233h104l-139 -233h-76zM105 496l111 233h104l-139 -233h-76z" />
    <glyph glyph-name="quotedblbase" unicode="&#x201e;" horiz-adv-x="409" 
d="M103 -143l111 233h104l-139 -233h-76zM-56 -143l111 233h104l-139 -233h-76z" />
    <glyph glyph-name="dagger" unicode="&#x2020;" horiz-adv-x="426" 
d="M118 0l92 430h-122l17 79h122l40 191h83l-41 -191h122l-17 -79h-122l-91 -430h-83z" />
    <glyph glyph-name="daggerdbl" unicode="&#x2021;" horiz-adv-x="426" 
d="M118 0l41 191h-121l16 79h122l34 160h-122l17 79h122l40 191h83l-41 -191h122l-17 -79h-122l-34 -160h122l-17 -79h-122l-40 -191h-83z" />
    <glyph glyph-name="bullet" unicode="&#x2022;" horiz-adv-x="333" 
d="M174 238q-40 0 -67.5 27t-27.5 66q0 33 16.5 60.5t43.5 43.5t59 16q40 0 66.5 -26.5t26.5 -66.5q0 -32 -16.5 -59.5t-43 -44t-57.5 -16.5z" />
    <glyph glyph-name="ellipsis" unicode="&#x2026;" horiz-adv-x="671" 
d="M76 -7q-24 0 -40 16t-16 39q0 19 10 35t26 26t35 10q24 0 39.5 -16t15.5 -40q0 -18 -10 -34.5t-25.5 -26t-34.5 -9.5zM286 -7q-24 0 -40 16t-16 39q0 19 10 35t26 26t35 10q24 0 39.5 -16t15.5 -40q0 -18 -10 -34.5t-25.5 -26t-34.5 -9.5zM497 -7q-24 0 -40 16t-16 39
q0 19 10 35t26 26t35 10q24 0 39.5 -16t15.5 -40q0 -18 -10 -34.5t-25.5 -26t-34.5 -9.5z" />
    <glyph glyph-name="perthousand" unicode="&#x2030;" horiz-adv-x="1124" 
d="M208 345q-59 0 -94.5 38t-35.5 101q0 61 24.5 111t64.5 80t90 30q60 0 95 -38t35 -101q0 -61 -24 -111t-64.5 -80t-90.5 -30zM215 402q30 0 55 22t40 59t15 80q0 40 -20.5 63t-55.5 23q-28 0 -53 -22t-40 -59t-15 -80q0 -40 20 -63t54 -23zM102 0l535 700h76l-537 -700
h-74zM561 -5q-60 0 -95.5 38t-35.5 101q0 61 24.5 111t65 80t88.5 30q61 0 96 -37.5t35 -101.5q0 -60 -24 -110.5t-64.5 -80.5t-89.5 -30zM567 52q30 0 55 22t40 59t15 80q0 40 -20.5 63t-54.5 23q-29 0 -54 -22t-40 -59t-15 -80q0 -40 20 -63t54 -23zM906 -5
q-60 0 -95.5 38t-35.5 101q0 61 24.5 111t65 80t88.5 30q61 0 96 -37.5t35 -101.5q0 -60 -24 -110.5t-64.5 -80.5t-89.5 -30zM912 52q30 0 55 22t40 59t15 80q0 40 -20.5 63t-54.5 23q-29 0 -54 -22t-40 -59t-15 -80q0 -40 20 -63t54 -23z" />
    <glyph glyph-name="uni2032" unicode="&#x2032;" horiz-adv-x="250" 
d="M105 496l111 233h104l-139 -233h-76z" />
    <glyph glyph-name="uni2033" unicode="&#x2033;" horiz-adv-x="409" 
d="M264 496l111 233h104l-139 -233h-76zM105 496l111 233h104l-139 -233h-76z" />
    <glyph glyph-name="guilsinglleft" unicode="&#x2039;" horiz-adv-x="398" 
d="M417 509l-285 -257l174 -252h-102l-179 255l287 254h105z" />
    <glyph glyph-name="guilsinglright" unicode="&#x203a;" horiz-adv-x="406" 
d="M-10 0l284 257l-173 252h101l180 -255l-288 -254h-104z" />
    <glyph glyph-name="fraction" unicode="&#x2044;" horiz-adv-x="566" 
d="M-10 0l535 700h76l-537 -700h-74z" />
    <glyph glyph-name="uni2070" unicode="&#x2070;" horiz-adv-x="351" 
d="M208 345q-59 0 -94.5 38t-35.5 101q0 61 24.5 111t64.5 80t90 30q60 0 95 -38t35 -101q0 -61 -24 -111t-64.5 -80t-90.5 -30zM215 402q30 0 55 22t40 59t15 80q0 40 -20.5 63t-55.5 23q-28 0 -53 -22t-40 -59t-15 -80q0 -40 20 -63t54 -23z" />
    <glyph glyph-name="uni2074" unicode="&#x2074;" horiz-adv-x="335" 
d="M235 350l17 83h-194l12 53l229 214h74l-45 -212h42l-12 -55h-41l-18 -83h-64zM144 488h120l30 140z" />
    <glyph glyph-name="uni2075" unicode="&#x2075;" horiz-adv-x="305" 
d="M185 346q-41 0 -75.5 14.5t-56.5 42.5l45 41q20 -23 41.5 -33t48.5 -10q32 0 54 18t22 46q0 25 -19.5 39.5t-53.5 14.5q-14 0 -28.5 -2t-28.5 -7l-38 16l43 174h221l-11 -56h-168l-20 -80q13 4 25.5 5t24.5 1q53 0 86 -26.5t33 -70.5q0 -36 -19.5 -64.5t-52 -45.5
t-73.5 -17z" />
    <glyph glyph-name="uni2076" unicode="&#x2076;" horiz-adv-x="326" 
d="M208 345q-59 0 -94.5 38t-35.5 101q0 61 27 110.5t72 79.5t99 30q30 0 57 -10t46 -29l-43 -44q-29 26 -69 26q-43 0 -76 -33t-44 -83q20 17 45 26t50 9q46 0 75.5 -26.5t29.5 -67.5q0 -35 -19 -63.5t-50.5 -46t-69.5 -17.5zM213 401q29 0 50.5 18.5t21.5 43.5
q0 24 -17 39t-44 15q-43 0 -82 -34q1 -40 20 -61t51 -21z" />
    <glyph glyph-name="uni2077" unicode="&#x2077;" horiz-adv-x="302" 
d="M75 350l222 294h-197l11 56h274l-10 -48l-220 -302h-80z" />
    <glyph glyph-name="uni2078" unicode="&#x2078;" horiz-adv-x="325" 
d="M195 345q-57 0 -93 26t-36 67q0 33 22.5 60t57.5 38q-35 23 -35 62q0 30 18 54t49.5 38.5t67.5 14.5q51 0 83.5 -25t32.5 -64q0 -29 -18.5 -53.5t-48.5 -37.5q21 -10 33 -28.5t12 -41.5q0 -30 -19.5 -55.5t-52 -40t-73.5 -14.5zM232 554q26 0 46 16t20 38q0 20 -16 32
t-41 12q-28 0 -47.5 -15.5t-19.5 -38.5q0 -18 16.5 -31t41.5 -13zM200 399q32 0 54 16.5t22 39.5t-19 36.5t-49 13.5q-32 0 -54.5 -16.5t-22.5 -40.5q0 -22 19.5 -35.5t49.5 -13.5z" />
    <glyph glyph-name="uni2079" unicode="&#x2079;" horiz-adv-x="326" 
d="M232 704q59 0 94.5 -38t35.5 -101q0 -61 -27 -110.5t-72 -79.5t-99 -30q-30 0 -56.5 10.5t-46.5 28.5l44 44q28 -26 69 -26q42 0 75 33t44 83q-20 -17 -45 -26t-50 -9q-46 0 -75.5 26.5t-29.5 67.5q0 35 19 63.5t50.5 46t69.5 17.5zM227 648q-29 0 -50 -18.5t-21 -43.5
q0 -24 17 -39t43 -15q43 0 82 34q0 40 -19 61t-52 21z" />
    <glyph glyph-name="uni2080" unicode="&#x2080;" horiz-adv-x="351" 
d="M135 -5q-60 0 -95.5 38t-35.5 101q0 61 24.5 111t65 80t88.5 30q61 0 96 -37.5t35 -101.5q0 -60 -24 -110.5t-64.5 -80.5t-89.5 -30zM141 52q30 0 55 22t40 59t15 80q0 40 -20.5 63t-54.5 23q-29 0 -54 -22t-40 -59t-15 -80q0 -40 20 -63t54 -23z" />
    <glyph glyph-name="uni2081" unicode="&#x2081;" horiz-adv-x="174" 
d="M31 0l60 283l-73 -27l13 56l98 38h40l-75 -350h-63z" />
    <glyph glyph-name="uni2082" unicode="&#x2082;" horiz-adv-x="292" 
d="M-28 0l10 46l169 129q28 21 40.5 39t12.5 37q0 21 -17 34.5t-44 13.5q-21 0 -42.5 -9t-49.5 -30l-27 47q32 24 65 35.5t66 11.5q50 0 81.5 -25.5t31.5 -66.5q0 -33 -18 -61.5t-59 -59.5l-112 -86h151l-12 -55h-246z" />
    <glyph glyph-name="uni2083" unicode="&#x2083;" horiz-adv-x="313" 
d="M113 -5q-46 0 -80.5 16t-56.5 47l49 38q17 -23 39 -34t53 -11t52 15t21 37q0 20 -15.5 32t-41.5 12h-32l11 53h26q31 0 52.5 15t21.5 37q0 20 -16.5 32.5t-43.5 12.5q-45 0 -88 -35l-34 44q29 24 63 36.5t69 12.5q50 0 83 -26t33 -67q0 -30 -19.5 -54t-51.5 -37
q22 -10 34.5 -27t12.5 -40q0 -30 -19 -55t-51 -39.5t-71 -14.5z" />
    <glyph glyph-name="uni2084" unicode="&#x2084;" horiz-adv-x="335" 
d="M161 0l17 83h-194l12 53l229 214h74l-45 -212h42l-12 -55h-41l-18 -83h-64zM70 138h120l30 140z" />
    <glyph glyph-name="uni2085" unicode="&#x2085;" horiz-adv-x="305" 
d="M111 -4q-41 0 -75.5 14.5t-56.5 42.5l45 41q20 -23 41.5 -33t48.5 -10q32 0 54 18t22 46q0 25 -19.5 39.5t-53.5 14.5q-14 0 -28.5 -2t-28.5 -7l-38 16l43 174h221l-11 -56h-168l-20 -80q13 4 25.5 5t24.5 1q53 0 86 -26.5t33 -70.5q0 -36 -19.5 -64.5t-52 -45.5
t-73.5 -17z" />
    <glyph glyph-name="uni2086" unicode="&#x2086;" horiz-adv-x="326" 
d="M134 -5q-59 0 -94.5 38t-35.5 101q0 61 27 110.5t72 79.5t99 30q30 0 57 -10t46 -29l-43 -44q-29 26 -69 26q-43 0 -76 -33t-44 -83q20 17 45 26t50 9q46 0 75.5 -26.5t29.5 -67.5q0 -35 -19 -63.5t-50.5 -46t-69.5 -17.5zM139 51q29 0 50.5 18.5t21.5 43.5q0 24 -17 39
t-44 15q-43 0 -82 -34q1 -40 20 -61t51 -21z" />
    <glyph glyph-name="uni2087" unicode="&#x2087;" horiz-adv-x="302" 
d="M1 0l222 294h-197l11 56h274l-10 -48l-220 -302h-80z" />
    <glyph glyph-name="uni2088" unicode="&#x2088;" horiz-adv-x="325" 
d="M121 -5q-57 0 -93 26t-36 67q0 33 22.5 60t57.5 38q-35 23 -35 62q0 30 18 54t49.5 38.5t67.5 14.5q51 0 83.5 -25t32.5 -64q0 -29 -18.5 -53.5t-48.5 -37.5q21 -10 33 -28.5t12 -41.5q0 -30 -19.5 -55.5t-52 -40t-73.5 -14.5zM158 204q26 0 46 16t20 38q0 20 -16 32
t-41 12q-28 0 -47.5 -15.5t-19.5 -38.5q0 -18 16.5 -31t41.5 -13zM126 49q32 0 54 16.5t22 39.5t-19 36.5t-49 13.5q-32 0 -54.5 -16.5t-22.5 -40.5q0 -22 19.5 -35.5t49.5 -13.5z" />
    <glyph glyph-name="uni2089" unicode="&#x2089;" horiz-adv-x="326" 
d="M158 354q59 0 94.5 -38t35.5 -101q0 -60 -27 -110t-72 -80t-99 -30q-30 0 -56.5 10.5t-46.5 28.5l44 44q28 -26 69 -26q42 0 75 33t44 83q-20 -17 -45 -26t-50 -9q-46 0 -75.5 26.5t-29.5 67.5q0 35 19 63.5t50.5 46t69.5 17.5zM153 298q-29 0 -50 -18.5t-21 -43.5
q0 -24 17 -39t43 -15q43 0 82 34q0 40 -19 61t-52 21z" />
    <glyph glyph-name="Euro" unicode="&#x20ac;" horiz-adv-x="765" 
d="M430 -10q-85 0 -149.5 33t-103 92.5t-45.5 139.5h-100l13 59h87q1 19 4 37.5t6 36.5h-82l14 59h86q30 77 84.5 136.5t127.5 93t156 33.5q92 0 160.5 -38t102.5 -108l-77 -47q-26 52 -79 81t-118 29q-56 0 -106.5 -23t-89.5 -63.5t-64 -93.5h275l-34 -59h-262
q-5 -17 -8 -36t-4 -38h233l-34 -59h-197q7 -56 34.5 -96.5t73.5 -62.5t105 -22q56 0 108 21t90 59l58 -55q-54 -53 -121.5 -81t-143.5 -28z" />
    <glyph glyph-name="trademark" unicode="&#x2122;" horiz-adv-x="667" 
d="M354 421l60 279h64l45 -167l117 167h66l-60 -279h-50l45 209l-135 -191l-56 197l-44 -215h-52zM159 421l50 232h-95l10 47h244l-11 -47h-94l-50 -232h-54z" />
    <glyph glyph-name="uni2191" unicode="&#x2191;" horiz-adv-x="550" 
d="M227 0v570l-155 -200l-61 51l263 329l263 -329l-61 -51l-156 202v-572h-93z" />
    <glyph glyph-name="uni2193" unicode="&#x2193;" horiz-adv-x="550" 
d="M320 700v-570l155 200l62 -51l-264 -329l-262 329l61 51l156 -202v572h92z" />
    <glyph glyph-name="minus" unicode="&#x2212;" horiz-adv-x="599" 
d="M110 318l17 79h410l-17 -79h-410z" />
    <glyph glyph-name="uni2215" unicode="&#x2215;" horiz-adv-x="566" 
d="M-10 0l535 700h76l-537 -700h-74z" />
    <glyph glyph-name="notequal" unicode="&#x2260;" horiz-adv-x="599" 
d="M72 111l103 117h-84l16 79h135l85 95h-199l17 79h248l103 117h76l-103 -117h86l-17 -79h-135l-85 -95h200l-17 -79h-250l-102 -117h-77z" />
    <glyph glyph-name="fi" unicode="&#xfb01;" horiz-adv-x="604" 
d="M77 0l90 425h-114l17 84h116l18 88q16 74 63.5 113.5t121.5 39.5q22 0 45 -3.5t39 -10.5l-17 -86q-16 6 -32 9t-36 3q-38 0 -59 -17.5t-29 -55.5l-16 -80h142l-19 -84h-142l-90 -425h-98zM394 0l108 509h97l-107 -509h-98zM574 591q-23 0 -38.5 16t-15.5 39q0 19 9 34.5
t25 24.5t34 9q23 0 38.5 -15.5t15.5 -38.5q0 -18 -9.5 -33.5t-25 -25.5t-33.5 -10z" />
    <glyph glyph-name="fl" unicode="&#xfb02;" horiz-adv-x="604" 
d="M77 0l90 425h-114l17 84h116l18 88q16 74 63.5 113.5t121.5 39.5q22 0 45 -3.5t39 -10.5l-17 -86q-16 6 -32 9t-36 3q-38 0 -59 -17.5t-29 -55.5l-16 -80h142l-19 -84h-142l-90 -425h-98zM394 0l149 700l102 22l-153 -722h-98z" />
    <glyph glyph-name="uniFEFF" unicode="&#xfeff;" horiz-adv-x="0" 
 />
    <glyph glyph-name="uniFFFD" unicode="&#xfffd;" horiz-adv-x="514" 
d="M61 -100v850h394v-850h-394z" />
    <glyph glyph-name="NULL" horiz-adv-x="209" 
 />
    <glyph glyph-name="CR" horiz-adv-x="209" 
 />
    <glyph glyph-name="idotaccent" horiz-adv-x="216" 
d="M5 0l108 509h97l-107 -509h-98zM185 591q-23 0 -38.5 16t-15.5 39q0 19 9 34.5t25 24.5t34 9q23 0 38.5 -15.5t15.5 -38.5q0 -18 -9.5 -33.5t-25 -25.5t-33.5 -10z" />
    <glyph glyph-name="a.school" horiz-adv-x="596" 
d="M260 -8q-64 0 -115 31t-80.5 84t-29.5 120q0 60 22 112t60.5 92t89.5 62.5t110 22.5q49 0 91.5 -16.5t72.5 -48.5l12 58h97l-108 -509h-97l6 31q-60 -39 -131 -39zM284 78q36 0 68.5 12.5t58.5 36.5l50 232q-20 32 -58 51.5t-83 19.5q-52 0 -95 -26.5t-68.5 -70
t-25.5 -98.5q0 -45 19.5 -81t54.5 -56t79 -20z" />
    <glyph glyph-name="aacute.school" horiz-adv-x="596" 
d="M260 -8q-64 0 -115 31t-80.5 84t-29.5 120q0 60 22 112t60.5 92t89.5 62.5t110 22.5q49 0 91.5 -16.5t72.5 -48.5l12 58h97l-108 -509h-97l6 31q-60 -39 -131 -39zM284 78q36 0 68.5 12.5t58.5 36.5l50 232q-20 32 -58 51.5t-83 19.5q-52 0 -95 -26.5t-68.5 -70
t-25.5 -98.5q0 -45 19.5 -81t54.5 -56t79 -20zM289 603l117 122h119l-151 -122h-85z" />
    <glyph glyph-name="abreve.school" horiz-adv-x="596" 
d="M260 -8q-64 0 -115 31t-80.5 84t-29.5 120q0 60 22 112t60.5 92t89.5 62.5t110 22.5q49 0 91.5 -16.5t72.5 -48.5l12 58h97l-108 -509h-97l6 31q-60 -39 -131 -39zM284 78q36 0 68.5 12.5t58.5 36.5l50 232q-20 32 -58 51.5t-83 19.5q-52 0 -95 -26.5t-68.5 -70
t-25.5 -98.5q0 -45 19.5 -81t54.5 -56t79 -20zM357 595q-65 0 -103.5 36.5t-39.5 97.5l63 13q2 -42 23 -64.5t59 -22.5q69 0 108 82l64 -20q-27 -59 -72 -90.5t-102 -31.5z" />
    <glyph glyph-name="acircumflex.school" horiz-adv-x="596" 
d="M260 -8q-64 0 -115 31t-80.5 84t-29.5 120q0 60 22 112t60.5 92t89.5 62.5t110 22.5q49 0 91.5 -16.5t72.5 -48.5l12 58h97l-108 -509h-97l6 31q-60 -39 -131 -39zM284 78q36 0 68.5 12.5t58.5 36.5l50 232q-20 32 -58 51.5t-83 19.5q-52 0 -95 -26.5t-68.5 -70
t-25.5 -98.5q0 -45 19.5 -81t54.5 -56t79 -20zM188 600l133 127h104l79 -127h-78l-61 77l-94 -77h-83z" />
    <glyph glyph-name="adieresis.school" horiz-adv-x="596" 
d="M260 -8q-64 0 -115 31t-80.5 84t-29.5 120q0 60 22 112t60.5 92t89.5 62.5t110 22.5q49 0 91.5 -16.5t72.5 -48.5l12 58h97l-108 -509h-97l6 31q-60 -39 -131 -39zM284 78q36 0 68.5 12.5t58.5 36.5l50 232q-20 32 -58 51.5t-83 19.5q-52 0 -95 -26.5t-68.5 -70
t-25.5 -98.5q0 -45 19.5 -81t54.5 -56t79 -20zM258 602q-23 0 -37 15t-14 37q0 26 19 45.5t45 19.5q22 0 36.5 -15t14.5 -37q0 -26 -19.5 -45.5t-44.5 -19.5zM446 602q-21 0 -36 15t-15 37q0 26 19.5 45.5t45.5 19.5q22 0 36 -15t14 -37q0 -26 -19 -45.5t-45 -19.5z" />
    <glyph glyph-name="agrave.school" horiz-adv-x="596" 
d="M260 -8q-64 0 -115 31t-80.5 84t-29.5 120q0 60 22 112t60.5 92t89.5 62.5t110 22.5q49 0 91.5 -16.5t72.5 -48.5l12 58h97l-108 -509h-97l6 31q-60 -39 -131 -39zM284 78q36 0 68.5 12.5t58.5 36.5l50 232q-20 32 -58 51.5t-83 19.5q-52 0 -95 -26.5t-68.5 -70
t-25.5 -98.5q0 -45 19.5 -81t54.5 -56t79 -20zM316 603l-125 122h118l89 -122h-82z" />
    <glyph glyph-name="amacron.school" horiz-adv-x="596" 
d="M260 -8q-64 0 -115 31t-80.5 84t-29.5 120q0 60 22 112t60.5 92t89.5 62.5t110 22.5q49 0 91.5 -16.5t72.5 -48.5l12 58h97l-108 -509h-97l6 31q-60 -39 -131 -39zM284 78q36 0 68.5 12.5t58.5 36.5l50 232q-20 32 -58 51.5t-83 19.5q-52 0 -95 -26.5t-68.5 -70
t-25.5 -98.5q0 -45 19.5 -81t54.5 -56t79 -20zM201 622l15 67h291l-15 -67h-291z" />
    <glyph glyph-name="aogonek.school" horiz-adv-x="596" 
d="M381 -222q-40 0 -64 20t-24 53q0 41 30 78t90 71h-28l6 31q-60 -39 -131 -39q-64 0 -115 31t-80.5 84t-29.5 120q0 60 22 112t60.5 92t89.5 62.5t110 22.5q48 0 91 -16.5t73 -48.5l12 58h97l-108 -509q-63 -33 -93 -63t-30 -64q0 -17 13 -28t34 -11q22 0 43 11l5 -49
q-16 -8 -35 -13t-38 -5zM285 78q73 0 126 49l50 232q-20 32 -58 51.5t-83 19.5q-52 0 -95 -26.5t-68.5 -70t-25.5 -98.5q0 -45 19.5 -81t54.5 -56t80 -20z" />
    <glyph glyph-name="aring.school" horiz-adv-x="596" 
d="M260 -8q-64 0 -115 31t-80.5 84t-29.5 120q0 60 22 112t60.5 92t89.5 62.5t110 22.5q49 0 91.5 -16.5t72.5 -48.5l12 58h97l-108 -509h-97l6 31q-60 -39 -131 -39zM284 78q36 0 68.5 12.5t58.5 36.5l50 232q-20 32 -58 51.5t-83 19.5q-52 0 -95 -26.5t-68.5 -70
t-25.5 -98.5q0 -45 19.5 -81t54.5 -56t79 -20zM356 583q-46 0 -75.5 29t-29.5 73q0 34 17.5 63t45.5 47t61 18q46 0 75.5 -29t29.5 -73q0 -34 -17 -62.5t-45.5 -47t-61.5 -18.5zM357 631q30 0 51.5 22.5t21.5 52.5q0 26 -16 42.5t-41 16.5q-29 0 -51 -22.5t-22 -53.5
q0 -25 16.5 -41.5t40.5 -16.5z" />
    <glyph glyph-name="atilde.school" horiz-adv-x="596" 
d="M260 -8q-64 0 -115 31t-80.5 84t-29.5 120q0 60 22 112t60.5 92t89.5 62.5t110 22.5q49 0 91.5 -16.5t72.5 -48.5l12 58h97l-108 -509h-97l6 31q-60 -39 -131 -39zM284 78q36 0 68.5 12.5t58.5 36.5l50 232q-20 32 -58 51.5t-83 19.5q-52 0 -95 -26.5t-68.5 -70
t-25.5 -98.5q0 -45 19.5 -81t54.5 -56t79 -20zM236 600l-61 20q44 100 110 100q29 0 54 -14.5t47.5 -29t41.5 -14.5q16 0 26.5 11.5t24.5 41.5l61 -20q-22 -51 -49 -76t-62 -25q-29 0 -54 14.5t-46.5 29t-43.5 14.5q-14 0 -25.5 -12t-23.5 -40z" />
    <glyph glyph-name="g.alt" horiz-adv-x="548" 
d="M215 -213q-121 0 -192 32.5t-71 87.5q0 38 31 68t87 45q-25 22 -25 54q0 36 25 63.5t66 40.5q-32 23 -51.5 57t-19.5 74q0 57 32 104t85.5 75t116.5 28q44 0 81.5 -14t64.5 -39q23 32 55.5 49.5t67.5 17.5q10 0 18 -1t16 -4l-15 -80q-9 3 -20.5 4t-22.5 1q-42 0 -72 -21
q25 -38 25 -85q0 -56 -31 -102.5t-83.5 -74t-117.5 -27.5q-40 0 -74 11q-25 -5 -39.5 -17t-14.5 -30q0 -29 51 -35l174 -20q58 -7 88.5 -33t30.5 -67q0 -49 -33 -85t-93 -56.5t-140 -20.5zM270 215q37 0 67 17t49 45t19 60q0 29 -14.5 52.5t-39.5 37t-57 13.5
q-36 0 -67.5 -17t-50 -45.5t-18.5 -63.5q0 -28 14.5 -50.5t40 -35.5t57.5 -13zM221 -146q72 0 115.5 19.5t43.5 51.5q0 15 -13.5 25.5t-38.5 13.5l-158 18q-11 2 -20.5 3.5t-18.5 3.5q-40 -7 -63 -25t-23 -42q0 -32 47 -50t129 -18z" />
    <glyph glyph-name="gbreve.alt" horiz-adv-x="548" 
d="M215 -213q-121 0 -192 32.5t-71 87.5q0 38 31 68t87 45q-25 22 -25 54q0 36 25 63.5t66 40.5q-32 23 -51.5 57t-19.5 74q0 57 32 104t85.5 75t116.5 28q44 0 81.5 -14t64.5 -39q23 32 55.5 49.5t67.5 17.5q10 0 18 -1t16 -4l-15 -80q-9 3 -20.5 4t-22.5 1q-42 0 -72 -21
q25 -38 25 -85q0 -56 -31 -102.5t-83.5 -74t-117.5 -27.5q-40 0 -74 11q-25 -5 -39.5 -17t-14.5 -30q0 -29 51 -35l174 -20q58 -7 88.5 -33t30.5 -67q0 -49 -33 -85t-93 -56.5t-140 -20.5zM270 215q37 0 67 17t49 45t19 60q0 29 -14.5 52.5t-39.5 37t-57 13.5
q-36 0 -67.5 -17t-50 -45.5t-18.5 -63.5q0 -28 14.5 -50.5t40 -35.5t57.5 -13zM221 -146q72 0 115.5 19.5t43.5 51.5q0 15 -13.5 25.5t-38.5 13.5l-158 18q-11 2 -20.5 3.5t-18.5 3.5q-40 -7 -63 -25t-23 -42q0 -32 47 -50t129 -18zM334 595q-65 0 -103.5 36.5t-39.5 97.5
l63 13q2 -42 23 -64.5t59 -22.5q69 0 108 82l64 -20q-27 -59 -72 -90.5t-102 -31.5z" />
    <glyph glyph-name="gcircumflex.alt" horiz-adv-x="548" 
d="M215 -213q-121 0 -192 32.5t-71 87.5q0 38 31 68t87 45q-25 22 -25 54q0 36 25 63.5t66 40.5q-32 23 -51.5 57t-19.5 74q0 57 32 104t85.5 75t116.5 28q44 0 81.5 -14t64.5 -39q23 32 55.5 49.5t67.5 17.5q10 0 18 -1t16 -4l-15 -80q-9 3 -20.5 4t-22.5 1q-42 0 -72 -21
q25 -38 25 -85q0 -56 -31 -102.5t-83.5 -74t-117.5 -27.5q-40 0 -74 11q-25 -5 -39.5 -17t-14.5 -30q0 -29 51 -35l174 -20q58 -7 88.5 -33t30.5 -67q0 -49 -33 -85t-93 -56.5t-140 -20.5zM270 215q37 0 67 17t49 45t19 60q0 29 -14.5 52.5t-39.5 37t-57 13.5
q-36 0 -67.5 -17t-50 -45.5t-18.5 -63.5q0 -28 14.5 -50.5t40 -35.5t57.5 -13zM221 -146q72 0 115.5 19.5t43.5 51.5q0 15 -13.5 25.5t-38.5 13.5l-158 18q-11 2 -20.5 3.5t-18.5 3.5q-40 -7 -63 -25t-23 -42q0 -32 47 -50t129 -18zM166 600l133 127h104l79 -127h-78l-61 77
l-94 -77h-83z" />
    <glyph glyph-name="gcommaaccent.alt" horiz-adv-x="548" 
d="M459 793l-84 -189h-97l109 189h72zM215 -213q-121 0 -192 32.5t-71 87.5q0 38 31 68t87 45q-25 22 -25 54q0 36 25 63.5t66 40.5q-32 23 -51.5 57t-19.5 74q0 57 32 104t85.5 75t116.5 28q44 0 81.5 -14t64.5 -39q23 32 55.5 49.5t67.5 17.5q10 0 18 -1t16 -4l-15 -80
q-9 3 -20.5 4t-22.5 1q-42 0 -72 -21q25 -38 25 -85q0 -56 -31 -102.5t-83.5 -74t-117.5 -27.5q-40 0 -74 11q-25 -5 -39.5 -17t-14.5 -30q0 -29 51 -35l174 -20q58 -7 88.5 -33t30.5 -67q0 -49 -33 -85t-93 -56.5t-140 -20.5zM270 215q37 0 67 17t49 45t19 60
q0 29 -14.5 52.5t-39.5 37t-57 13.5q-36 0 -67.5 -17t-50 -45.5t-18.5 -63.5q0 -28 14.5 -50.5t40 -35.5t57.5 -13zM221 -146q72 0 115.5 19.5t43.5 51.5q0 15 -13.5 25.5t-38.5 13.5l-158 18q-11 2 -20.5 3.5t-18.5 3.5q-40 -7 -63 -25t-23 -42q0 -32 47 -50t129 -18z" />
    <glyph glyph-name="gdotaccent.alt" horiz-adv-x="548" 
d="M215 -213q-121 0 -192 32.5t-71 87.5q0 38 31 68t87 45q-25 22 -25 54q0 36 25 63.5t66 40.5q-32 23 -51.5 57t-19.5 74q0 57 32 104t85.5 75t116.5 28q44 0 81.5 -14t64.5 -39q23 32 55.5 49.5t67.5 17.5q10 0 18 -1t16 -4l-15 -80q-9 3 -20.5 4t-22.5 1q-42 0 -72 -21
q25 -38 25 -85q0 -56 -31 -102.5t-83.5 -74t-117.5 -27.5q-40 0 -74 11q-25 -5 -39.5 -17t-14.5 -30q0 -29 51 -35l174 -20q58 -7 88.5 -33t30.5 -67q0 -49 -33 -85t-93 -56.5t-140 -20.5zM270 215q37 0 67 17t49 45t19 60q0 29 -14.5 52.5t-39.5 37t-57 13.5
q-36 0 -67.5 -17t-50 -45.5t-18.5 -63.5q0 -28 14.5 -50.5t40 -35.5t57.5 -13zM221 -146q72 0 115.5 19.5t43.5 51.5q0 15 -13.5 25.5t-38.5 13.5l-158 18q-11 2 -20.5 3.5t-18.5 3.5q-40 -7 -63 -25t-23 -42q0 -32 47 -50t129 -18zM328 602q-23 0 -37 15t-14 37
q0 26 19 45.5t45 19.5q22 0 36.5 -15t14.5 -37q0 -26 -19.5 -45.5t-44.5 -19.5z" />
    <glyph glyph-name="caronSlovak" 
d="M307 505l51 198l92 18l-76 -216h-67z" />
    <glyph glyph-name="commaaccent" 
d="M102 -273l85 189h96l-108 -189h-73z" />
    <glyph glyph-name="exclamdown.cap" horiz-adv-x="199" 
d="M187 503l-95 -503h-101l119 503h77zM187 711q24 0 40 -16t16 -40q0 -18 -10 -34.5t-26 -26t-35 -9.5q-23 0 -39 16t-16 40q0 19 10 34.5t26 25.5t34 10z" />
    <glyph glyph-name="questiondown.cap" horiz-adv-x="482" 
d="M364 498q-7 -47 -20.5 -81.5t-37 -59t-59.5 -45.5l-63 -37q-39 -23 -61 -51.5t-22 -58.5q0 -39 32.5 -63t85.5 -24q45 0 87.5 21.5t75.5 57.5l67 -45q-48 -56 -111.5 -88t-131.5 -32q-59 0 -105 20t-71.5 56t-25.5 83q0 58 33.5 103t107.5 88l52 29q38 22 57.5 51
t26.5 76h83zM360 710q24 0 39.5 -16t15.5 -39q0 -19 -9.5 -35t-25.5 -26t-35 -10q-23 0 -39 16.5t-16 39.5q0 19 10 34.5t26 25.5t34 10z" />
    <glyph glyph-name="periodcentered.cap" horiz-adv-x="250" 
d="M137 285q-24 0 -40 16t-16 40q0 19 10 35t26 26t35 10q24 0 39 -16t15 -41q0 -18 -9.5 -34t-25.5 -26t-34 -10z" />
    <glyph glyph-name="hyphen.cap" horiz-adv-x="451" 
d="M70 391h353l-18 -87h-354z" />
    <glyph glyph-name="endash.cap" horiz-adv-x="551" 
d="M71 391h451l-18 -87h-452z" />
    <glyph glyph-name="emdash.cap" horiz-adv-x="702" 
d="M72 391h598l-18 -87h-599z" />
    <glyph glyph-name="uni2015.cap" horiz-adv-x="951" 
d="M73 391h843l-18 -87h-844z" />
    <glyph glyph-name="at.cap" horiz-adv-x="771" 
d="M427 -11q-78 0 -144 26.5t-115.5 74t-76.5 111.5t-27 139q0 79 27 147t76 118t115 78t143 28q72 0 133 -23t106.5 -64.5t71 -97t25.5 -120.5q0 -64 -23.5 -114t-64.5 -78.5t-94 -28.5q-70 0 -98 41q-49 -43 -105 -43q-41 0 -74 20t-52 54.5t-19 77.5q0 50 23.5 91
t62.5 65t87 24q28 0 53.5 -9.5t44.5 -26.5l4 23h73l-41 -197q-6 -32 6.5 -49t42.5 -17q34 0 60.5 21t41 58t14.5 84q0 74 -36.5 132.5t-100 92.5t-143.5 34q-63 0 -118 -24.5t-96.5 -67.5t-64 -101t-22.5 -124q0 -88 39.5 -156t108.5 -106.5t159 -38.5q93 0 168 38l21 -48
q-44 -22 -92 -33t-99 -11zM392 242q42 0 74 31q-2 17 2 40l20 99q-13 20 -35 30.5t-48 10.5q-28 0 -51.5 -15t-37.5 -40.5t-14 -56.5q0 -44 25.5 -71.5t64.5 -27.5z" />
    <glyph glyph-name="zero.tab" 
d="M279 -10q-64 0 -114.5 31.5t-78.5 93.5t-28 152q0 95 24.5 175t67 140.5t98 94t117.5 33.5q65 0 115 -31.5t78 -93.5t28 -152q0 -94 -24.5 -174.5t-67 -141t-98 -94t-117.5 -33.5zM164 184l282 404q-33 37 -83 37q-42 0 -80.5 -27.5t-68 -76t-46 -112.5t-16.5 -138
q0 -51 12 -87zM281 75q43 0 81 27.5t67.5 76t46 112.5t16.5 138q0 50 -11 83l-282 -402q32 -35 82 -35z" />
    <glyph glyph-name="one.tab" 
d="M48 0l17 83h177l109 509l-193 -77l19 93l233 92h60l-132 -617h193l-17 -83h-466z" />
    <glyph glyph-name="two.tab" 
d="M23 0l15 70l365 326q42 37 60.5 69.5t18.5 66.5q0 42 -33.5 68t-85.5 26q-43 0 -85 -18.5t-98 -59.5l-41 71q60 45 119 68t119 23q59 0 104 -20.5t70 -58t25 -87.5q0 -36 -11 -68t-36 -63.5t-67 -67.5l-294 -263l332 1l-18 -83h-459z" />
    <glyph glyph-name="three.tab" 
d="M271 -11q-79 0 -143.5 33.5t-108.5 94.5l71 56q40 -53 86 -76t101 -23q48 0 83.5 16.5t55.5 46.5t20 68q0 47 -34.5 78t-95.5 31h-62l18 81h75q40 0 72 16.5t51 44t19 61.5q0 45 -34.5 76.5t-97.5 31.5q-48 0 -90 -15.5t-85 -50.5l-49 66q46 42 104 64t123 22
q72 0 122 -24.5t77 -65t27 -89.5q0 -63 -39.5 -112.5t-119.5 -71.5q54 -17 83.5 -55.5t29.5 -88.5q0 -61 -33.5 -110t-92 -77t-133.5 -28z" />
    <glyph glyph-name="four.tab" 
d="M343 0l38 178h-371l16 78l456 444h104l-93 -439h90l-17 -83h-91l-38 -178h-94zM139 261h260l68 320z" />
    <glyph glyph-name="five.tab" 
d="M263 -10q-75 0 -138 29t-104 83l66 61q39 -47 83 -69t99 -22q49 0 87.5 21t60.5 57.5t22 81.5q0 59 -40.5 93.5t-108.5 34.5q-29 0 -59 -7t-66 -23l-64 27l87 343h411l-18 -83h-326l-54 -207q34 14 63 19.5t59 5.5q65 0 113 -23.5t74 -66.5t26 -101q0 -71 -36.5 -128.5
t-98 -91.5t-138.5 -34z" />
    <glyph glyph-name="six.tab" 
d="M306 -11q-69 0 -125 34t-89.5 98t-33.5 154q0 98 27.5 178t76.5 137.5t113.5 89t136.5 31.5q60 0 108.5 -18.5t88.5 -51.5l-56 -74q-35 30 -70.5 44t-73.5 14q-63 0 -116.5 -35.5t-90 -99t-47.5 -149.5q40 46 90 70.5t105 24.5q64 0 112 -26t75 -71t27 -101
q0 -55 -20.5 -100.5t-56.5 -79t-82.5 -51.5t-98.5 -18zM315 73q44 0 79 20.5t55 56.5t20 81q0 39 -17 67.5t-49 45t-75 16.5q-48 0 -94 -20.5t-83 -59.5q2 -66 23 -112.5t57.5 -70.5t83.5 -24z" />
    <glyph glyph-name="seven.tab" 
d="M61 0l462 615h-404l19 85h510l-16 -73l-456 -627h-115z" />
    <glyph glyph-name="eight.tab" 
d="M278 -10q-72 0 -127 25t-86 68t-31 97q0 47 23 86.5t64.5 68t95.5 40.5q-44 20 -68 55t-24 78q0 60 33.5 106t89 71.5t121.5 25.5q68 0 115.5 -23.5t73.5 -63t26 -87.5q0 -42 -19 -78t-55 -62t-84 -40q52 -21 84 -61.5t32 -93.5q0 -62 -35.5 -110t-95.5 -75t-133 -27z
M348 403q39 0 71 16.5t51.5 44.5t19.5 63q0 30 -14.5 54t-43 38t-71.5 14q-39 0 -71.5 -16.5t-52 -44.5t-19.5 -64q0 -30 16.5 -54t45.5 -37.5t68 -13.5zM286 68q48 0 84 17t56.5 48t20.5 70q0 34 -19 62t-53 44.5t-81 16.5q-48 0 -85 -17t-57.5 -47t-20.5 -69q0 -35 19 -63
t54 -45t82 -17z" />
    <glyph glyph-name="nine.tab" 
d="M337 711q69 0 125 -34t89.5 -98t33.5 -154q0 -98 -27.5 -178t-76.5 -137.5t-113.5 -89t-136.5 -31.5q-60 0 -108.5 18.5t-88.5 51.5l56 74q35 -30 70.5 -44t73.5 -14q63 0 116.5 35.5t90 99t47.5 149.5q-40 -46 -90 -70.5t-105 -24.5q-64 0 -112 26t-75 71t-27 101
q0 55 20.5 100.5t56.5 79t82.5 51.5t98.5 18zM328 627q-44 0 -79 -20.5t-55 -56.5t-20 -81q0 -39 17 -67.5t49 -45t75 -16.5q48 0 94 20.5t83 59.5q-2 66 -23 112.5t-57.5 70.5t-83.5 24z" />
    <glyph glyph-name="gravecomb" horiz-adv-x="0" 
d="M344 603l-125 122h118l89 -122h-82z" />
    <glyph glyph-name="acutecomb" horiz-adv-x="0" 
d="M317 603l117 122h119l-151 -122h-85z" />
    <glyph glyph-name="uni0302" horiz-adv-x="0" 
d="M217 600l133 127h104l79 -127h-78l-61 77l-94 -77h-83z" />
    <glyph glyph-name="tildecomb" horiz-adv-x="0" 
d="M264 600l-61 20q44 100 110 100q29 0 54 -14.5t47.5 -29t41.5 -14.5q16 0 26.5 11.5t24.5 41.5l61 -20q-22 -51 -49 -76t-62 -25q-29 0 -54 14.5t-46.5 29t-43.5 14.5q-14 0 -25.5 -12t-23.5 -40z" />
    <glyph glyph-name="uni0304" horiz-adv-x="0" 
d="M229 622l15 67h291l-15 -67h-291z" />
    <glyph glyph-name="uni0306" horiz-adv-x="0" 
d="M385 595q-65 0 -103.5 36.5t-39.5 97.5l63 13q2 -42 23 -64.5t59 -22.5q69 0 108 82l64 -20q-27 -59 -72 -90.5t-102 -31.5z" />
    <glyph glyph-name="uni0307" horiz-adv-x="0" 
d="M379 602q-23 0 -37 15t-14 37q0 26 19 45.5t45 19.5q22 0 36.5 -15t14.5 -37q0 -26 -19.5 -45.5t-44.5 -19.5z" />
    <glyph glyph-name="uni0308" horiz-adv-x="0" 
d="M286 602q-23 0 -37 15t-14 37q0 26 19 45.5t45 19.5q22 0 36.5 -15t14.5 -37q0 -26 -19.5 -45.5t-44.5 -19.5zM474 602q-21 0 -36 15t-15 37q0 26 19.5 45.5t45.5 19.5q22 0 36 -15t14 -37q0 -26 -19 -45.5t-45 -19.5z" />
    <glyph glyph-name="uni030A" horiz-adv-x="0" 
d="M384 583q-46 0 -75.5 29t-29.5 73q0 34 17.5 63t45.5 47t61 18q46 0 75.5 -29t29.5 -73q0 -34 -17 -62.5t-45.5 -47t-61.5 -18.5zM385 631q30 0 51.5 22.5t21.5 52.5q0 26 -16 42.5t-41 16.5q-29 0 -51 -22.5t-22 -53.5q0 -25 16.5 -41.5t40.5 -16.5z" />
    <glyph glyph-name="uni030B" horiz-adv-x="0" 
d="M354 725h105l-152 -119h-80zM532 725h106l-156 -119h-76z" />
    <glyph glyph-name="uni030C" horiz-adv-x="0" 
d="M325 601l-79 126h78l60 -76l93 76h84l-133 -126h-103z" />
    <glyph glyph-name="uni0326" horiz-adv-x="0" 
d="M102 -273l85 189h96l-108 -189h-73z" />
    </font>
</defs>
</svg>
