<?xml version="1.0" standalone="no"?>
<!DOCTYPE svg PUBLIC "-//W3C//DTD SVG 1.1//EN" "http://www.w3.org/Graphics/SVG/1.1/DTD/svg11.dtd" >
<svg xmlns="http://www.w3.org/2000/svg" xmlns:xlink="http://www.w3.org/1999/xlink" version="1.1">
<metadata>
Created by FontForge 20170731 at Thu Jul 28 13:14:01 2022
 By Aleksey,,,
Copyright 2021 The Red Hat Project Authors (https://github.com/RedHatOfficial/RedHatFont)
</metadata>
<defs>
<font id="RedHatDisplay-SemiBold" horiz-adv-x="600" >
  <font-face 
    font-family="Red Hat Display SemiBold"
    font-weight="600"
    font-stretch="normal"
    units-per-em="1000"
    panose-1="2 1 3 3 4 2 1 6 3 3"
    ascent="800"
    descent="-200"
    x-height="509"
    cap-height="700"
    bbox="-70 -273 1086 1005"
    underline-thickness="100"
    underline-position="-350"
    unicode-range="U+0020-FFFD"
  />
<missing-glyph horiz-adv-x="514" 
d="M60 -100v850h394v-850h-394z" />
    <glyph glyph-name=".notdef" horiz-adv-x="514" 
d="M60 -100v850h394v-850h-394z" />
    <glyph glyph-name=".null" horiz-adv-x="0" 
 />
    <glyph glyph-name="nonmarkingreturn" horiz-adv-x="333" 
 />
    <glyph glyph-name="space" unicode=" " horiz-adv-x="209" 
 />
    <glyph glyph-name="exclam" unicode="!" horiz-adv-x="216" 
d="M68 200l-12 505h103l-12 -505h-79zM108 -7q-26 0 -45 18.5t-19 44.5t19 44.5t45 18.5t44.5 -18.5t18.5 -44.5t-18.5 -44.5t-44.5 -18.5z" />
    <glyph glyph-name="quotedbl" unicode="&#x22;" horiz-adv-x="366" 
d="M72 467l-13 235h98l-13 -235h-72zM223 467l-13 235h98l-13 -235h-72z" />
    <glyph glyph-name="numbersign" unicode="#" horiz-adv-x="711" 
d="M75 0l61 209h-106v74h126l39 134h-115v74h135l60 209h91l-60 -209h179l60 209h90l-60 -209h106v-74h-126l-39 -134h115v-74h-136l-60 -209h-90l60 209h-179l-60 -209h-91zM247 283h179l38 134h-179z" />
    <glyph glyph-name="dollar" unicode="$" horiz-adv-x="581" 
d="M257 -67v87q-71 6 -133 34.5t-108 76.5l56 68q79 -81 185 -97v211l-43 9q-99 20 -141.5 60t-42.5 114q0 56 28.5 98t79.5 65t119 24v84h57v-86q59 -7 116.5 -28t106.5 -55l-46 -76q-46 30 -90 48.5t-87 25.5v-202l42 -7q107 -23 152 -63t45 -112q0 -56 -30 -98.5
t-83.5 -67t-125.5 -27.5v-86h-57zM257 404v196q-60 -1 -97 -27t-37 -69q0 -28 11 -47t37 -30.5t70 -20.5zM314 99q63 4 103 32.5t40 73.5q0 28 -11.5 46t-39 30t-77.5 21l-15 3v-206z" />
    <glyph glyph-name="percent" unicode="%" horiz-adv-x="761" 
d="M178 345q-69 0 -111 50t-42 130q0 81 42 130.5t111 49.5q68 0 110 -49.5t43 -130.5q-1 -80 -43 -130t-110 -50zM178 402q41 0 65 33.5t24 89.5q0 57 -24 90.5t-65 33.5t-64.5 -33.5t-24.5 -90.5q1 -56 24.5 -89.5t64.5 -33.5zM142 0l394 700h79l-395 -700h-78zM585 -5
q-69 0 -111 50t-42 130q0 81 42 130.5t111 49.5q68 0 110 -49.5t43 -130.5q-1 -80 -43 -130t-110 -50zM585 52q41 0 65 33.5t24 89.5q0 57 -24 90.5t-65 33.5t-64.5 -33.5t-24.5 -90.5q1 -56 24.5 -89.5t64.5 -33.5z" />
    <glyph glyph-name="ampersand" unicode="&#x26;" horiz-adv-x="666" 
d="M263 -11q-71 0 -124.5 25t-83.5 70t-30 104q0 43 14 76t46.5 62.5t86.5 59.5q-33 43 -47 79t-14 76q0 49 23 87.5t64 60.5t93 22q49 0 87.5 -19.5t61 -54t22.5 -79.5q0 -48 -26 -86.5t-81 -70.5l-50 -31q36 -40 79 -82t87 -83q23 37 38 81.5t25 94.5l89 -15
q-14 -64 -35 -119t-51 -100q30 -26 58.5 -48.5t55.5 -43.5l-60 -71q-26 20 -54.5 42.5t-56.5 46.5q-43 -41 -98.5 -62.5t-118.5 -21.5zM254 429l51 30q33 19 49 42.5t16 53.5q0 34 -23.5 56.5t-58.5 22.5q-37 0 -61 -25.5t-24 -65.5q0 -27 11.5 -52.5t39.5 -61.5zM269 71
q43 0 80 15t66 44q-52 48 -102 97.5t-91 96.5q-39 -21 -62 -41t-32 -41.5t-9 -47.5q0 -56 41 -89.5t109 -33.5z" />
    <glyph glyph-name="quotesingle" unicode="'" horiz-adv-x="216" 
d="M72 467l-13 235h98l-13 -235h-72z" />
    <glyph glyph-name="parenleft" unicode="(" horiz-adv-x="398" 
d="M313 -215q-123 72 -188.5 191t-65.5 272t65.5 272.5t188.5 190.5l54 -64q-103 -62 -158 -165t-55 -234q0 -130 55 -233.5t158 -164.5z" />
    <glyph glyph-name="parenright" unicode=")" horiz-adv-x="398" 
d="M85 715q123 -72 188.5 -191t65.5 -272t-65.5 -272.5t-188.5 -190.5l-54 64q103 62 158 165t55 234q0 130 -55 233.5t-158 164.5z" />
    <glyph glyph-name="asterisk" unicode="*" horiz-adv-x="458" 
d="M195 331l2 129l-113 -70l-37 57l120 70l-118 70l38 57l109 -69l-1 125h69l-2 -124l109 68l38 -57l-117 -70l120 -70l-39 -57l-111 69l2 -128h-69z" />
    <glyph glyph-name="plus" unicode="+" 
d="M260 139v178h-166v78h166v179h80v-179h166v-78h-166v-178h-80z" />
    <glyph glyph-name="comma" unicode="," horiz-adv-x="250" 
d="M27 -143l62 233h106l-92 -233h-76z" />
    <glyph glyph-name="hyphen" unicode="-" horiz-adv-x="452" 
d="M46 239v87h360v-87h-360z" />
    <glyph glyph-name="period" unicode="." horiz-adv-x="250" 
d="M125 -7q-26 0 -44.5 18.5t-18.5 44.5t18.5 44.5t44.5 18.5t44.5 -18.5t18.5 -44.5t-18.5 -44.5t-44.5 -18.5z" />
    <glyph glyph-name="slash" unicode="/" horiz-adv-x="480" 
d="M-63 -205l416 905h98l-416 -905h-98z" />
    <glyph glyph-name="zero" unicode="0" horiz-adv-x="671" 
d="M336 -11q-88 0 -154 45.5t-103.5 127t-37.5 188.5t37.5 188.5t103.5 127t154 45.5q87 0 153 -45.5t103.5 -127t37.5 -188.5t-37.5 -188.5t-103.5 -127t-153 -45.5zM336 76q60 0 104 33.5t68 95.5t24 145q0 84 -24 145.5t-68 95t-104 33.5t-104 -33.5t-68.5 -95
t-24.5 -145.5q0 -83 24.5 -145t68.5 -95.5t104 -33.5z" />
    <glyph glyph-name="one" unicode="1" horiz-adv-x="314" 
d="M151 0v597l-126 -53v88l162 68h63v-700h-99z" />
    <glyph glyph-name="two" unicode="2" horiz-adv-x="555" 
d="M49 0v70l284 302q29 30 45 54t22.5 45.5t6.5 45.5q0 47 -38 78t-96 31q-48 0 -90 -19t-93 -66l-54 66q56 52 115.5 78t123.5 26q67 0 118 -24t79.5 -66.5t28.5 -97.5q0 -35 -9 -64.5t-31 -62t-62 -74.5l-228 -240l344 1v-83h-466z" />
    <glyph glyph-name="three" unicode="3" horiz-adv-x="596" 
d="M290 -11q-75 0 -140.5 26.5t-113.5 76.5l65 62q42 -44 85.5 -62.5t102.5 -18.5q47 0 83.5 16t56.5 44t20 65q0 34 -17.5 60.5t-47 41t-69.5 14.5h-85v81h78q53 0 85 31t32 81q0 33 -18 60t-49.5 42.5t-71.5 15.5q-53 0 -93.5 -18.5t-83.5 -64.5l-65 62q48 52 111 79.5
t133 27.5q68 0 120.5 -25t83 -69.5t30.5 -100.5q0 -55 -36.5 -98.5t-95.5 -60.5q71 -15 113 -59.5t42 -104.5q0 -59 -32.5 -105t-90.5 -72.5t-132 -26.5z" />
    <glyph glyph-name="four" unicode="4" horiz-adv-x="641" 
d="M424 0v178h-397v79l385 443h111v-438h85v-84h-85v-178h-99zM146 262h278v320z" />
    <glyph glyph-name="five" unicode="5" horiz-adv-x="582" 
d="M280 -11q-140 0 -243 95l59 66q45 -41 89.5 -59.5t97.5 -18.5q48 0 83 18.5t55 52t20 76.5q0 63 -44.5 102t-115.5 39q-36 0 -71 -9.5t-73 -29.5l-68 21l16 358h416v-83h-332l-10 -216q39 20 74.5 27.5t73.5 7.5q70 0 121.5 -26.5t80.5 -74.5t29 -111q0 -70 -32.5 -122.5
t-90.5 -82.5t-135 -30z" />
    <glyph glyph-name="six" unicode="6" horiz-adv-x="622" 
d="M335 -10q-84 0 -148 43t-100 119.5t-36 177.5q0 115 40 200.5t112.5 133t169.5 47.5q48 0 95.5 -14.5t82.5 -41.5l-51 -71q-31 20 -64.5 30t-70.5 10q-68 0 -116.5 -34.5t-74.5 -99.5t-27 -157q37 49 89 76.5t108 27.5q69 0 122 -27.5t83 -76.5t30 -112q0 -66 -32 -118.5
t-87 -82.5t-125 -30zM330 360q-52 0 -98.5 -24t-80.5 -66q9 -59 33.5 -103.5t62.5 -69t85 -24.5q44 0 78 19t53.5 52t19.5 75q0 41 -19.5 73t-54 50t-79.5 18z" />
    <glyph glyph-name="seven" unicode="7" horiz-adv-x="574" 
d="M104 0l334 615h-408v85h512v-73l-326 -627h-112z" />
    <glyph glyph-name="eight" unicode="8" horiz-adv-x="622" 
d="M306 -11q-75 0 -132.5 26t-90.5 72t-33 105q0 41 19.5 76t55 61t80.5 37q-58 18 -94 61t-36 96q0 54 30.5 96.5t82.5 67t118 24.5t118.5 -24.5t82.5 -67t30 -96.5q0 -53 -36 -96t-94 -61q69 -18 112 -65.5t43 -108.5q0 -59 -32.5 -105t-90.5 -72t-133 -26zM306 403
q39 0 70 15t49 41t18 58q0 33 -18 59.5t-49 41t-70 14.5t-70 -14.5t-49 -40.5t-18 -59t18 -59t49 -41t70 -15zM306 68q46 0 82 16.5t57 46t21 66.5t-21 66.5t-57 46t-82 16.5t-82 -17t-57 -46t-21 -66t21 -66.5t57 -46t82 -16.5z" />
    <glyph glyph-name="nine" unicode="9" horiz-adv-x="622" 
d="M287 711q84 0 148 -43.5t100 -119.5t36 -177q0 -115 -40 -200.5t-112.5 -133t-169.5 -47.5q-47 0 -95 15t-83 40l51 72q31 -20 65 -30.5t70 -10.5q68 0 116.5 35t74.5 100.5t27 155.5q-37 -49 -89 -76.5t-108 -27.5q-69 0 -122 28.5t-83 77t-30 111.5q0 67 32 119t87 82
t125 30zM292 340q52 0 98.5 24.5t80.5 66.5q-8 60 -32.5 104t-62.5 68.5t-86 24.5q-43 0 -77.5 -19t-54 -52t-19.5 -75q0 -41 19.5 -73.5t54.5 -50.5t79 -18z" />
    <glyph glyph-name="colon" unicode=":" horiz-adv-x="250" 
d="M125 -7q-26 0 -44.5 18.5t-18.5 44.5t18.5 44.5t44.5 18.5t44.5 -18.5t18.5 -44.5t-18.5 -44.5t-44.5 -18.5zM125 393q-26 0 -44.5 18.5t-18.5 44.5t18.5 44.5t44.5 18.5t44.5 -18.5t18.5 -44.5t-18.5 -44.5t-44.5 -18.5z" />
    <glyph glyph-name="semicolon" unicode=";" horiz-adv-x="250" 
d="M134 393q-26 0 -44.5 18.5t-18.5 44.5t18.5 44.5t44.5 18.5t44.5 -18.5t18.5 -44.5t-18.5 -44.5t-44.5 -18.5zM21 -143l62 233h106l-92 -233h-76z" />
    <glyph glyph-name="less" unicode="&#x3c;" 
d="M421 85l-327 263l329 263l50 -60l-258 -201l258 -203z" />
    <glyph glyph-name="equal" unicode="=" 
d="M94 229v78h412v-78h-412zM94 403v78h412v-78h-412z" />
    <glyph glyph-name="greater" unicode="&#x3e;" 
d="M179 611l327 -263l-329 -263l-50 60l258 201l-258 203z" />
    <glyph glyph-name="question" unicode="?" horiz-adv-x="514" 
d="M184 205q-2 46 5 79t25.5 59t49.5 49l47 33q39 28 55 51.5t16 52.5q0 28 -17.5 49t-46.5 34t-66 13q-47 0 -88 -23t-69 -65l-80 41q26 42 63.5 72t82.5 45.5t96 15.5q64 0 114 -23.5t79.5 -63.5t29.5 -92q0 -34 -11 -62t-37 -54.5t-72 -58.5l-31 -22q-35 -23 -49 -53.5
t-11 -76.5h-85zM227 -7q-26 0 -44.5 18.5t-18.5 44.5t18.5 44.5t44.5 18.5t44.5 -18.5t18.5 -44.5t-18.5 -44.5t-44.5 -18.5z" />
    <glyph glyph-name="at" unicode="@" horiz-adv-x="781" 
d="M406 -144q-78 0 -144.5 26.5t-115.5 73.5t-76.5 111.5t-27.5 139.5q0 79 27.5 147t76.5 118t115 78.5t144 28.5q71 0 132 -23.5t106.5 -65t71 -97.5t25.5 -120t-23.5 -114t-65 -78.5t-94.5 -28.5q-69 0 -98 41q-24 -21 -51 -32t-54 -11q-41 0 -74 20t-51.5 54.5
t-18.5 77.5q0 50 23 91t62 65t88 24q58 0 97 -36l5 23h72l-40 -198q-7 -31 6.5 -48t43.5 -17q33 0 59 21t41 58t15 84q0 74 -37 132.5t-100 92t-143 33.5q-63 0 -118 -24t-96.5 -67t-64.5 -101t-23 -124q0 -88 39.5 -156t109.5 -106.5t159 -38.5q92 0 167 39l22 -49
q-45 -22 -92.5 -33t-98.5 -11zM371 110q41 0 73 31v18.5t3 20.5l20 99q-14 20 -35.5 30.5t-47.5 10.5q-28 0 -51.5 -15t-37.5 -40.5t-14 -56.5q0 -43 25 -70.5t65 -27.5z" />
    <glyph glyph-name="A" unicode="A" horiz-adv-x="701" 
d="M1 0l289 700h124l286 -700h-114l-81 205h-313l-82 -205h-109zM226 292h245l-122 308z" />
    <glyph glyph-name="B" unicode="B" horiz-adv-x="671" 
d="M71 0v700h303q69 0 120 -23t79 -64.5t28 -97.5q0 -51 -26 -90t-73 -62q59 -21 92.5 -63.5t33.5 -99.5q0 -61 -29.5 -106t-84 -69.5t-127.5 -24.5h-316zM176 403h192q59 0 94 28t35 76t-35 76t-94 28h-192v-208zM176 89h203q66 0 104.5 31t38.5 84q0 52 -38.5 83.5
t-104.5 31.5h-203v-230z" />
    <glyph glyph-name="C" unicode="C" horiz-adv-x="720" 
d="M408 -11q-78 0 -144.5 27.5t-117 77t-78 115t-27.5 141.5t27.5 141.5t78 115t117.5 77t144 27.5q55 0 107.5 -14.5t97 -41.5t77.5 -65l-70 -72q-39 47 -95 71.5t-117 24.5q-56 0 -103.5 -20t-82.5 -55.5t-54.5 -83.5t-19.5 -105q0 -56 19.5 -104t55.5 -84t84 -56t104 -20
q61 0 115.5 24.5t92.5 69.5l69 -70q-35 -37 -79.5 -64.5t-96 -42t-104.5 -14.5z" />
    <glyph glyph-name="D" unicode="D" horiz-adv-x="727" 
d="M176 94h144q55 0 102 19.5t82.5 54t55 81t19.5 101.5q0 54 -19.5 101t-55 81.5t-82.5 54t-102 19.5h-144v-512zM71 0v700h247q79 0 146 -26.5t117 -73.5t78 -111t28 -139q0 -76 -27.5 -139.5t-77.5 -110.5t-117.5 -73.5t-146.5 -26.5h-247z" />
    <glyph glyph-name="E" unicode="E" horiz-adv-x="628" 
d="M71 0v700h516v-92h-411v-210h270v-89h-270v-217h415v-92h-520z" />
    <glyph glyph-name="F" unicode="F" horiz-adv-x="620" 
d="M71 0v700h518v-92h-413v-215h272v-89h-272v-304h-105z" />
    <glyph glyph-name="G" unicode="G" horiz-adv-x="790" 
d="M407 -11q-77 0 -143.5 28t-116.5 77.5t-78 115t-28 140.5t27.5 140.5t77.5 115t116 77.5t143 28q83 0 157 -32t125 -89l-72 -70q-38 45 -93.5 69.5t-116.5 24.5q-55 0 -101.5 -20t-81.5 -55.5t-54.5 -83.5t-19.5 -105q0 -56 19.5 -104.5t55 -84.5t82.5 -56t102 -20
q62 0 112.5 26t82.5 71.5t39 102.5h-233v92h343v-36q0 -75 -26 -139t-72.5 -112t-109.5 -74.5t-136 -26.5z" />
    <glyph glyph-name="H" unicode="H" horiz-adv-x="725" 
d="M71 0v700h105v-300h372v300h105v-700h-105v305h-372v-305h-105z" />
    <glyph glyph-name="I" unicode="I" horiz-adv-x="248" 
d="M71 0v700h105v-700h-105z" />
    <glyph glyph-name="J" unicode="J" horiz-adv-x="617" 
d="M283 -11q-97 0 -166 49.5t-100 140.5l96 38q25 -67 67.5 -99.5t102.5 -32.5q78 0 124.5 50t46.5 134v431h105v-433q0 -84 -34 -146.5t-96 -97t-146 -34.5z" />
    <glyph glyph-name="K" unicode="K" horiz-adv-x="650" 
d="M71 0v700h105v-324l339 324h133l-364 -339l375 -361h-144l-339 332v-332h-105z" />
    <glyph glyph-name="L" unicode="L" horiz-adv-x="614" 
d="M71 0v700h105v-607h403v-93h-508z" />
    <glyph glyph-name="M" unicode="M" horiz-adv-x="861" 
d="M71 0v700h141l219 -448l219 448h140v-700h-99v572l-261 -522l-261 522v-572h-98z" />
    <glyph glyph-name="N" unicode="N" horiz-adv-x="735" 
d="M71 0v700h102l391 -520v520h99v-700h-92l-400 536v-536h-100z" />
    <glyph glyph-name="O" unicode="O" horiz-adv-x="810" 
d="M405 -11q-76 0 -142 27.5t-116.5 77t-78 115t-27.5 141.5t27.5 141.5t78 115t116.5 77t142 27.5t142.5 -27.5t116.5 -77t78 -115t28 -141.5t-28 -141.5t-78 -115t-116.5 -77t-142.5 -27.5zM406 86q54 0 100.5 20t81.5 55.5t55 84t20 104.5q0 57 -20 105t-55 83.5
t-81.5 55.5t-100.5 20q-55 0 -102 -20t-82 -55.5t-54.5 -83.5t-19.5 -104q0 -57 19.5 -105.5t54.5 -84t82 -55.5t102 -20z" />
    <glyph glyph-name="P" unicode="P" horiz-adv-x="661" 
d="M71 0v700h324q69 0 120 -26.5t80 -73.5t29 -109t-29 -109t-80.5 -73.5t-119.5 -26.5h-219v-282h-105zM176 371h208q62 0 98.5 32.5t36.5 86.5t-36.5 86t-98.5 32h-208v-237z" />
    <glyph glyph-name="Q" unicode="Q" horiz-adv-x="810" 
d="M632 -23l-48 58q-39 -21 -84 -33.5t-94 -12.5q-77 0 -143.5 27.5t-116.5 77t-77.5 115t-27.5 141.5t27.5 141.5t77.5 115t116.5 77t143.5 27.5q76 0 142 -27.5t116 -77t78 -115t28 -141.5q0 -77 -30 -145t-82 -117l72 -88zM406 86q31 0 59.5 7t53.5 21l-90 109l99 24
l65 -79q33 35 51.5 82t18.5 100q0 57 -20 105t-55 83.5t-81.5 55.5t-100.5 20q-55 0 -102 -20t-82 -55.5t-54.5 -83.5t-19.5 -105q0 -56 19.5 -104.5t54.5 -84t82 -55.5t102 -20z" />
    <glyph glyph-name="R" unicode="R" horiz-adv-x="659" 
d="M71 0v700h317q70 0 122.5 -26t82 -72.5t29.5 -108.5q0 -69 -39 -119t-105 -72l156 -302h-116l-145 287h-197v-287h-105zM176 375h204q62 0 99.5 31.5t37.5 85.5q0 52 -37.5 84t-99.5 32h-204v-233z" />
    <glyph glyph-name="S" unicode="S" horiz-adv-x="613" 
d="M308 -10q-84 0 -162 33t-138 93l64 74q57 -56 116.5 -83t124.5 -27q51 0 89.5 14.5t59.5 41.5t21 61q0 47 -33 72t-109 38l-117 19q-96 17 -143.5 62t-47.5 120q0 60 32 105.5t90.5 70.5t135.5 25q76 0 149.5 -24.5t132.5 -70.5l-58 -80q-113 86 -229 86q-46 0 -80 -13
t-53 -36.5t-19 -54.5q0 -43 29 -65.5t96 -32.5l113 -19q111 -18 163 -65t52 -129q0 -64 -35 -112.5t-98 -75.5t-146 -27z" />
    <glyph glyph-name="T" unicode="T" horiz-adv-x="631" 
d="M263 0v607h-246v93h597v-93h-246v-607h-105z" />
    <glyph glyph-name="U" unicode="U" horiz-adv-x="713" 
d="M356 -11q-91 0 -158 38t-103 107.5t-36 164.5v401h105v-401q0 -65 23.5 -113t67 -74t101.5 -26q60 0 103 26t66.5 74t23.5 113v401h105v-401q0 -95 -36.5 -164.5t-103.5 -107.5t-158 -38z" />
    <glyph glyph-name="V" unicode="V" horiz-adv-x="701" 
d="M287 0l-286 700h113l237 -596l241 596h108l-290 -700h-123z" />
    <glyph glyph-name="W" unicode="W" horiz-adv-x="908" 
d="M184 0l-153 700h108l109 -535l158 535h100l158 -534l110 534h103l-153 -700h-108l-161 550l-162 -550h-109z" />
    <glyph glyph-name="X" unicode="X" horiz-adv-x="663" 
d="M1 0l268 362l-253 338h127l189 -258l188 258h122l-250 -337l271 -363h-126l-207 284l-208 -284h-121z" />
    <glyph glyph-name="Y" unicode="Y" horiz-adv-x="666" 
d="M281 0v278l-282 422h122l215 -329l215 329h117l-282 -424v-276h-105z" />
    <glyph glyph-name="Z" unicode="Z" horiz-adv-x="609" 
d="M23 0v73l420 535h-416v92h554v-73l-422 -535h428v-92h-564z" />
    <glyph glyph-name="bracketleft" unicode="[" horiz-adv-x="366" 
d="M57 -209v909h271v-79h-176v-751h176v-79h-271z" />
    <glyph glyph-name="backslash" unicode="\" horiz-adv-x="486" 
d="M446 -205l-416 905h103l416 -905h-103z" />
    <glyph glyph-name="bracketright" unicode="]" horiz-adv-x="366" 
d="M309 700v-909h-271v79h176v751h-176v79h271z" />
    <glyph glyph-name="asciicircum" unicode="^" horiz-adv-x="555" 
d="M52 350l183 350h85l183 -350h-85l-141 270l-140 -270h-85z" />
    <glyph glyph-name="underscore" unicode="_" horiz-adv-x="487" 
d="M-1 -153v73h489v-73h-489z" />
    <glyph glyph-name="grave" unicode="`" 
d="M283 603l-128 122h122l90 -122h-84z" />
    <glyph glyph-name="a" unicode="a" horiz-adv-x="532" 
d="M220 -9q-55 0 -97 19.5t-66 54.5t-24 81q0 72 55 113.5t151 41.5q75 0 139 -29v54q0 55 -31.5 82t-92.5 27q-35 0 -73 -10.5t-85 -32.5l-37 75q58 27 108 39.5t101 12.5q99 0 153.5 -47t54.5 -134v-338h-98v44q-34 -27 -73 -40t-85 -13zM129 148q0 -37 31.5 -59.5
t82.5 -22.5q40 0 73.5 11.5t61.5 36.5v86q-29 17 -60.5 24.5t-70.5 7.5q-55 0 -86.5 -22.5t-31.5 -61.5z" />
    <glyph glyph-name="b" unicode="b" horiz-adv-x="607" 
d="M59 0v700l100 19v-258q64 56 155 56q72 0 130.5 -35t92.5 -94t34 -133t-34.5 -133.5t-93 -94.5t-131.5 -35q-42 0 -81.5 13.5t-72.5 38.5v-44h-99zM301 79q49 0 87.5 23t61.5 62.5t23 89.5t-23 90t-61.5 63t-87.5 23q-43 0 -80 -16t-62 -45v-230q25 -28 62.5 -44
t79.5 -16z" />
    <glyph glyph-name="c" unicode="c" horiz-adv-x="521" 
d="M298 -9q-73 0 -133 35t-94.5 95t-34.5 134t35 133.5t94.5 95t132.5 35.5q58 0 111.5 -22t92.5 -62l-62 -69q-29 32 -65 48t-75 16q-46 0 -83.5 -23t-59.5 -63t-22 -89t22 -89t60 -63.5t85 -23.5q39 0 73 15.5t64 45.5l61 -64q-40 -41 -92.5 -63t-109.5 -22z" />
    <glyph glyph-name="d" unicode="d" horiz-adv-x="607" 
d="M293 -8q-71 0 -130 35t-93 94.5t-34 133.5t34.5 133t93.5 94t131 35q42 0 81 -13t72 -38v234l100 19v-719h-99v49q-65 -57 -156 -57zM306 79q44 0 80.5 16t61.5 46v229q-25 28 -61.5 44.5t-80.5 16.5q-48 0 -87 -23t-62 -62.5t-23 -89.5t23 -90t62 -63.5t87 -23.5z" />
    <glyph glyph-name="e" unicode="e" horiz-adv-x="573" 
d="M303 -9q-75 0 -135.5 35t-96 95t-35.5 134q0 73 34 132.5t92 95t129 35.5t126 -35.5t87.5 -96t32.5 -136.5v-28h-401q8 -42 31.5 -75t60 -52t79.5 -19q37 0 71.5 11.5t57.5 33.5l64 -63q-45 -34 -92.5 -50.5t-104.5 -16.5zM137 297h301q-6 40 -27.5 70.5t-53 48
t-68.5 17.5q-38 0 -70 -17t-53.5 -47.5t-28.5 -71.5z" />
    <glyph glyph-name="f" unicode="f" horiz-adv-x="397" 
d="M135 0v425h-118v84h118v77q0 80 44.5 122t127.5 42q21 0 39.5 -2.5t33.5 -7.5v-86q-18 5 -32 7.5t-31 2.5q-42 0 -62.5 -19.5t-20.5 -61.5v-74h146v-84h-146v-425h-99z" />
    <glyph glyph-name="g" unicode="g" horiz-adv-x="603" 
d="M311 -214q-56 0 -109 13t-96 37l38 78q45 -23 84.5 -33.5t79.5 -10.5q67 0 101.5 31t34.5 91v58q-67 -53 -153 -53q-70 0 -128.5 34.5t-92.5 94t-34 131.5q0 73 34.5 132.5t93 94t131.5 34.5q41 0 79.5 -13.5t70.5 -38.5v43h99v-517q0 -99 -60.5 -152.5t-172.5 -53.5z
M304 83q44 0 80 15.5t60 44.5v228q-24 28 -60.5 44t-79.5 16q-48 0 -86.5 -23t-61 -62.5t-22.5 -88.5t22.5 -88.5t61 -62.5t86.5 -23z" />
    <glyph glyph-name="h" unicode="h" horiz-adv-x="567" 
d="M59 0v700l100 22v-265q59 62 153 62q59 0 103.5 -25t70 -70t25.5 -104v-320h-100v303q0 60 -34 94.5t-93 34.5q-40 0 -72 -17t-53 -49v-366h-100z" />
    <glyph glyph-name="i" unicode="i" horiz-adv-x="218" 
d="M59 0v509h100v-509h-100zM109 591q-25 0 -43 18.5t-18 43.5q0 26 18 43.5t43 17.5q26 0 44 -17.5t18 -43.5q0 -25 -18 -43.5t-44 -18.5z" />
    <glyph glyph-name="j" unicode="j" horiz-adv-x="218" 
d="M109 591q-25 0 -43 18.5t-18 43.5q0 26 18 43.5t43 17.5q26 0 44 -17.5t18 -43.5q0 -25 -18 -43.5t-44 -18.5zM14 -214q-16 0 -31.5 2.5t-25.5 4.5v80q17 -4 40 -4q33 0 47.5 14.5t14.5 47.5v578h100v-585q0 -66 -37.5 -102t-107.5 -36z" />
    <glyph glyph-name="k" unicode="k" horiz-adv-x="524" 
d="M59 0v700l100 19v-433l247 223h117l-263 -238l277 -271h-132l-246 239v-239h-100z" />
    <glyph glyph-name="l" unicode="l" horiz-adv-x="218" 
d="M59 0v700l100 19v-719h-100z" />
    <glyph glyph-name="m" unicode="m" horiz-adv-x="878" 
d="M59 0v509h100v-49q57 59 143 59q52 0 92.5 -23t64.5 -62q32 42 75 63.5t97 21.5q57 0 99.5 -25t67 -70t24.5 -104v-320h-100v303q0 60 -31.5 94.5t-85.5 34.5q-37 0 -67 -17t-52 -52q2 -10 3 -21t1 -22v-320h-99v303q0 60 -31.5 94.5t-85.5 34.5q-36 0 -65 -15.5
t-50 -46.5v-370h-100z" />
    <glyph glyph-name="n" unicode="n" horiz-adv-x="567" 
d="M59 0v509h100v-52q59 62 153 62q59 0 103.5 -25t70 -70t25.5 -104v-320h-100v303q0 60 -33.5 94.5t-93.5 34.5q-40 0 -72 -17t-53 -49v-366h-100z" />
    <glyph glyph-name="o" unicode="o" horiz-adv-x="602" 
d="M301 -10q-74 0 -134.5 35t-95.5 95t-35 134t35 134t95.5 95.5t134.5 35.5q75 0 135 -35.5t95 -95.5t35 -134t-35 -134t-95 -95t-135 -35zM301 78q47 0 85 23.5t60 63.5t22 90q0 49 -22.5 88.5t-60 63.5t-84.5 24t-84.5 -24t-60 -63.5t-22.5 -88.5q0 -50 22 -90t60 -63.5
t85 -23.5z" />
    <glyph glyph-name="p" unicode="p" horiz-adv-x="607" 
d="M59 -204v713h99v-49q64 57 156 57q72 0 130.5 -35t92.5 -94t34 -133t-34.5 -133.5t-93 -94.5t-131.5 -35q-42 0 -81 13.5t-72 38.5v-248h-100zM301 79q49 0 87.5 23t61.5 62.5t23 89.5t-23 90t-61.5 63t-87.5 23q-43 0 -80 -16t-62 -45v-230q25 -28 62.5 -44t79.5 -16z
" />
    <glyph glyph-name="q" unicode="q" horiz-adv-x="607" 
d="M448 -204v252q-65 -56 -155 -56q-71 0 -130 35t-93 94.5t-34 133.5t34.5 133t93.5 94t131 35q43 0 82.5 -13.5t71.5 -37.5v43h99v-713h-100zM306 79q44 0 80.5 16t61.5 46v229q-25 28 -61.5 44.5t-80.5 16.5q-48 0 -87 -23t-62 -62.5t-23 -89.5t23 -90t62 -63.5t87 -23.5
z" />
    <glyph glyph-name="r" unicode="r" horiz-adv-x="371" 
d="M59 0v509h100v-65q24 36 59.5 56.5t80.5 20.5q31 -1 51 -9v-90q-14 6 -29 8.5t-30 2.5q-44 0 -78 -23.5t-54 -68.5v-341h-100z" />
    <glyph glyph-name="s" unicode="s" horiz-adv-x="465" 
d="M234 -10q-66 0 -123.5 19.5t-99.5 55.5l55 66q39 -31 80.5 -47.5t84.5 -16.5q54 0 88 21t34 55q0 28 -20 44t-62 22l-92 13q-76 11 -114 47t-38 96q0 46 25 80.5t70 54t105 19.5q55 0 106 -16t98 -50l-51 -66q-42 28 -81.5 41t-79.5 13q-46 0 -74 -19.5t-28 -50.5
q0 -28 19.5 -43.5t64.5 -21.5l92 -13q76 -11 115 -46.5t39 -95.5q0 -46 -28 -82.5t-76 -57.5t-109 -21z" />
    <glyph glyph-name="t" unicode="t" horiz-adv-x="389" 
d="M277 -9q-74 0 -113 34.5t-39 100.5v299h-108v84h108v130l99 24v-154h150v-84h-150v-276q0 -39 17.5 -55.5t57.5 -16.5q21 0 37.5 3t35.5 9v-84q-20 -7 -46.5 -10.5t-48.5 -3.5z" />
    <glyph glyph-name="u" unicode="u" horiz-adv-x="567" 
d="M256 -10q-59 0 -104 25t-70 70.5t-25 104.5v319h99v-302q0 -60 34.5 -95t92.5 -35q41 0 73 17.5t52 49.5v365h100v-509h-100v52q-59 -62 -152 -62z" />
    <glyph glyph-name="v" unicode="v" horiz-adv-x="540" 
d="M223 0l-220 509h110l159 -381l159 381h106l-218 -509h-96z" />
    <glyph glyph-name="w" unicode="w" horiz-adv-x="731" 
d="M154 0l-142 509h97l99 -374l116 374h86l116 -374l99 374h94l-143 -509h-96l-114 373l-115 -373h-97z" />
    <glyph glyph-name="x" unicode="x" horiz-adv-x="517" 
d="M2 0l198 261l-190 248h117l131 -174l131 174h113l-188 -247l200 -262h-117l-141 188l-141 -188h-113z" />
    <glyph glyph-name="y" unicode="y" horiz-adv-x="537" 
d="M93 -215q-16 0 -30 1.5t-23 4.5v88q18 -4 44 -4q70 0 101 75l22 49l-204 510h111l148 -388l164 388h108l-246 -572q-24 -54 -51 -87.5t-62 -49t-82 -15.5z" />
    <glyph glyph-name="z" unicode="z" horiz-adv-x="478" 
d="M29 0v74l286 349h-283v86h408v-73l-286 -350h291v-86h-416z" />
    <glyph glyph-name="braceleft" unicode="{" horiz-adv-x="401" 
d="M273 -216q-61 0 -100 27t-49.5 73t12.5 102l38 98q21 53 1.5 89t-71.5 36h-81v77h81q52 0 71.5 37t-1.5 89l-38 96q-23 57 -12.5 103t49.5 73t100 27q23 0 44 -4t44 -12l-17 -74q-16 6 -31 8.5t-31 2.5q-45 0 -61.5 -31.5t2.5 -79.5l43 -113q21 -56 -4 -101t-83 -59
q59 -15 83.5 -60.5t3.5 -99.5l-43 -114q-19 -48 -2.5 -79.5t61.5 -31.5q16 0 31 2.5t31 8.5l17 -74q-23 -8 -44 -12t-44 -4z" />
    <glyph glyph-name="bar" unicode="|" horiz-adv-x="298" 
d="M104 -205v905h90v-905h-90z" />
    <glyph glyph-name="braceright" unicode="}" horiz-adv-x="401" 
d="M128 711q61 0 100 -27t49.5 -73t-12.5 -102l-38 -98q-21 -53 -1.5 -89t71.5 -36h81v-77h-81q-52 0 -71.5 -37t1.5 -89l38 -96q23 -57 12.5 -103t-49.5 -73t-100 -27q-23 0 -44 4t-44 12l17 74q16 -6 31 -8.5t31 -2.5q45 0 61.5 31.5t-2.5 79.5l-43 113q-21 56 4 101
t83 59q-59 15 -83.5 60.5t-3.5 99.5l43 114q19 48 2.5 79.5t-61.5 31.5q-16 0 -31 -2.5t-31 -8.5l-17 74q23 8 44 12t44 4z" />
    <glyph glyph-name="asciitilde" unicode="~" horiz-adv-x="584" 
d="M108 295l-72 8q9 75 43.5 115.5t89.5 40.5q21 0 43.5 -6.5t48.5 -20.5l83 -41q23 -12 37 -16.5t27 -4.5q58 0 70 86l70 -8q-8 -75 -43 -115.5t-90 -40.5q-19 0 -42.5 6t-49.5 20l-83 41q-24 13 -37.5 17.5t-25.5 4.5q-58 0 -69 -86z" />
    <glyph glyph-name="uni00A0" unicode="&#xa0;" horiz-adv-x="209" 
 />
    <glyph glyph-name="exclamdown" unicode="&#xa1;" horiz-adv-x="216" 
d="M148 297l12 -505h-103l12 505h79zM108 504q26 0 45 -18.5t19 -44.5t-19 -44.5t-45 -18.5t-44.5 18.5t-18.5 44.5t18.5 44.5t44.5 18.5z" />
    <glyph glyph-name="cent" unicode="&#xa2;" horiz-adv-x="522" 
d="M267 -116v108q-66 8 -118 44t-82.5 93t-30.5 126t30.5 125.5t82.5 93t118 44.5v96h55v-96q52 -4 98.5 -25.5t81.5 -57.5l-62 -69q-25 27 -55 43t-63 19v-347q32 3 61.5 18t55.5 41l61 -64q-36 -36 -82 -58t-96 -26v-108h-55zM135 255q0 -43 17 -79.5t47 -60.5t68 -32v343
q-38 -7 -68 -32t-47 -60.5t-17 -78.5z" />
    <glyph glyph-name="sterling" unicode="&#xa3;" horiz-adv-x="629" 
d="M463 -23q-15 0 -31 2t-33 6l-190 41q-10 2 -20 3.5t-19 1.5q-33 0 -55.5 -16.5t-39.5 -50.5l-74 47q26 48 60.5 73t80.5 29q22 18 22 54q0 3 -0.5 8t-2.5 17.5t-6.5 38t-12.5 70.5h-102v70h89q-7 40 -11 62.5t-5 35.5t-1 22q0 67 27.5 116t78.5 76.5t120 27.5
q94 0 154 -45t83 -133l-85 -26q-15 59 -53 89.5t-96 30.5q-65 0 -99.5 -35.5t-34.5 -98.5q0 -8 1 -18.5t5 -34.5t11 -69h202v-70h-188q6 -35 9.5 -56l5.5 -33t2.5 -18t0.5 -10q0 -50 -27 -79l185 -39q11 -3 21 -4t20 -1q59 0 90 59l74 -45q-56 -98 -156 -98z" />
    <glyph glyph-name="uni00A4" unicode="&#xa4;" horiz-adv-x="684" 
d="M89 56l-51 51l94 95q-24 32 -38 73.5t-14 86.5q0 46 14 86.5t39 73.5l-95 95l51 52l95 -96q33 24 73 38t85 14t85 -14t73 -39l95 96l50 -50l-96 -95q26 -33 40 -74t14 -87q0 -45 -13.5 -86t-38.5 -74l95 -96l-51 -51l-95 96q-33 -25 -73 -39t-85 -14t-85.5 14.5
t-73.5 38.5zM342 185q46 0 84 24t60.5 64t22.5 89q0 50 -22.5 89.5t-60.5 63t-84 23.5q-47 0 -84.5 -23.5t-60 -63t-22.5 -89.5q0 -49 22.5 -89t60 -64t84.5 -24z" />
    <glyph glyph-name="yen" unicode="&#xa5;" horiz-adv-x="670" 
d="M284 0v133h-184v62h184v68h-184v62h154l-249 375h122l213 -329l208 329h116l-245 -375h151v-62h-181v-68h181v-62h-181v-133h-105z" />
    <glyph glyph-name="uni00A6" unicode="&#xa6;" horiz-adv-x="300" 
d="M104 288v412h92v-412h-92zM104 -205v412h92v-412h-92z" />
    <glyph glyph-name="section" unicode="&#xa7;" horiz-adv-x="571" 
d="M280 -51q-48 0 -96 13t-92 37l38 66q87 -48 150 -48q43 0 67.5 18.5t24.5 51.5q0 25 -16 42t-53 29l-108 36q-80 26 -112.5 59t-32.5 88q0 47 27.5 80.5t73.5 48.5q-43 36 -43 95q0 66 50.5 105.5t133.5 39.5q46 0 94.5 -13.5t93.5 -38.5l-39 -65q-84 48 -150 48
q-44 0 -68 -18.5t-24 -50.5q0 -26 16.5 -43t53.5 -29l107 -35q80 -27 112.5 -59.5t32.5 -88.5q0 -46 -27 -80t-74 -50q43 -36 43 -95q0 -65 -50.5 -104t-132.5 -39zM347 227q41 5 65 26.5t24 53.5q0 29 -19.5 48t-62.5 33l-117 37q-3 2 -6.5 3t-5.5 2q-42 -4 -66 -25.5
t-24 -54.5q0 -28 19 -46.5t63 -34.5l116 -37q4 -1 7 -2t7 -3z" />
    <glyph glyph-name="dieresis" unicode="&#xa8;" 
d="M203 608q-25 0 -42 16.5t-17 41.5t17 41.5t42 16.5t42 -16.5t17 -41.5q0 -24 -17 -41t-42 -17zM397 608q-25 0 -42 16.5t-17 41.5t17 41.5t42 16.5t42 -16.5t17 -41.5q0 -24 -17 -41t-42 -17z" />
    <glyph glyph-name="copyright" unicode="&#xa9;" horiz-adv-x="798" 
d="M408 164q-52 0 -94.5 25t-67 67t-24.5 94q0 53 24.5 95.5t67 67.5t94.5 25q42 0 80.5 -16t65.5 -46l-48 -52q-21 23 -45 33.5t-51 10.5q-31 0 -56 -15.5t-39.5 -42t-14.5 -60.5q0 -33 14.5 -59.5t40 -41.5t56.5 -15q27 0 50 10.5t43 31.5l49 -51q-29 -30 -66 -45.5
t-79 -15.5zM399 -11q-76 0 -141 27.5t-114 77t-76 115t-27 141.5t27 141.5t76 115t114 77t141 27.5q75 0 140.5 -27.5t114 -76.5t76 -114.5t27.5 -142.5q0 -76 -27.5 -142t-76 -115t-113.5 -76.5t-141 -27.5zM399 41q63 0 118 24t96.5 66.5t64.5 98.5t23 120t-23 120
t-64.5 98.5t-96.5 66.5t-119 24q-62 0 -116.5 -24t-95.5 -66.5t-64.5 -98.5t-23.5 -120t23.5 -120t64.5 -98.5t95.5 -66.5t117.5 -24z" />
    <glyph glyph-name="ordfeminine" unicode="&#xaa;" horiz-adv-x="420" 
d="M173 313q-63 0 -102.5 32.5t-39.5 84.5q0 54 42 85t115 31q27 0 52.5 -5t48.5 -14v37q0 78 -90 78q-26 0 -54 -7.5t-65 -23.5l-29 60q44 21 82.5 30.5t77.5 9.5q76 0 117 -36t41 -103v-252h-80v31q-49 -38 -116 -38zM191 373q29 0 53.5 8.5t44.5 23.5v65q-20 11 -43.5 16
t-50.5 5q-40 0 -63 -16t-23 -43t22.5 -43t59.5 -16z" />
    <glyph glyph-name="guillemotleft" unicode="&#xab;" horiz-adv-x="631" 
d="M264 0l-238 255l238 254h104l-232 -252l235 -257h-107zM488 0l-238 255l238 254h104l-232 -252l235 -257h-107z" />
    <glyph glyph-name="uni00AC" unicode="&#xac;" horiz-adv-x="587" 
d="M449 0v248h-385v78h465v-326h-80z" />
    <glyph glyph-name="uni00AD" unicode="&#xad;" horiz-adv-x="459" 
d="M46 239v87h360v-87h-360z" />
    <glyph glyph-name="registered" unicode="&#xae;" horiz-adv-x="488" 
d="M244 309q-57 0 -102.5 27t-72.5 73.5t-27 102.5q0 58 27 104t73 73t102 27t102 -27t73 -73t27 -104q0 -56 -27 -102.5t-73 -73.5t-102 -27zM244 347q47 0 83 21.5t56.5 59t20.5 84.5q0 48 -20.5 85.5t-56.5 58.5t-83 21q-46 0 -82.5 -21t-57 -58.5t-20.5 -84.5t20.5 -85
t57 -59.5t82.5 -21.5zM175 419v188h79q29 0 46.5 -15.5t17.5 -42.5q0 -16 -9.5 -30t-24.5 -22l45 -78h-43l-40 70h-31v-70h-40zM247 576h-32v-58h31q32 0 32 29q0 14 -7.5 21.5t-23.5 7.5z" />
    <glyph glyph-name="macron" unicode="&#xaf;" 
d="M151 622v67h298v-67h-298z" />
    <glyph glyph-name="degree" unicode="&#xb0;" horiz-adv-x="403" 
d="M202 419q-41 0 -74.5 20t-53 53.5t-19.5 72.5q0 41 19.5 73.5t53 52.5t74.5 20t74 -20t52.5 -52.5t19.5 -73.5q0 -39 -19.5 -72.5t-52.5 -53.5t-74 -20zM202 478q35 0 61 25.5t26 61.5t-26 62t-61 26q-36 0 -61.5 -26t-25.5 -62t25.5 -61.5t61.5 -25.5z" />
    <glyph glyph-name="plusminus" unicode="&#xb1;" 
d="M94 -1v77h412v-77h-412zM260 184v168h-166v78h166v168h80v-168h166v-78h-166v-168h-80z" />
    <glyph glyph-name="twosuperior" unicode="&#xb2;" horiz-adv-x="297" 
d="M26 350v47l138 123q25 23 35 39.5t10 34.5q0 24 -18 39.5t-47 15.5q-24 0 -46 -10t-48 -33l-37 43q31 28 64 42t69 14q56 0 91.5 -29.5t35.5 -77.5q0 -30 -15 -56t-53 -60l-86 -77h158v-55h-251z" />
    <glyph glyph-name="threesuperior" unicode="&#xb3;" horiz-adv-x="319" 
d="M154 345q-41 0 -76.5 14t-60.5 40l44 41q21 -22 42 -30.5t51 -8.5q33 0 53 14t20 37q0 21 -18.5 32.5t-49.5 11.5h-32v53h26q27 0 45 15t18 37q0 21 -17.5 34.5t-45.5 13.5q-27 0 -46.5 -9.5t-42.5 -32.5l-44 41q26 27 61.5 42.5t73.5 15.5q56 0 92 -27.5t35 -70.5
q1 -26 -13.5 -47.5t-39.5 -33.5q29 -10 47 -31t18 -49q0 -44 -39.5 -73t-100.5 -29z" />
    <glyph glyph-name="acute" unicode="&#xb4;" 
d="M229 603l92 122h121l-129 -122h-84z" />
    <glyph glyph-name="uni00B5" unicode="&#xb5;" horiz-adv-x="577" 
d="M63 -204v713h99v-305q0 -60 34.5 -95t92.5 -35q41 0 72.5 18.5t52.5 52.5v364h100v-509h-100v69q-28 -39 -67 -58.5t-88 -19.5q-28 0 -52.5 7t-44.5 20v-222h-99z" />
    <glyph glyph-name="paragraph" unicode="&#xb6;" horiz-adv-x="671" 
d="M316 0v274h-50q-68 0 -120.5 27t-82 74.5t-29.5 109.5q0 65 29 113t81.5 75t120.5 27h334v-700h-87v274h-109v-274h-87zM403 356h109v261h-109v-261zM264 356h52v261h-52q-62 0 -100 -35.5t-38 -94.5t38 -95t100 -36z" />
    <glyph glyph-name="periodcentered" unicode="&#xb7;" horiz-adv-x="250" 
d="M125 220q-26 0 -44.5 18.5t-18.5 44.5q0 27 18.5 45.5t44.5 18.5t44.5 -18.5t18.5 -45.5q0 -26 -18.5 -44.5t-44.5 -18.5z" />
    <glyph glyph-name="cedilla" unicode="&#xb8;" 
d="M290 -231q-71 0 -118 43l36 38q38 -31 81 -31q29 0 45 12.5t16 32.5t-17 31.5t-47 11.5h-34l27 93h53l-15 -51q44 -3 69.5 -26t25.5 -59q0 -41 -34.5 -68t-87.5 -27z" />
    <glyph glyph-name="onesuperior" unicode="&#xb9;" horiz-adv-x="177" 
d="M86 350v283l-67 -27v56l91 38h41v-350h-65z" />
    <glyph glyph-name="ordmasculine" unicode="&#xba;" horiz-adv-x="472" 
d="M236 311q-56 0 -101.5 26.5t-72.5 72t-27 101.5t27 101t72.5 72t101.5 27t101.5 -26.5t72.5 -72t27 -101.5t-27 -101.5t-72.5 -72t-101.5 -26.5zM235 382q35 0 62 17t43 46.5t16 64.5q0 37 -16 66.5t-43 46.5t-61 17t-61.5 -17t-43.5 -46.5t-16 -66.5q0 -35 16 -64.5
t43.5 -46.5t60.5 -17z" />
    <glyph glyph-name="guillemotright" unicode="&#xbb;" horiz-adv-x="631" 
d="M367 509l238 -255l-238 -254h-104l232 252l-235 257h107zM142 509l238 -255l-238 -254h-104l232 252l-235 257h107z" />
    <glyph glyph-name="onequarter" unicode="&#xbc;" horiz-adv-x="629" 
d="M506 0v83h-197v53l188 214h75v-212h43v-55h-43v-83h-66zM384 138h122v139zM86 350v283l-67 -27v56l91 38h41v-350h-65zM44 1l394 700h79l-395 -700h-78z" />
    <glyph glyph-name="onehalf" unicode="&#xbd;" horiz-adv-x="660" 
d="M86 350v283l-67 -27v56l91 38h41v-350h-65zM44 0l394 700h79l-395 -700h-78zM389 0v47l138 123q25 23 35 39.5t10 34.5q0 24 -18 39.5t-47 15.5q-24 0 -46 -10t-48 -33l-37 43q31 28 64 42t69 14q56 0 91.5 -29.5t35.5 -77.5q0 -30 -15 -56t-53 -60l-86 -77h158v-55h-251
z" />
    <glyph glyph-name="threequarters" unicode="&#xbe;" horiz-adv-x="722" 
d="M599 0v83h-197v53l188 214h75v-212h43v-55h-43v-83h-66zM477 138h122v139zM154 345q-41 0 -76.5 14t-60.5 40l44 41q21 -22 42 -30.5t51 -8.5q33 0 53 14t20 37q0 21 -18.5 32.5t-49.5 11.5h-32v53h26q27 0 45 15t18 37q0 21 -17.5 34.5t-45.5 13.5q-27 0 -46.5 -9.5
t-42.5 -32.5l-44 41q26 27 61.5 42.5t73.5 15.5q56 0 92 -27.5t35 -70.5q1 -26 -13.5 -47.5t-39.5 -33.5q29 -10 47 -31t18 -49q0 -44 -39.5 -73t-100.5 -29zM138 0l394 700h79l-395 -700h-78z" />
    <glyph glyph-name="questiondown" unicode="&#xbf;" horiz-adv-x="514" 
d="M326 292q2 -46 -5 -79t-25.5 -59t-49.5 -49l-47 -33q-39 -28 -55 -51.5t-16 -52.5q0 -28 17.5 -49t46.5 -34t66 -13q47 0 88 23t69 65l80 -41q-26 -42 -63.5 -72t-82.5 -45.5t-96 -15.5q-64 0 -114 23.5t-79.5 63.5t-29.5 92q0 34 11 62t37 54.5t72 58.5l31 22
q35 23 49 53.5t11 76.5h85zM283 504q26 0 44.5 -18.5t18.5 -44.5t-18.5 -44.5t-44.5 -18.5t-44.5 18.5t-18.5 44.5t18.5 44.5t44.5 18.5z" />
    <glyph glyph-name="Agrave" unicode="&#xc0;" horiz-adv-x="701" 
d="M1 0l289 700h124l286 -700h-114l-81 205h-313l-82 -205h-109zM226 292h245l-122 308zM328 794l-128 122h122l90 -122h-84z" />
    <glyph glyph-name="Aacute" unicode="&#xc1;" horiz-adv-x="701" 
d="M1 0l289 700h124l286 -700h-114l-81 205h-313l-82 -205h-109zM226 292h245l-122 308zM280 794l92 122h121l-129 -122h-84z" />
    <glyph glyph-name="Acircumflex" unicode="&#xc2;" horiz-adv-x="701" 
d="M1 0l289 700h124l286 -700h-114l-81 205h-313l-82 -205h-109zM226 292h245l-122 308zM430 791l-80 77l-79 -77h-81l109 127h104l109 -127h-82z" />
    <glyph glyph-name="Atilde" unicode="&#xc3;" horiz-adv-x="701" 
d="M1 0l289 700h124l286 -700h-114l-81 205h-313l-82 -205h-109zM226 292h245l-122 308zM238 786l-66 13q24 109 103 109q27 0 53 -13t49 -26.5t44 -13.5q17 0 27 12.5t17 43.5l64 -13q-11 -55 -37 -82t-65 -27q-26 0 -52.5 13.5t-50 26.5t-43.5 13q-18 0 -27.5 -13
t-15.5 -43z" />
    <glyph glyph-name="Adieresis" unicode="&#xc4;" horiz-adv-x="701" 
d="M1 0l289 700h124l286 -700h-114l-81 205h-313l-82 -205h-109zM226 292h245l-122 308zM254 799q-25 0 -42 16.5t-17 41.5t17 41.5t42 16.5t42 -16.5t17 -41.5q0 -24 -17 -41t-42 -17zM448 799q-25 0 -42 16.5t-17 41.5t17 41.5t42 16.5t42 -16.5t17 -41.5q0 -24 -17 -41
t-42 -17z" />
    <glyph glyph-name="Aring" unicode="&#xc5;" horiz-adv-x="701" 
d="M1 0l289 700h124l286 -700h-114l-81 205h-313l-82 -205h-109zM226 292h245l-122 308zM351 775q-32 0 -58.5 15.5t-42 42t-15.5 57.5t15.5 57t42 42t58.5 16t58.5 -16t42 -42t15.5 -57t-15.5 -57.5t-42 -42t-58.5 -15.5zM351 823q28 0 47.5 19.5t19.5 47.5t-19.5 47.5
t-47.5 19.5t-47.5 -19.5t-19.5 -47.5t19.5 -47.5t47.5 -19.5z" />
    <glyph glyph-name="AE" unicode="&#xc6;" horiz-adv-x="965" 
d="M1 0l290 700h637v-92h-474l84 -210h255v-89h-220l86 -217h269v-92h-342l-81 205h-313l-82 -205h-109zM226 292h245l-121 307z" />
    <glyph glyph-name="Ccedilla" unicode="&#xc7;" horiz-adv-x="720" 
d="M392 -231q-72 0 -118 43l36 38q37 -31 81 -31q28 0 44 12.5t16 32.5t-17 31.5t-46 11.5h-35l25 84q-72 5 -133.5 34.5t-107.5 77.5t-71 111.5t-25 135.5q0 76 27.5 141.5t78 115t117.5 77t144 27.5q55 0 107.5 -14.5t97 -41.5t77.5 -65l-70 -72q-39 47 -95 71.5
t-117 24.5q-56 0 -103.5 -20t-82.5 -55.5t-54.5 -83.5t-19.5 -105q0 -56 19.5 -104t55.5 -84t84 -56t104 -20q61 0 115.5 24.5t92.5 69.5l69 -70q-48 -53 -115.5 -84t-142.5 -36l-11 -41q44 -3 69.5 -26t25.5 -59q0 -41 -35 -68t-87 -27z" />
    <glyph glyph-name="Egrave" unicode="&#xc8;" horiz-adv-x="628" 
d="M71 0v700h516v-92h-411v-210h270v-89h-270v-217h415v-92h-520zM319 794l-128 122h122l90 -122h-84z" />
    <glyph glyph-name="Eacute" unicode="&#xc9;" horiz-adv-x="628" 
d="M71 0v700h516v-92h-411v-210h270v-89h-270v-217h415v-92h-520zM271 794l92 122h121l-129 -122h-84z" />
    <glyph glyph-name="Ecircumflex" unicode="&#xca;" horiz-adv-x="628" 
d="M71 0v700h516v-92h-411v-210h270v-89h-270v-217h415v-92h-520zM421 791l-80 77l-79 -77h-81l109 127h104l109 -127h-82z" />
    <glyph glyph-name="Edieresis" unicode="&#xcb;" horiz-adv-x="628" 
d="M71 0v700h516v-92h-411v-210h270v-89h-270v-217h415v-92h-520zM245 799q-25 0 -42 16.5t-17 41.5t17 41.5t42 16.5t42 -16.5t17 -41.5q0 -24 -17 -41t-42 -17zM439 799q-25 0 -42 16.5t-17 41.5t17 41.5t42 16.5t42 -16.5t17 -41.5q0 -24 -17 -41t-42 -17z" />
    <glyph glyph-name="Igrave" unicode="&#xcc;" horiz-adv-x="248" 
d="M71 0v700h105v-700h-105zM101 794l-128 122h122l90 -122h-84z" />
    <glyph glyph-name="Iacute" unicode="&#xcd;" horiz-adv-x="248" 
d="M71 0v700h105v-700h-105zM53 794l92 122h121l-129 -122h-84z" />
    <glyph glyph-name="Icircumflex" unicode="&#xce;" horiz-adv-x="248" 
d="M71 0v700h105v-700h-105zM203 791l-80 77l-79 -77h-81l109 127h104l109 -127h-82z" />
    <glyph glyph-name="Idieresis" unicode="&#xcf;" horiz-adv-x="248" 
d="M71 0v700h105v-700h-105zM27 799q-25 0 -42 16.5t-17 41.5t17 41.5t42 16.5t42 -16.5t17 -41.5q0 -24 -17 -41t-42 -17zM221 799q-25 0 -42 16.5t-17 41.5t17 41.5t42 16.5t42 -16.5t17 -41.5q0 -24 -17 -41t-42 -17z" />
    <glyph glyph-name="Eth" unicode="&#xd0;" horiz-adv-x="755" 
d="M98 0v307h-84v86h84v307h247q79 0 146 -26.5t117 -73.5t77.5 -111t27.5 -139q0 -76 -27.5 -139.5t-77 -110.5t-117 -73.5t-146.5 -26.5h-247zM203 94h143q55 0 102.5 19.5t83 54t55 81t19.5 100.5q0 55 -20 102t-55 81.5t-82.5 54t-102.5 19.5h-143v-213h179v-86h-179
v-213z" />
    <glyph glyph-name="Ntilde" unicode="&#xd1;" horiz-adv-x="735" 
d="M71 0v700h102l391 -520v520h99v-700h-92l-400 536v-536h-100zM254 786l-66 13q24 109 103 109q27 0 53 -13t49 -26.5t44 -13.5q17 0 27 12.5t17 43.5l64 -13q-11 -55 -37 -82t-65 -27q-26 0 -52.5 13.5t-50 26.5t-43.5 13q-18 0 -27.5 -13t-15.5 -43z" />
    <glyph glyph-name="Ograve" unicode="&#xd2;" horiz-adv-x="810" 
d="M405 -11q-76 0 -142 27.5t-116.5 77t-78 115t-27.5 141.5t27.5 141.5t78 115t116.5 77t142 27.5t142.5 -27.5t116.5 -77t78 -115t28 -141.5t-28 -141.5t-78 -115t-116.5 -77t-142.5 -27.5zM406 86q54 0 100.5 20t81.5 55.5t55 84t20 104.5q0 57 -20 105t-55 83.5
t-81.5 55.5t-100.5 20q-55 0 -102 -20t-82 -55.5t-54.5 -83.5t-19.5 -104q0 -57 19.5 -105.5t54.5 -84t82 -55.5t102 -20zM383 794l-128 122h122l90 -122h-84z" />
    <glyph glyph-name="Oacute" unicode="&#xd3;" horiz-adv-x="810" 
d="M405 -11q-76 0 -142 27.5t-116.5 77t-78 115t-27.5 141.5t27.5 141.5t78 115t116.5 77t142 27.5t142.5 -27.5t116.5 -77t78 -115t28 -141.5t-28 -141.5t-78 -115t-116.5 -77t-142.5 -27.5zM406 86q54 0 100.5 20t81.5 55.5t55 84t20 104.5q0 57 -20 105t-55 83.5
t-81.5 55.5t-100.5 20q-55 0 -102 -20t-82 -55.5t-54.5 -83.5t-19.5 -104q0 -57 19.5 -105.5t54.5 -84t82 -55.5t102 -20zM335 794l92 122h121l-129 -122h-84z" />
    <glyph glyph-name="Ocircumflex" unicode="&#xd4;" horiz-adv-x="810" 
d="M405 -11q-76 0 -142 27.5t-116.5 77t-78 115t-27.5 141.5t27.5 141.5t78 115t116.5 77t142 27.5t142.5 -27.5t116.5 -77t78 -115t28 -141.5t-28 -141.5t-78 -115t-116.5 -77t-142.5 -27.5zM406 86q54 0 100.5 20t81.5 55.5t55 84t20 104.5q0 57 -20 105t-55 83.5
t-81.5 55.5t-100.5 20q-55 0 -102 -20t-82 -55.5t-54.5 -83.5t-19.5 -104q0 -57 19.5 -105.5t54.5 -84t82 -55.5t102 -20zM485 791l-80 77l-79 -77h-81l109 127h104l109 -127h-82z" />
    <glyph glyph-name="Otilde" unicode="&#xd5;" horiz-adv-x="810" 
d="M405 -11q-76 0 -142 27.5t-116.5 77t-78 115t-27.5 141.5t27.5 141.5t78 115t116.5 77t142 27.5t142.5 -27.5t116.5 -77t78 -115t28 -141.5t-28 -141.5t-78 -115t-116.5 -77t-142.5 -27.5zM406 86q54 0 100.5 20t81.5 55.5t55 84t20 104.5q0 57 -20 105t-55 83.5
t-81.5 55.5t-100.5 20q-55 0 -102 -20t-82 -55.5t-54.5 -83.5t-19.5 -104q0 -57 19.5 -105.5t54.5 -84t82 -55.5t102 -20zM293 786l-66 13q24 109 103 109q27 0 53 -13t49 -26.5t44 -13.5q17 0 27 12.5t17 43.5l64 -13q-11 -55 -37 -82t-65 -27q-26 0 -52.5 13.5t-50 26.5
t-43.5 13q-18 0 -27.5 -13t-15.5 -43z" />
    <glyph glyph-name="Odieresis" unicode="&#xd6;" horiz-adv-x="810" 
d="M405 -11q-76 0 -142 27.5t-116.5 77t-78 115t-27.5 141.5t27.5 141.5t78 115t116.5 77t142 27.5t142.5 -27.5t116.5 -77t78 -115t28 -141.5t-28 -141.5t-78 -115t-116.5 -77t-142.5 -27.5zM406 86q54 0 100.5 20t81.5 55.5t55 84t20 104.5q0 57 -20 105t-55 83.5
t-81.5 55.5t-100.5 20q-55 0 -102 -20t-82 -55.5t-54.5 -83.5t-19.5 -104q0 -57 19.5 -105.5t54.5 -84t82 -55.5t102 -20zM309 799q-25 0 -42 16.5t-17 41.5t17 41.5t42 16.5t42 -16.5t17 -41.5q0 -24 -17 -41t-42 -17zM503 799q-25 0 -42 16.5t-17 41.5t17 41.5t42 16.5
t42 -16.5t17 -41.5q0 -24 -17 -41t-42 -17z" />
    <glyph glyph-name="multiply" unicode="&#xd7;" 
d="M154 153l-47 51l144 154l-145 156l48 52l146 -156l146 155l48 -50l-146 -155l146 -156l-50 -52l-145 155z" />
    <glyph glyph-name="Oslash" unicode="&#xd8;" horiz-adv-x="810" 
d="M406 -11q-57 0 -108.5 15.5t-95.5 44.5l-40 -49h-99l80 97q-48 49 -75 114t-27 139q0 76 27.5 141.5t77.5 115t116.5 77t143.5 27.5q55 0 105 -15t92 -42l38 46h101l-78 -94q49 -48 77.5 -114t28.5 -142t-28 -141.5t-78 -115t-116 -77t-142 -27.5zM209 178l330 399
q-29 18 -62.5 27.5t-70.5 9.5q-55 0 -102 -20t-82 -55.5t-54.5 -83.5t-19.5 -105q0 -50 16.5 -94.5t44.5 -77.5zM406 86q54 0 100.5 20t81.5 55.5t55 84t20 104.5q0 52 -17 97t-47 79l-332 -400q29 -19 64.5 -29.5t74.5 -10.5z" />
    <glyph glyph-name="Ugrave" unicode="&#xd9;" horiz-adv-x="713" 
d="M356 -11q-91 0 -158 38t-103 107.5t-36 164.5v401h105v-401q0 -65 23.5 -113t67 -74t101.5 -26q60 0 103 26t66.5 74t23.5 113v401h105v-401q0 -95 -36.5 -164.5t-103.5 -107.5t-158 -38zM334 794l-128 122h122l90 -122h-84z" />
    <glyph glyph-name="Uacute" unicode="&#xda;" horiz-adv-x="713" 
d="M356 -11q-91 0 -158 38t-103 107.5t-36 164.5v401h105v-401q0 -65 23.5 -113t67 -74t101.5 -26q60 0 103 26t66.5 74t23.5 113v401h105v-401q0 -95 -36.5 -164.5t-103.5 -107.5t-158 -38zM285 794l92 122h121l-129 -122h-84z" />
    <glyph glyph-name="Ucircumflex" unicode="&#xdb;" horiz-adv-x="713" 
d="M356 -11q-91 0 -158 38t-103 107.5t-36 164.5v401h105v-401q0 -65 23.5 -113t67 -74t101.5 -26q60 0 103 26t66.5 74t23.5 113v401h105v-401q0 -95 -36.5 -164.5t-103.5 -107.5t-158 -38zM435 791l-80 77l-79 -77h-81l109 127h104l109 -127h-82z" />
    <glyph glyph-name="Udieresis" unicode="&#xdc;" horiz-adv-x="713" 
d="M356 -11q-91 0 -158 38t-103 107.5t-36 164.5v401h105v-401q0 -65 23.5 -113t67 -74t101.5 -26q60 0 103 26t66.5 74t23.5 113v401h105v-401q0 -95 -36.5 -164.5t-103.5 -107.5t-158 -38zM259 799q-25 0 -42 16.5t-17 41.5t17 41.5t42 16.5t42 -16.5t17 -41.5
q0 -24 -17 -41t-42 -17zM453 799q-25 0 -42 16.5t-17 41.5t17 41.5t42 16.5t42 -16.5t17 -41.5q0 -24 -17 -41t-42 -17z" />
    <glyph glyph-name="Yacute" unicode="&#xdd;" horiz-adv-x="666" 
d="M281 0v278l-282 422h122l215 -329l215 329h117l-282 -424v-276h-105zM263 794l92 122h121l-129 -122h-84z" />
    <glyph glyph-name="Thorn" unicode="&#xde;" horiz-adv-x="654" 
d="M71 0v700h105v-136h220q64 0 114 -28t79 -76.5t29 -110.5q0 -60 -29 -108.5t-79 -76t-114 -27.5h-220v-137h-105zM176 226h208q37 0 65.5 16t45 43.5t16.5 62.5q0 36 -16.5 64t-45 44t-65.5 16h-208v-246z" />
    <glyph glyph-name="germandbls" unicode="&#xdf;" horiz-adv-x="652" 
d="M443 -11q-118 0 -203 81l55 56q66 -65 145 -65q47 0 74.5 19.5t27.5 50.5q0 30 -16.5 47.5t-58.5 30.5l-82 27q-59 20 -84 45t-25 63q0 35 18.5 57t45.5 38t54.5 30.5t46 32.5t18.5 45q0 40 -39.5 65t-101.5 25q-77 0 -118.5 -42.5t-41.5 -123.5v-471h-99v471
q0 117 68 182t189 65q73 0 127 -19.5t84 -55.5t30 -85q0 -40 -19 -66.5t-46.5 -44.5t-55 -31t-46 -26.5t-18.5 -32.5q0 -18 12 -28.5t48 -23.5l77 -26q67 -23 96 -55.5t29 -84.5q0 -68 -52 -109t-139 -41z" />
    <glyph glyph-name="agrave" unicode="&#xe0;" horiz-adv-x="532" 
d="M220 -9q-55 0 -97 19.5t-66 54.5t-24 81q0 72 55 113.5t151 41.5q75 0 139 -29v54q0 55 -31.5 82t-92.5 27q-35 0 -73 -10.5t-85 -32.5l-37 75q58 27 108 39.5t101 12.5q99 0 153.5 -47t54.5 -134v-338h-98v44q-34 -27 -73 -40t-85 -13zM129 148q0 -37 31.5 -59.5
t82.5 -22.5q40 0 73.5 11.5t61.5 36.5v86q-29 17 -60.5 24.5t-70.5 7.5q-55 0 -86.5 -22.5t-31.5 -61.5zM235 603l-128 122h122l90 -122h-84z" />
    <glyph glyph-name="aacute" unicode="&#xe1;" horiz-adv-x="532" 
d="M220 -9q-55 0 -97 19.5t-66 54.5t-24 81q0 72 55 113.5t151 41.5q75 0 139 -29v54q0 55 -31.5 82t-92.5 27q-35 0 -73 -10.5t-85 -32.5l-37 75q58 27 108 39.5t101 12.5q99 0 153.5 -47t54.5 -134v-338h-98v44q-34 -27 -73 -40t-85 -13zM129 148q0 -37 31.5 -59.5
t82.5 -22.5q40 0 73.5 11.5t61.5 36.5v86q-29 17 -60.5 24.5t-70.5 7.5q-55 0 -86.5 -22.5t-31.5 -61.5zM187 603l92 122h121l-129 -122h-84z" />
    <glyph glyph-name="acircumflex" unicode="&#xe2;" horiz-adv-x="532" 
d="M220 -9q-55 0 -97 19.5t-66 54.5t-24 81q0 72 55 113.5t151 41.5q75 0 139 -29v54q0 55 -31.5 82t-92.5 27q-35 0 -73 -10.5t-85 -32.5l-37 75q58 27 108 39.5t101 12.5q99 0 153.5 -47t54.5 -134v-338h-98v44q-34 -27 -73 -40t-85 -13zM129 148q0 -37 31.5 -59.5
t82.5 -22.5q40 0 73.5 11.5t61.5 36.5v86q-29 17 -60.5 24.5t-70.5 7.5q-55 0 -86.5 -22.5t-31.5 -61.5zM337 600l-80 77l-79 -77h-81l109 127h104l109 -127h-82z" />
    <glyph glyph-name="atilde" unicode="&#xe3;" horiz-adv-x="532" 
d="M220 -9q-55 0 -97 19.5t-66 54.5t-24 81q0 72 55 113.5t151 41.5q75 0 139 -29v54q0 55 -31.5 82t-92.5 27q-35 0 -73 -10.5t-85 -32.5l-37 75q58 27 108 39.5t101 12.5q99 0 153.5 -47t54.5 -134v-338h-98v44q-34 -27 -73 -40t-85 -13zM129 148q0 -37 31.5 -59.5
t82.5 -22.5q40 0 73.5 11.5t61.5 36.5v86q-29 17 -60.5 24.5t-70.5 7.5q-55 0 -86.5 -22.5t-31.5 -61.5zM145 596l-66 13q24 109 103 109q27 0 53 -13t49 -26.5t44 -13.5q17 0 27 12.5t17 43.5l64 -13q-11 -55 -37 -82t-65 -27q-26 0 -52.5 13.5t-50 26.5t-43.5 13
q-18 0 -27.5 -13t-15.5 -43z" />
    <glyph glyph-name="adieresis" unicode="&#xe4;" horiz-adv-x="532" 
d="M220 -9q-55 0 -97 19.5t-66 54.5t-24 81q0 72 55 113.5t151 41.5q75 0 139 -29v54q0 55 -31.5 82t-92.5 27q-35 0 -73 -10.5t-85 -32.5l-37 75q58 27 108 39.5t101 12.5q99 0 153.5 -47t54.5 -134v-338h-98v44q-34 -27 -73 -40t-85 -13zM129 148q0 -37 31.5 -59.5
t82.5 -22.5q40 0 73.5 11.5t61.5 36.5v86q-29 17 -60.5 24.5t-70.5 7.5q-55 0 -86.5 -22.5t-31.5 -61.5zM161 608q-25 0 -42 16.5t-17 41.5t17 41.5t42 16.5t42 -16.5t17 -41.5q0 -24 -17 -41t-42 -17zM355 608q-25 0 -42 16.5t-17 41.5t17 41.5t42 16.5t42 -16.5t17 -41.5
q0 -24 -17 -41t-42 -17z" />
    <glyph glyph-name="aring" unicode="&#xe5;" horiz-adv-x="532" 
d="M220 -9q-55 0 -97 19.5t-66 54.5t-24 81q0 72 55 113.5t151 41.5q75 0 139 -29v54q0 55 -31.5 82t-92.5 27q-35 0 -73 -10.5t-85 -32.5l-37 75q58 27 108 39.5t101 12.5q99 0 153.5 -47t54.5 -134v-338h-98v44q-34 -27 -73 -40t-85 -13zM129 148q0 -37 31.5 -59.5
t82.5 -22.5q40 0 73.5 11.5t61.5 36.5v86q-29 17 -60.5 24.5t-70.5 7.5q-55 0 -86.5 -22.5t-31.5 -61.5zM258 584q-32 0 -58.5 15.5t-42 42t-15.5 57.5t15.5 57t42 42t58.5 16t58.5 -16t42 -42t15.5 -57t-15.5 -57.5t-42 -42t-58.5 -15.5zM258 632q28 0 47.5 19.5t19.5 47.5
t-19.5 47.5t-47.5 19.5t-47.5 -19.5t-19.5 -47.5t19.5 -47.5t47.5 -19.5z" />
    <glyph glyph-name="ae" unicode="&#xe6;" horiz-adv-x="915" 
d="M220 -9q-55 0 -96.5 19.5t-64.5 54.5t-23 81q0 72 55 113.5t150 41.5q74 0 137 -27v52q0 55 -31.5 82t-92.5 27q-35 0 -73 -10.5t-85 -32.5l-37 75q58 27 108 39.5t101 12.5q67 0 113 -22t68 -65q34 40 81.5 63t102.5 23q70 0 125.5 -35.5t88 -96t32.5 -136.5v-28h-401
q8 -42 31 -75t60 -52t80 -19q37 0 71 11.5t58 33.5l64 -63q-45 -34 -92.5 -50.5t-104.5 -16.5q-64 0 -117.5 26t-90.5 70q-43 -48 -97 -72t-120 -24zM479 297h301q-7 40 -28 70.5t-52.5 48t-68.5 17.5q-38 0 -70 -17t-53.5 -47.5t-28.5 -71.5zM243 66q47 0 86.5 19t72.5 57
q-6 13 -10.5 27.5t-8.5 29.5q-29 17 -62 25t-72 8q-54 0 -86 -22.5t-32 -61.5q0 -37 31 -59.5t81 -22.5z" />
    <glyph glyph-name="ccedilla" unicode="&#xe7;" horiz-adv-x="521" 
d="M283 -231q-71 0 -118 43l37 38q37 -31 81 -31q28 0 44 12.5t16 32.5t-17 31.5t-46 11.5h-35l25 85q-67 7 -120 43t-83.5 93t-30.5 127q0 74 35 133.5t94.5 95t132.5 35.5q58 0 111.5 -22t92.5 -62l-62 -69q-29 32 -65 48t-75 16q-46 0 -83.5 -23t-59.5 -63t-22 -89
t22 -89t60 -63.5t85 -23.5q39 0 73 15.5t64 45.5l61 -64q-36 -36 -81.5 -57.5t-95.5 -26.5l-12 -43q44 -3 69.5 -26t25.5 -59q0 -41 -35 -68t-88 -27z" />
    <glyph glyph-name="egrave" unicode="&#xe8;" horiz-adv-x="573" 
d="M303 -9q-75 0 -135.5 35t-96 95t-35.5 134q0 73 34 132.5t92 95t129 35.5t126 -35.5t87.5 -96t32.5 -136.5v-28h-401q8 -42 31.5 -75t60 -52t79.5 -19q37 0 71.5 11.5t57.5 33.5l64 -63q-45 -34 -92.5 -50.5t-104.5 -16.5zM137 297h301q-6 40 -27.5 70.5t-53 48
t-68.5 17.5q-38 0 -70 -17t-53.5 -47.5t-28.5 -71.5zM267 603l-128 122h122l90 -122h-84z" />
    <glyph glyph-name="eacute" unicode="&#xe9;" horiz-adv-x="573" 
d="M303 -9q-75 0 -135.5 35t-96 95t-35.5 134q0 73 34 132.5t92 95t129 35.5t126 -35.5t87.5 -96t32.5 -136.5v-28h-401q8 -42 31.5 -75t60 -52t79.5 -19q37 0 71.5 11.5t57.5 33.5l64 -63q-45 -34 -92.5 -50.5t-104.5 -16.5zM137 297h301q-6 40 -27.5 70.5t-53 48
t-68.5 17.5q-38 0 -70 -17t-53.5 -47.5t-28.5 -71.5zM219 603l92 122h121l-129 -122h-84z" />
    <glyph glyph-name="ecircumflex" unicode="&#xea;" horiz-adv-x="573" 
d="M303 -9q-75 0 -135.5 35t-96 95t-35.5 134q0 73 34 132.5t92 95t129 35.5t126 -35.5t87.5 -96t32.5 -136.5v-28h-401q8 -42 31.5 -75t60 -52t79.5 -19q37 0 71.5 11.5t57.5 33.5l64 -63q-45 -34 -92.5 -50.5t-104.5 -16.5zM137 297h301q-6 40 -27.5 70.5t-53 48
t-68.5 17.5q-38 0 -70 -17t-53.5 -47.5t-28.5 -71.5zM369 600l-80 77l-79 -77h-81l109 127h104l109 -127h-82z" />
    <glyph glyph-name="edieresis" unicode="&#xeb;" horiz-adv-x="573" 
d="M303 -9q-75 0 -135.5 35t-96 95t-35.5 134q0 73 34 132.5t92 95t129 35.5t126 -35.5t87.5 -96t32.5 -136.5v-28h-401q8 -42 31.5 -75t60 -52t79.5 -19q37 0 71.5 11.5t57.5 33.5l64 -63q-45 -34 -92.5 -50.5t-104.5 -16.5zM137 297h301q-6 40 -27.5 70.5t-53 48
t-68.5 17.5q-38 0 -70 -17t-53.5 -47.5t-28.5 -71.5zM193 608q-25 0 -42 16.5t-17 41.5t17 41.5t42 16.5t42 -16.5t17 -41.5q0 -24 -17 -41t-42 -17zM387 608q-25 0 -42 16.5t-17 41.5t17 41.5t42 16.5t42 -16.5t17 -41.5q0 -24 -17 -41t-42 -17z" />
    <glyph glyph-name="igrave" unicode="&#xec;" horiz-adv-x="218" 
d="M59 0v509h100v-509h-100zM86 603l-128 122h122l90 -122h-84z" />
    <glyph glyph-name="iacute" unicode="&#xed;" horiz-adv-x="218" 
d="M59 0v509h100v-509h-100zM38 603l92 122h121l-129 -122h-84z" />
    <glyph glyph-name="icircumflex" unicode="&#xee;" horiz-adv-x="218" 
d="M59 0v509h100v-509h-100zM188 600l-80 77l-79 -77h-81l109 127h104l109 -127h-82z" />
    <glyph glyph-name="idieresis" unicode="&#xef;" horiz-adv-x="218" 
d="M59 0v509h100v-509h-100zM12 608q-25 0 -42 16.5t-17 41.5t17 41.5t42 16.5t42 -16.5t17 -41.5q0 -24 -17 -41t-42 -17zM206 608q-25 0 -42 16.5t-17 41.5t17 41.5t42 16.5t42 -16.5t17 -41.5q0 -24 -17 -41t-42 -17z" />
    <glyph glyph-name="eth" unicode="&#xf0;" 
d="M289 -10q-71 0 -128.5 34t-90.5 92t-33 130q0 50 18.5 94t52 77t77.5 51.5t94 18.5q55 0 98.5 -22t70.5 -62q-10 52 -34.5 97.5t-62.5 81.5l-96 -60l-39 56l79 49q-21 16 -45.5 27t-51.5 19l47 70q35 -13 67.5 -29.5t60.5 -37.5l105 67l40 -57l-91 -56
q62 -62 94.5 -145.5t32.5 -184.5q0 -94 -32.5 -163.5t-92 -108t-140.5 -38.5zM292 79q44 0 80 22t56.5 58.5t20.5 82.5q0 45 -20.5 81.5t-56.5 58t-80 21.5q-45 0 -81 -21.5t-57 -58t-21 -81.5q0 -46 21 -82.5t57 -58.5t81 -22z" />
    <glyph glyph-name="ntilde" unicode="&#xf1;" horiz-adv-x="567" 
d="M59 0v509h100v-52q59 62 153 62q59 0 103.5 -25t70 -70t25.5 -104v-320h-100v303q0 60 -33.5 94.5t-93.5 34.5q-40 0 -72 -17t-53 -49v-366h-100zM172 596l-66 13q24 109 103 109q27 0 53 -13t49 -26.5t44 -13.5q17 0 27 12.5t17 43.5l64 -13q-11 -55 -37 -82t-65 -27
q-26 0 -52.5 13.5t-50 26.5t-43.5 13q-18 0 -27.5 -13t-15.5 -43z" />
    <glyph glyph-name="ograve" unicode="&#xf2;" horiz-adv-x="602" 
d="M301 -10q-74 0 -134.5 35t-95.5 95t-35 134t35 134t95.5 95.5t134.5 35.5q75 0 135 -35.5t95 -95.5t35 -134t-35 -134t-95 -95t-135 -35zM301 78q47 0 85 23.5t60 63.5t22 90q0 49 -22.5 88.5t-60 63.5t-84.5 24t-84.5 -24t-60 -63.5t-22.5 -88.5q0 -50 22 -90t60 -63.5
t85 -23.5zM278 603l-128 122h122l90 -122h-84z" />
    <glyph glyph-name="oacute" unicode="&#xf3;" horiz-adv-x="602" 
d="M301 -10q-74 0 -134.5 35t-95.5 95t-35 134t35 134t95.5 95.5t134.5 35.5q75 0 135 -35.5t95 -95.5t35 -134t-35 -134t-95 -95t-135 -35zM301 78q47 0 85 23.5t60 63.5t22 90q0 49 -22.5 88.5t-60 63.5t-84.5 24t-84.5 -24t-60 -63.5t-22.5 -88.5q0 -50 22 -90t60 -63.5
t85 -23.5zM230 603l92 122h121l-129 -122h-84z" />
    <glyph glyph-name="ocircumflex" unicode="&#xf4;" horiz-adv-x="602" 
d="M301 -10q-74 0 -134.5 35t-95.5 95t-35 134t35 134t95.5 95.5t134.5 35.5q75 0 135 -35.5t95 -95.5t35 -134t-35 -134t-95 -95t-135 -35zM301 78q47 0 85 23.5t60 63.5t22 90q0 49 -22.5 88.5t-60 63.5t-84.5 24t-84.5 -24t-60 -63.5t-22.5 -88.5q0 -50 22 -90t60 -63.5
t85 -23.5zM380 600l-80 77l-79 -77h-81l109 127h104l109 -127h-82z" />
    <glyph glyph-name="otilde" unicode="&#xf5;" horiz-adv-x="602" 
d="M301 -10q-74 0 -134.5 35t-95.5 95t-35 134t35 134t95.5 95.5t134.5 35.5q75 0 135 -35.5t95 -95.5t35 -134t-35 -134t-95 -95t-135 -35zM301 78q47 0 85 23.5t60 63.5t22 90q0 49 -22.5 88.5t-60 63.5t-84.5 24t-84.5 -24t-60 -63.5t-22.5 -88.5q0 -50 22 -90t60 -63.5
t85 -23.5zM188 596l-66 13q24 109 103 109q27 0 53 -13t49 -26.5t44 -13.5q17 0 27 12.5t17 43.5l64 -13q-11 -55 -37 -82t-65 -27q-26 0 -52.5 13.5t-50 26.5t-43.5 13q-18 0 -27.5 -13t-15.5 -43z" />
    <glyph glyph-name="odieresis" unicode="&#xf6;" horiz-adv-x="602" 
d="M301 -10q-74 0 -134.5 35t-95.5 95t-35 134t35 134t95.5 95.5t134.5 35.5q75 0 135 -35.5t95 -95.5t35 -134t-35 -134t-95 -95t-135 -35zM301 78q47 0 85 23.5t60 63.5t22 90q0 49 -22.5 88.5t-60 63.5t-84.5 24t-84.5 -24t-60 -63.5t-22.5 -88.5q0 -50 22 -90t60 -63.5
t85 -23.5zM204 608q-25 0 -42 16.5t-17 41.5t17 41.5t42 16.5t42 -16.5t17 -41.5q0 -24 -17 -41t-42 -17zM398 608q-25 0 -42 16.5t-17 41.5t17 41.5t42 16.5t42 -16.5t17 -41.5q0 -24 -17 -41t-42 -17z" />
    <glyph glyph-name="divide" unicode="&#xf7;" 
d="M300 492q-27 0 -45.5 18.5t-18.5 45.5t18.5 46t45.5 19t45.5 -19t18.5 -46q0 -26 -18.5 -45t-45.5 -19zM300 96q-27 0 -45.5 19t-18.5 45q0 27 18.5 46t45.5 19t45.5 -19t18.5 -45q0 -27 -18.5 -46t-45.5 -19zM94 319v78h412v-78h-412z" />
    <glyph glyph-name="oslash" unicode="&#xf8;" horiz-adv-x="602" 
d="M301 -10q-41 0 -78 11.5t-68 31.5l-28 -33h-77l59 70q-34 36 -53.5 83.5t-19.5 101.5q0 74 35 134t95.5 95t134.5 35q41 0 77.5 -11t67.5 -31l27 32h78l-59 -70q34 -35 53.5 -82.5t19.5 -101.5q0 -74 -35 -134.5t-95 -95.5t-134 -35zM170 145l218 261q-19 12 -40.5 18.5
t-46.5 6.5q-47 0 -84.5 -23.5t-60 -63t-22.5 -89.5q0 -32 9.5 -60t26.5 -50zM301 78q47 0 85 23.5t59.5 64t21.5 89.5q0 32 -9.5 60t-26.5 50l-217 -261q18 -12 40.5 -19t46.5 -7z" />
    <glyph glyph-name="ugrave" unicode="&#xf9;" horiz-adv-x="567" 
d="M256 -10q-59 0 -104 25t-70 70.5t-25 104.5v319h99v-302q0 -60 34.5 -95t92.5 -35q41 0 73 17.5t52 49.5v365h100v-509h-100v52q-59 -62 -152 -62zM261 603l-128 122h122l90 -122h-84z" />
    <glyph glyph-name="uacute" unicode="&#xfa;" horiz-adv-x="567" 
d="M256 -10q-59 0 -104 25t-70 70.5t-25 104.5v319h99v-302q0 -60 34.5 -95t92.5 -35q41 0 73 17.5t52 49.5v365h100v-509h-100v52q-59 -62 -152 -62zM212 603l92 122h121l-129 -122h-84z" />
    <glyph glyph-name="ucircumflex" unicode="&#xfb;" horiz-adv-x="567" 
d="M256 -10q-59 0 -104 25t-70 70.5t-25 104.5v319h99v-302q0 -60 34.5 -95t92.5 -35q41 0 73 17.5t52 49.5v365h100v-509h-100v52q-59 -62 -152 -62zM362 600l-80 77l-79 -77h-81l109 127h104l109 -127h-82z" />
    <glyph glyph-name="udieresis" unicode="&#xfc;" horiz-adv-x="567" 
d="M256 -10q-59 0 -104 25t-70 70.5t-25 104.5v319h99v-302q0 -60 34.5 -95t92.5 -35q41 0 73 17.5t52 49.5v365h100v-509h-100v52q-59 -62 -152 -62zM186 608q-25 0 -42 16.5t-17 41.5t17 41.5t42 16.5t42 -16.5t17 -41.5q0 -24 -17 -41t-42 -17zM380 608q-25 0 -42 16.5
t-17 41.5t17 41.5t42 16.5t42 -16.5t17 -41.5q0 -24 -17 -41t-42 -17z" />
    <glyph glyph-name="yacute" unicode="&#xfd;" horiz-adv-x="537" 
d="M93 -215q-16 0 -30 1.5t-23 4.5v88q18 -4 44 -4q70 0 101 75l22 49l-204 510h111l148 -388l164 388h108l-246 -572q-24 -54 -51 -87.5t-62 -49t-82 -15.5zM194 603l92 122h121l-129 -122h-84z" />
    <glyph glyph-name="thorn" unicode="&#xfe;" horiz-adv-x="609" 
d="M59 -206v906l100 22v-261q64 56 155 56q72 0 130.5 -35t92.5 -94t34 -133t-34.5 -133.5t-93 -94.5t-131.5 -35q-42 0 -81 13.5t-72 38.5v-250h-100zM301 430q-43 0 -80 -16t-62 -45v-230q25 -28 62.5 -44t79.5 -16q49 0 87.5 23t61.5 62.5t23 89.5t-23 90t-61.5 63
t-87.5 23z" />
    <glyph glyph-name="ydieresis" unicode="&#xff;" horiz-adv-x="537" 
d="M93 -215q-16 0 -30 1.5t-23 4.5v88q18 -4 44 -4q70 0 101 75l22 49l-204 510h111l148 -388l164 388h108l-246 -572q-24 -54 -51 -87.5t-62 -49t-82 -15.5zM168 608q-25 0 -42 16.5t-17 41.5t17 41.5t42 16.5t42 -16.5t17 -41.5q0 -24 -17 -41t-42 -17zM362 608
q-25 0 -42 16.5t-17 41.5t17 41.5t42 16.5t42 -16.5t17 -41.5q0 -24 -17 -41t-42 -17z" />
    <glyph glyph-name="Amacron" unicode="&#x100;" horiz-adv-x="701" 
d="M1 0l289 700h124l286 -700h-114l-81 205h-313l-82 -205h-109zM226 292h245l-122 308zM202 813v67h298v-67h-298z" />
    <glyph glyph-name="amacron" unicode="&#x101;" horiz-adv-x="532" 
d="M220 -9q-55 0 -97 19.5t-66 54.5t-24 81q0 72 55 113.5t151 41.5q75 0 139 -29v54q0 55 -31.5 82t-92.5 27q-35 0 -73 -10.5t-85 -32.5l-37 75q58 27 108 39.5t101 12.5q99 0 153.5 -47t54.5 -134v-338h-98v44q-34 -27 -73 -40t-85 -13zM129 148q0 -37 31.5 -59.5
t82.5 -22.5q40 0 73.5 11.5t61.5 36.5v86q-29 17 -60.5 24.5t-70.5 7.5q-55 0 -86.5 -22.5t-31.5 -61.5zM109 622v67h298v-67h-298z" />
    <glyph glyph-name="Abreve" unicode="&#x102;" horiz-adv-x="701" 
d="M1 0l289 700h124l286 -700h-114l-81 205h-313l-82 -205h-109zM226 292h245l-122 308zM351 786q-63 0 -106 34t-57 94l65 17q23 -84 98 -84q36 0 61 21t37 63l65 -17q-14 -60 -57 -94t-106 -34z" />
    <glyph glyph-name="abreve" unicode="&#x103;" horiz-adv-x="532" 
d="M220 -9q-55 0 -97 19.5t-66 54.5t-24 81q0 72 55 113.5t151 41.5q75 0 139 -29v54q0 55 -31.5 82t-92.5 27q-35 0 -73 -10.5t-85 -32.5l-37 75q58 27 108 39.5t101 12.5q99 0 153.5 -47t54.5 -134v-338h-98v44q-34 -27 -73 -40t-85 -13zM129 148q0 -37 31.5 -59.5
t82.5 -22.5q40 0 73.5 11.5t61.5 36.5v86q-29 17 -60.5 24.5t-70.5 7.5q-55 0 -86.5 -22.5t-31.5 -61.5zM258 595q-63 0 -106 34t-57 94l65 17q23 -84 98 -84q36 0 61 21t37 63l65 -17q-14 -60 -57 -94t-106 -34z" />
    <glyph glyph-name="Aogonek" unicode="&#x104;" horiz-adv-x="701" 
d="M639 -221q-45 0 -73 24t-28 64q0 36 23 67.5t73 65.5h-48l-81 205h-313l-82 -205h-109l290 700h123l287 -700q-52 -31 -76 -59.5t-24 -56.5q0 -23 14.5 -35.5t40.5 -12.5q12 0 23.5 3t20.5 10l17 -48q-16 -10 -36 -16t-42 -6zM226 292h245l-121 307z" />
    <glyph glyph-name="aogonek" unicode="&#x105;" horiz-adv-x="532" 
d="M415 -221q-45 0 -73 24t-28 64q0 36 23 67.5t72 65.5h-31v44q-34 -27 -73 -40t-85 -13q-55 0 -97 19.5t-66 54.5t-24 81q0 72 55 113.5t151 41.5q75 0 139 -29v54q0 55 -31.5 82t-92.5 27q-35 0 -73 -10.5t-85 -32.5l-37 75q58 27 108 39.5t101 12.5q99 0 153.5 -47
t54.5 -134v-338q-52 -31 -75.5 -59.5t-23.5 -56.5q0 -23 14 -35.5t41 -12.5q11 0 23 3t21 10l17 -48q-16 -10 -36 -16t-42 -6zM243 66q40 0 73.5 11.5t61.5 36.5v86q-29 17 -60.5 24.5t-70.5 7.5q-55 0 -86.5 -22.5t-31.5 -61.5q0 -37 31.5 -59.5t82.5 -22.5z" />
    <glyph glyph-name="Cacute" unicode="&#x106;" horiz-adv-x="720" 
d="M408 -11q-78 0 -144.5 27.5t-117 77t-78 115t-27.5 141.5t27.5 141.5t78 115t117.5 77t144 27.5q55 0 107.5 -14.5t97 -41.5t77.5 -65l-70 -72q-39 47 -95 71.5t-117 24.5q-56 0 -103.5 -20t-82.5 -55.5t-54.5 -83.5t-19.5 -105q0 -56 19.5 -104t55.5 -84t84 -56t104 -20
q61 0 115.5 24.5t92.5 69.5l69 -70q-35 -37 -79.5 -64.5t-96 -42t-104.5 -14.5zM333 794l92 122h121l-129 -122h-84z" />
    <glyph glyph-name="cacute" unicode="&#x107;" horiz-adv-x="521" 
d="M298 -9q-73 0 -133 35t-94.5 95t-34.5 134t35 133.5t94.5 95t132.5 35.5q58 0 111.5 -22t92.5 -62l-62 -69q-29 32 -65 48t-75 16q-46 0 -83.5 -23t-59.5 -63t-22 -89t22 -89t60 -63.5t85 -23.5q39 0 73 15.5t64 45.5l61 -64q-40 -41 -92.5 -63t-109.5 -22zM226 603
l92 122h121l-129 -122h-84z" />
    <glyph glyph-name="Ccircumflex" unicode="&#x108;" horiz-adv-x="720" 
d="M408 -11q-78 0 -144.5 27.5t-117 77t-78 115t-27.5 141.5t27.5 141.5t78 115t117.5 77t144 27.5q55 0 107.5 -14.5t97 -41.5t77.5 -65l-70 -72q-39 47 -95 71.5t-117 24.5q-56 0 -103.5 -20t-82.5 -55.5t-54.5 -83.5t-19.5 -105q0 -56 19.5 -104t55.5 -84t84 -56t104 -20
q61 0 115.5 24.5t92.5 69.5l69 -70q-35 -37 -79.5 -64.5t-96 -42t-104.5 -14.5zM483 791l-80 77l-79 -77h-81l109 127h104l109 -127h-82z" />
    <glyph glyph-name="ccircumflex" unicode="&#x109;" horiz-adv-x="521" 
d="M298 -9q-73 0 -133 35t-94.5 95t-34.5 134t35 133.5t94.5 95t132.5 35.5q58 0 111.5 -22t92.5 -62l-62 -69q-29 32 -65 48t-75 16q-46 0 -83.5 -23t-59.5 -63t-22 -89t22 -89t60 -63.5t85 -23.5q39 0 73 15.5t64 45.5l61 -64q-40 -41 -92.5 -63t-109.5 -22zM376 600
l-80 77l-79 -77h-81l109 127h104l109 -127h-82z" />
    <glyph glyph-name="Cdotaccent" unicode="&#x10a;" horiz-adv-x="720" 
d="M408 -11q-78 0 -144.5 27.5t-117 77t-78 115t-27.5 141.5t27.5 141.5t78 115t117.5 77t144 27.5q55 0 107.5 -14.5t97 -41.5t77.5 -65l-70 -72q-39 47 -95 71.5t-117 24.5q-56 0 -103.5 -20t-82.5 -55.5t-54.5 -83.5t-19.5 -105q0 -56 19.5 -104t55.5 -84t84 -56t104 -20
q61 0 115.5 24.5t92.5 69.5l69 -70q-35 -37 -79.5 -64.5t-96 -42t-104.5 -14.5zM404 793q-25 0 -42.5 17t-17.5 42q0 24 17.5 41t42.5 17t42.5 -17t17.5 -41q0 -25 -17.5 -42t-42.5 -17z" />
    <glyph glyph-name="cdotaccent" unicode="&#x10b;" horiz-adv-x="521" 
d="M298 -9q-73 0 -133 35t-94.5 95t-34.5 134t35 133.5t94.5 95t132.5 35.5q58 0 111.5 -22t92.5 -62l-62 -69q-29 32 -65 48t-75 16q-46 0 -83.5 -23t-59.5 -63t-22 -89t22 -89t60 -63.5t85 -23.5q39 0 73 15.5t64 45.5l61 -64q-40 -41 -92.5 -63t-109.5 -22zM297 602
q-25 0 -42.5 17t-17.5 42q0 24 17.5 41t42.5 17t42.5 -17t17.5 -41q0 -25 -17.5 -42t-42.5 -17z" />
    <glyph glyph-name="Ccaron" unicode="&#x10c;" horiz-adv-x="720" 
d="M408 -11q-78 0 -144.5 27.5t-117 77t-78 115t-27.5 141.5t27.5 141.5t78 115t117.5 77t144 27.5q55 0 107.5 -14.5t97 -41.5t77.5 -65l-70 -72q-39 47 -95 71.5t-117 24.5q-56 0 -103.5 -20t-82.5 -55.5t-54.5 -83.5t-19.5 -105q0 -56 19.5 -104t55.5 -84t84 -56t104 -20
q61 0 115.5 24.5t92.5 69.5l69 -70q-35 -37 -79.5 -64.5t-96 -42t-104.5 -14.5zM326 918l79 -76l78 76h82l-109 -126h-104l-109 126h83z" />
    <glyph glyph-name="ccaron" unicode="&#x10d;" horiz-adv-x="521" 
d="M298 -9q-73 0 -133 35t-94.5 95t-34.5 134t35 133.5t94.5 95t132.5 35.5q58 0 111.5 -22t92.5 -62l-62 -69q-29 32 -65 48t-75 16q-46 0 -83.5 -23t-59.5 -63t-22 -89t22 -89t60 -63.5t85 -23.5q39 0 73 15.5t64 45.5l61 -64q-40 -41 -92.5 -63t-109.5 -22zM219 727
l79 -76l78 76h82l-109 -126h-104l-109 126h83z" />
    <glyph glyph-name="Dcaron" unicode="&#x10e;" horiz-adv-x="727" 
d="M176 94h144q55 0 102 19.5t82.5 54t55 81t19.5 101.5q0 54 -19.5 101t-55 81.5t-82.5 54t-102 19.5h-144v-512zM71 0v700h247q79 0 146 -26.5t117 -73.5t78 -111t28 -139q0 -76 -27.5 -139.5t-77.5 -110.5t-117.5 -73.5t-146.5 -26.5h-247zM286 918l79 -76l78 76h82
l-109 -126h-104l-109 126h83z" />
    <glyph glyph-name="dcaron" unicode="&#x10f;" horiz-adv-x="695" 
d="M293 -8q-71 0 -130 35t-93 94.5t-34 133.5t34.5 133t93.5 94t131 35q42 0 81 -13t72 -38v234l100 19v-719h-99v49q-65 -57 -156 -57zM306 79q44 0 80.5 16t61.5 46v229q-25 28 -61.5 44.5t-80.5 16.5q-48 0 -87 -23t-62 -62.5t-23 -89.5t23 -90t62 -63.5t87 -23.5z
M618 505l5 195l90 15l-29 -210h-66z" />
    <glyph glyph-name="Dcroat" unicode="&#x110;" horiz-adv-x="755" 
d="M98 0v307h-84v86h84v307h247q79 0 146 -26.5t117 -73.5t77.5 -111t27.5 -139q0 -76 -27.5 -139.5t-77 -110.5t-117 -73.5t-146.5 -26.5h-247zM203 94h143q55 0 102.5 19.5t83 54t55 81t19.5 100.5q0 55 -20 102t-55 81.5t-82.5 54t-102.5 19.5h-143v-213h179v-86h-179
v-213z" />
    <glyph glyph-name="dcroat" unicode="&#x111;" horiz-adv-x="606" 
d="M293 -8q-71 0 -130 35t-93 94.5t-34 133.5t34 133t93.5 94t131.5 35q42 0 81 -13t72 -38v117h-154v69h154v48l100 22v-70h59v-69h-59v-583h-99v49q-65 -57 -156 -57zM306 79q44 0 80.5 16t61.5 46v229q-25 28 -61.5 44.5t-80.5 16.5q-48 0 -87 -23t-62 -62.5t-23 -89.5
t23 -90t62 -63.5t87 -23.5z" />
    <glyph glyph-name="Emacron" unicode="&#x112;" horiz-adv-x="628" 
d="M71 0v700h516v-92h-411v-210h270v-89h-270v-217h415v-92h-520zM193 813v67h298v-67h-298z" />
    <glyph glyph-name="emacron" unicode="&#x113;" horiz-adv-x="573" 
d="M303 -9q-75 0 -135.5 35t-96 95t-35.5 134q0 73 34 132.5t92 95t129 35.5t126 -35.5t87.5 -96t32.5 -136.5v-28h-401q8 -42 31.5 -75t60 -52t79.5 -19q37 0 71.5 11.5t57.5 33.5l64 -63q-45 -34 -92.5 -50.5t-104.5 -16.5zM137 297h301q-6 40 -27.5 70.5t-53 48
t-68.5 17.5q-38 0 -70 -17t-53.5 -47.5t-28.5 -71.5zM141 622v67h298v-67h-298z" />
    <glyph glyph-name="Ebreve" unicode="&#x114;" horiz-adv-x="628" 
d="M71 0v700h516v-92h-411v-210h270v-89h-270v-217h415v-92h-520zM342 786q-63 0 -106 34t-57 94l65 17q23 -84 98 -84q36 0 61 21t37 63l65 -17q-14 -60 -57 -94t-106 -34z" />
    <glyph glyph-name="ebreve" unicode="&#x115;" horiz-adv-x="573" 
d="M303 -9q-75 0 -135.5 35t-96 95t-35.5 134q0 73 34 132.5t92 95t129 35.5t126 -35.5t87.5 -96t32.5 -136.5v-28h-401q8 -42 31.5 -75t60 -52t79.5 -19q37 0 71.5 11.5t57.5 33.5l64 -63q-45 -34 -92.5 -50.5t-104.5 -16.5zM137 297h301q-6 40 -27.5 70.5t-53 48
t-68.5 17.5q-38 0 -70 -17t-53.5 -47.5t-28.5 -71.5zM290 595q-63 0 -106 34t-57 94l65 17q23 -84 98 -84q36 0 61 21t37 63l65 -17q-14 -60 -57 -94t-106 -34z" />
    <glyph glyph-name="Edotaccent" unicode="&#x116;" horiz-adv-x="628" 
d="M71 0v700h516v-92h-411v-210h270v-89h-270v-217h415v-92h-520zM342 793q-25 0 -42.5 17t-17.5 42q0 24 17.5 41t42.5 17t42.5 -17t17.5 -41q0 -25 -17.5 -42t-42.5 -17z" />
    <glyph glyph-name="edotaccent" unicode="&#x117;" horiz-adv-x="573" 
d="M303 -9q-75 0 -135.5 35t-96 95t-35.5 134q0 73 34 132.5t92 95t129 35.5t126 -35.5t87.5 -96t32.5 -136.5v-28h-401q8 -42 31.5 -75t60 -52t79.5 -19q37 0 71.5 11.5t57.5 33.5l64 -63q-45 -34 -92.5 -50.5t-104.5 -16.5zM137 297h301q-6 40 -27.5 70.5t-53 48
t-68.5 17.5q-38 0 -70 -17t-53.5 -47.5t-28.5 -71.5zM290 602q-25 0 -42.5 17t-17.5 42q0 24 17.5 41t42.5 17t42.5 -17t17.5 -41q0 -25 -17.5 -42t-42.5 -17z" />
    <glyph glyph-name="Eogonek" unicode="&#x118;" horiz-adv-x="628" 
d="M608 -199q-16 -10 -36 -16t-42 -6q-45 0 -73 24t-28 64q0 36 23 67.5t73 65.5h-454v700h516v-92h-411v-210h270v-89h-270v-217h415v-92q-51 -31 -75 -59.5t-24 -56.5q0 -23 14 -35.5t41 -12.5q11 0 23 3t21 10z" />
    <glyph glyph-name="eogonek" unicode="&#x119;" horiz-adv-x="573" 
d="M321 -221q-46 0 -73.5 24t-27.5 64q0 34 19.5 63.5t62.5 60.5q-75 1 -135.5 36t-95.5 94.5t-35 133.5q0 73 34 132.5t92 95t129 35.5t126 -35.5t87.5 -96t32.5 -136.5v-28h-401q8 -42 31.5 -75t60 -52t79.5 -19q37 0 71.5 11.5t57.5 33.5l64 -63q-28 -22 -57.5 -36.5
t-61.5 -22.5q-51 -31 -74.5 -59t-23.5 -56q0 -23 14 -35.5t40 -12.5q12 0 24 3t21 10l17 -48q-17 -10 -36.5 -16t-41.5 -6zM137 297h301q-6 40 -27.5 70.5t-53 48t-68.5 17.5q-38 0 -70 -17t-53.5 -47.5t-28.5 -71.5z" />
    <glyph glyph-name="Ecaron" unicode="&#x11a;" horiz-adv-x="628" 
d="M71 0v700h516v-92h-411v-210h270v-89h-270v-217h415v-92h-520zM264 918l79 -76l78 76h82l-109 -126h-104l-109 126h83z" />
    <glyph glyph-name="ecaron" unicode="&#x11b;" horiz-adv-x="573" 
d="M303 -9q-75 0 -135.5 35t-96 95t-35.5 134q0 73 34 132.5t92 95t129 35.5t126 -35.5t87.5 -96t32.5 -136.5v-28h-401q8 -42 31.5 -75t60 -52t79.5 -19q37 0 71.5 11.5t57.5 33.5l64 -63q-45 -34 -92.5 -50.5t-104.5 -16.5zM137 297h301q-6 40 -27.5 70.5t-53 48
t-68.5 17.5q-38 0 -70 -17t-53.5 -47.5t-28.5 -71.5zM212 727l79 -76l78 76h82l-109 -126h-104l-109 126h83z" />
    <glyph glyph-name="Gcircumflex" unicode="&#x11c;" horiz-adv-x="790" 
d="M407 -11q-77 0 -143.5 28t-116.5 77.5t-78 115t-28 140.5t27.5 140.5t77.5 115t116 77.5t143 28q83 0 157 -32t125 -89l-72 -70q-38 45 -93.5 69.5t-116.5 24.5q-55 0 -101.5 -20t-81.5 -55.5t-54.5 -83.5t-19.5 -105q0 -56 19.5 -104.5t55 -84.5t82.5 -56t102 -20
q62 0 112.5 26t82.5 71.5t39 102.5h-233v92h343v-36q0 -75 -26 -139t-72.5 -112t-109.5 -74.5t-136 -26.5zM484 791l-80 77l-79 -77h-81l109 127h104l109 -127h-82z" />
    <glyph glyph-name="gcircumflex" unicode="&#x11d;" horiz-adv-x="603" 
d="M311 -214q-56 0 -109 13t-96 37l38 78q45 -23 84.5 -33.5t79.5 -10.5q67 0 101.5 31t34.5 91v58q-67 -53 -153 -53q-70 0 -128.5 34.5t-92.5 94t-34 131.5q0 73 34.5 132.5t93 94t131.5 34.5q41 0 79.5 -13.5t70.5 -38.5v43h99v-517q0 -99 -60.5 -152.5t-172.5 -53.5z
M304 83q44 0 80 15.5t60 44.5v228q-24 28 -60.5 44t-79.5 16q-48 0 -86.5 -23t-61 -62.5t-22.5 -88.5t22.5 -88.5t61 -62.5t86.5 -23zM379 600l-80 77l-79 -77h-81l109 127h104l109 -127h-82z" />
    <glyph glyph-name="Gbreve" unicode="&#x11e;" horiz-adv-x="790" 
d="M407 -11q-77 0 -143.5 28t-116.5 77.5t-78 115t-28 140.5t27.5 140.5t77.5 115t116 77.5t143 28q83 0 157 -32t125 -89l-72 -70q-38 45 -93.5 69.5t-116.5 24.5q-55 0 -101.5 -20t-81.5 -55.5t-54.5 -83.5t-19.5 -105q0 -56 19.5 -104.5t55 -84.5t82.5 -56t102 -20
q62 0 112.5 26t82.5 71.5t39 102.5h-233v92h343v-36q0 -75 -26 -139t-72.5 -112t-109.5 -74.5t-136 -26.5zM405 786q-63 0 -106 34t-57 94l65 17q23 -84 98 -84q36 0 61 21t37 63l65 -17q-14 -60 -57 -94t-106 -34z" />
    <glyph glyph-name="gbreve" unicode="&#x11f;" horiz-adv-x="603" 
d="M311 -214q-56 0 -109 13t-96 37l38 78q45 -23 84.5 -33.5t79.5 -10.5q67 0 101.5 31t34.5 91v58q-67 -53 -153 -53q-70 0 -128.5 34.5t-92.5 94t-34 131.5q0 73 34.5 132.5t93 94t131.5 34.5q41 0 79.5 -13.5t70.5 -38.5v43h99v-517q0 -99 -60.5 -152.5t-172.5 -53.5z
M304 83q44 0 80 15.5t60 44.5v228q-24 28 -60.5 44t-79.5 16q-48 0 -86.5 -23t-61 -62.5t-22.5 -88.5t22.5 -88.5t61 -62.5t86.5 -23zM300 595q-63 0 -106 34t-57 94l65 17q23 -84 98 -84q36 0 61 21t37 63l65 -17q-14 -60 -57 -94t-106 -34z" />
    <glyph glyph-name="Gdotaccent" unicode="&#x120;" horiz-adv-x="790" 
d="M407 -11q-77 0 -143.5 28t-116.5 77.5t-78 115t-28 140.5t27.5 140.5t77.5 115t116 77.5t143 28q83 0 157 -32t125 -89l-72 -70q-38 45 -93.5 69.5t-116.5 24.5q-55 0 -101.5 -20t-81.5 -55.5t-54.5 -83.5t-19.5 -105q0 -56 19.5 -104.5t55 -84.5t82.5 -56t102 -20
q62 0 112.5 26t82.5 71.5t39 102.5h-233v92h343v-36q0 -75 -26 -139t-72.5 -112t-109.5 -74.5t-136 -26.5zM405 793q-25 0 -42.5 17t-17.5 42q0 24 17.5 41t42.5 17t42.5 -17t17.5 -41q0 -25 -17.5 -42t-42.5 -17z" />
    <glyph glyph-name="gdotaccent" unicode="&#x121;" horiz-adv-x="603" 
d="M311 -214q-56 0 -109 13t-96 37l38 78q45 -23 84.5 -33.5t79.5 -10.5q67 0 101.5 31t34.5 91v58q-67 -53 -153 -53q-70 0 -128.5 34.5t-92.5 94t-34 131.5q0 73 34.5 132.5t93 94t131.5 34.5q41 0 79.5 -13.5t70.5 -38.5v43h99v-517q0 -99 -60.5 -152.5t-172.5 -53.5z
M304 83q44 0 80 15.5t60 44.5v228q-24 28 -60.5 44t-79.5 16q-48 0 -86.5 -23t-61 -62.5t-22.5 -88.5t22.5 -88.5t61 -62.5t86.5 -23zM300 602q-25 0 -42.5 17t-17.5 42q0 24 17.5 41t42.5 17t42.5 -17t17.5 -41q0 -25 -17.5 -42t-42.5 -17z" />
    <glyph glyph-name="Gcommaaccent" unicode="&#x122;" horiz-adv-x="790" 
d="M407 -11q-77 0 -143.5 28t-116.5 77.5t-78 115t-28 140.5t27.5 140.5t77.5 115t116 77.5t143 28q83 0 157 -32t125 -89l-72 -70q-38 45 -93.5 69.5t-116.5 24.5q-55 0 -101.5 -20t-81.5 -55.5t-54.5 -83.5t-19.5 -105q0 -56 19.5 -104.5t55 -84.5t82.5 -56t102 -20
q62 0 112.5 26t82.5 71.5t39 102.5h-233v92h343v-36q0 -75 -26 -139t-72.5 -112t-109.5 -74.5t-136 -26.5zM316 -273l46 189h96l-68 -189h-74z" />
    <glyph glyph-name="gcommaaccent" unicode="&#x123;" horiz-adv-x="602" 
d="M311 -214q-56 0 -109 13t-96 37l38 78q45 -23 84.5 -33.5t79.5 -10.5q67 0 101.5 31t34.5 91v58q-67 -53 -153 -53q-70 0 -128.5 34.5t-92.5 94t-34 131.5q0 73 34.5 132.5t93 94t131.5 34.5q41 0 79.5 -13.5t70.5 -38.5v43h99v-517q0 -99 -60.5 -152.5t-172.5 -53.5z
M304 83q44 0 80 15.5t60 44.5v228q-24 28 -60.5 44t-79.5 16q-48 0 -86.5 -23t-61 -62.5t-22.5 -88.5t22.5 -88.5t61 -62.5t86.5 -23zM393 800l-46 -189h-96l68 189h74z" />
    <glyph glyph-name="Hcircumflex" unicode="&#x124;" horiz-adv-x="725" 
d="M71 0v700h105v-300h372v300h105v-700h-105v305h-372v-305h-105zM441 791l-80 77l-79 -77h-81l109 127h104l109 -127h-82z" />
    <glyph glyph-name="hcircumflex" unicode="&#x125;" horiz-adv-x="567" 
d="M59 0v700l100 22v-265q59 62 153 62q59 0 103.5 -25t70 -70t25.5 -104v-320h-100v303q0 60 -34 94.5t-93 34.5q-40 0 -72 -17t-53 -49v-366h-100zM187 791l-80 77l-79 -77h-81l109 127h104l109 -127h-82z" />
    <glyph glyph-name="Hbar" unicode="&#x126;" horiz-adv-x="739" 
d="M79 0v512h-66v82h66v106h105v-106h372v106h105v-106h65v-82h-65v-512h-105v305h-372v-305h-105zM184 399h372v113h-372v-113z" />
    <glyph glyph-name="hbar" unicode="&#x127;" horiz-adv-x="567" 
d="M59 0v583h-60v69h60v48l100 22v-70h153v-69h-153v-126q59 62 153 62q59 0 103.5 -25t70 -70t25.5 -104v-320h-100v303q0 60 -33.5 94.5t-93.5 34.5q-40 0 -72 -17t-53 -49v-366h-100z" />
    <glyph glyph-name="Itilde" unicode="&#x128;" horiz-adv-x="248" 
d="M71 0v700h105v-700h-105zM11 786l-66 13q24 109 103 109q27 0 53 -13t49 -26.5t44 -13.5q17 0 27 12.5t17 43.5l64 -13q-11 -55 -37 -82t-65 -27q-26 0 -52.5 13.5t-50 26.5t-43.5 13q-18 0 -27.5 -13t-15.5 -43z" />
    <glyph glyph-name="itilde" unicode="&#x129;" horiz-adv-x="218" 
d="M59 0v509h100v-509h-100zM-4 596l-66 13q24 109 103 109q27 0 53 -13t49 -26.5t44 -13.5q17 0 27 12.5t17 43.5l64 -13q-11 -55 -37 -82t-65 -27q-26 0 -52.5 13.5t-50 26.5t-43.5 13q-18 0 -27.5 -13t-15.5 -43z" />
    <glyph glyph-name="Imacron" unicode="&#x12a;" horiz-adv-x="248" 
d="M71 0v700h105v-700h-105zM-25 813v67h298v-67h-298z" />
    <glyph glyph-name="imacron" unicode="&#x12b;" horiz-adv-x="218" 
d="M59 0v509h100v-509h-100zM-40 622v67h298v-67h-298z" />
    <glyph glyph-name="Ibreve" unicode="&#x12c;" horiz-adv-x="248" 
d="M71 0v700h105v-700h-105zM124 786q-63 0 -106 34t-57 94l65 17q23 -84 98 -84q36 0 61 21t37 63l65 -17q-14 -60 -57 -94t-106 -34z" />
    <glyph glyph-name="ibreve" unicode="&#x12d;" horiz-adv-x="218" 
d="M59 0v509h100v-509h-100zM109 595q-63 0 -106 34t-57 94l65 17q23 -84 98 -84q36 0 61 21t37 63l65 -17q-14 -60 -57 -94t-106 -34z" />
    <glyph glyph-name="Iogonek" unicode="&#x12e;" horiz-adv-x="248" 
d="M115 -221q-45 0 -73 24t-28 64q0 36 23 67.5t73 65.5h-39v700h105v-700q-51 -31 -75 -59.5t-24 -56.5q0 -23 14 -35.5t41 -12.5q11 0 23 3t21 10l17 -48q-16 -10 -36 -16t-42 -6z" />
    <glyph glyph-name="iogonek" unicode="&#x12f;" horiz-adv-x="218" 
d="M109 591q-25 0 -43 18.5t-18 43.5q0 26 18 43.5t43 17.5q26 0 44 -17.5t18 -43.5q0 -25 -18 -43.5t-44 -18.5zM98 -221q-46 0 -73.5 24t-27.5 64q0 36 22.5 67.5t72.5 65.5h-33v509h100v-509q-51 -31 -75 -59.5t-24 -56.5q0 -23 14 -35.5t40 -12.5q12 0 24 3t21 10
l17 -48q-17 -10 -36.5 -16t-41.5 -6z" />
    <glyph glyph-name="Idotaccent" unicode="&#x130;" horiz-adv-x="248" 
d="M71 0v700h105v-700h-105zM124 793q-25 0 -42.5 17t-17.5 42q0 24 17.5 41t42.5 17t42.5 -17t17.5 -41q0 -25 -17.5 -42t-42.5 -17z" />
    <glyph glyph-name="dotlessi" unicode="&#x131;" horiz-adv-x="218" 
d="M59 0v509h100v-509h-100z" />
    <glyph glyph-name="IJ" unicode="&#x132;" horiz-adv-x="865" 
d="M71 0v700h105v-700h-105zM531 -11q-97 0 -166 49.5t-100 140.5l96 38q25 -67 67.5 -99.5t102.5 -32.5q78 0 124.5 50t46.5 134v431h105v-433q0 -84 -34 -146.5t-96 -97t-146 -34.5z" />
    <glyph glyph-name="ij" unicode="&#x133;" horiz-adv-x="431" 
d="M59 0v509h100v-509h-100zM109 591q-25 0 -43 18.5t-18 43.5q0 26 18 43.5t43 17.5q26 0 44 -17.5t18 -43.5q0 -25 -18 -43.5t-44 -18.5zM325 591q-25 0 -43 18.5t-18 43.5q0 26 18 43.5t43 17.5q26 0 44 -17.5t18 -43.5q0 -25 -18 -43.5t-44 -18.5zM230 -214
q-16 0 -31.5 2.5t-25.5 4.5v80q17 -4 40 -4q33 0 47.5 14.5t14.5 47.5v578h100v-585q0 -66 -37.5 -102t-107.5 -36z" />
    <glyph glyph-name="Jcircumflex" unicode="&#x134;" horiz-adv-x="617" 
d="M283 -11q-97 0 -166 49.5t-100 140.5l96 38q25 -67 67.5 -99.5t102.5 -32.5q78 0 124.5 50t46.5 134v431h105v-433q0 -84 -34 -146.5t-96 -97t-146 -34.5zM586 791l-80 77l-79 -77h-81l109 127h104l109 -127h-82z" />
    <glyph glyph-name="jcircumflex" unicode="&#x135;" horiz-adv-x="218" 
d="M15 -214q-16 0 -31 2.5l-27 4.5v80q18 -4 41 -4q33 0 47 14.5t14 47.5v578h100v-586q0 -65 -37.5 -101t-106.5 -36zM188 600l-80 77l-79 -77h-81l109 127h104l109 -127h-82z" />
    <glyph glyph-name="Kcommaaccent" unicode="&#x136;" horiz-adv-x="650" 
d="M71 0v700h105v-324l339 324h133l-364 -339l375 -361h-144l-339 332v-332h-105zM248 -273l46 189h96l-68 -189h-74z" />
    <glyph glyph-name="kcommaaccent" unicode="&#x137;" horiz-adv-x="524" 
d="M59 0v700l100 19v-433l247 223h117l-263 -238l277 -271h-132l-246 239v-239h-100zM171 -273l46 189h96l-68 -189h-74z" />
    <glyph glyph-name="kgreenlandic" unicode="&#x138;" horiz-adv-x="524" 
d="M59 0v509h100v-223l247 223h117l-263 -238l277 -271h-132l-246 239v-239h-100z" />
    <glyph glyph-name="Lacute" unicode="&#x139;" horiz-adv-x="614" 
d="M71 0v700h105v-607h403v-93h-508zM52 794l92 122h121l-129 -122h-84z" />
    <glyph glyph-name="lacute" unicode="&#x13a;" horiz-adv-x="218" 
d="M59 0v700l100 19v-719h-100zM38 794l92 122h121l-129 -122h-84z" />
    <glyph glyph-name="Lcommaaccent" unicode="&#x13b;" horiz-adv-x="614" 
d="M71 0v700h105v-607h403v-93h-508zM252 -273l46 189h96l-68 -189h-74z" />
    <glyph glyph-name="lcommaaccent" unicode="&#x13c;" horiz-adv-x="218" 
d="M59 0v700l100 19v-719h-100zM15 -273l46 189h96l-68 -189h-74z" />
    <glyph glyph-name="Lcaron" unicode="&#x13d;" horiz-adv-x="609" 
d="M71 0v700h105v-607h403v-93h-508zM400 505l5 195l90 15l-29 -210h-66z" />
    <glyph glyph-name="lcaron" unicode="&#x13e;" horiz-adv-x="305" 
d="M59 0v700l100 19v-719h-100zM228 505l5 195l90 15l-29 -210h-66z" />
    <glyph glyph-name="Ldot" unicode="&#x13f;" horiz-adv-x="609" 
d="M71 0v700h105v-607h403v-93h-508zM420 302q-25 0 -42.5 17t-17.5 42q0 24 17.5 41t42.5 17t42.5 -17t17.5 -41q0 -25 -17.5 -42t-42.5 -17z" />
    <glyph glyph-name="ldot" unicode="&#x140;" horiz-adv-x="337" 
d="M59 0v700l100 19v-719h-100zM279 296q-25 0 -42.5 17t-17.5 42q0 24 17.5 41t42.5 17t42.5 -17t17.5 -41q0 -25 -17.5 -42t-42.5 -17z" />
    <glyph glyph-name="Lslash" unicode="&#x141;" horiz-adv-x="627" 
d="M90 0v223l-79 -57v94l79 57v383h105v-313l191 136v-94l-191 -136v-200h403v-93h-508z" />
    <glyph glyph-name="lslash" unicode="&#x142;" horiz-adv-x="260" 
d="M81 0v292l-73 -57v95l73 57v313l100 22v-260l73 56v-95l-73 -57v-366h-100z" />
    <glyph glyph-name="Nacute" unicode="&#x143;" horiz-adv-x="735" 
d="M71 0v700h102l391 -520v520h99v-700h-92l-400 536v-536h-100zM296 794l92 122h121l-129 -122h-84z" />
    <glyph glyph-name="nacute" unicode="&#x144;" horiz-adv-x="567" 
d="M59 0v509h100v-52q59 62 153 62q59 0 103.5 -25t70 -70t25.5 -104v-320h-100v303q0 60 -33.5 94.5t-93.5 34.5q-40 0 -72 -17t-53 -49v-366h-100zM214 603l92 122h121l-129 -122h-84z" />
    <glyph glyph-name="Ncommaaccent" unicode="&#x145;" horiz-adv-x="735" 
d="M71 0v700h102l391 -520v520h99v-700h-92l-400 536v-536h-100zM273 -273l46 189h96l-68 -189h-74z" />
    <glyph glyph-name="ncommaaccent" unicode="&#x146;" horiz-adv-x="567" 
d="M59 0v509h100v-52q59 62 153 62q59 0 103.5 -25t70 -70t25.5 -104v-320h-100v303q0 60 -33.5 94.5t-93.5 34.5q-40 0 -72 -17t-53 -49v-366h-100zM192 -273l46 189h96l-68 -189h-74z" />
    <glyph glyph-name="Ncaron" unicode="&#x147;" horiz-adv-x="735" 
d="M71 0v700h102l391 -520v520h99v-700h-92l-400 536v-536h-100zM289 918l79 -76l78 76h82l-109 -126h-104l-109 126h83z" />
    <glyph glyph-name="ncaron" unicode="&#x148;" horiz-adv-x="567" 
d="M59 0v509h100v-52q59 62 153 62q59 0 103.5 -25t70 -70t25.5 -104v-320h-100v303q0 60 -33.5 94.5t-93.5 34.5q-40 0 -72 -17t-53 -49v-366h-100zM207 727l79 -76l78 76h82l-109 -126h-104l-109 126h83z" />
    <glyph glyph-name="Eng" unicode="&#x14a;" horiz-adv-x="735" 
d="M519 -210q-13 0 -30.5 2.5t-26.5 4.5v80q18 -4 40 -4q33 0 47.5 14.5t14.5 47.5v67l-393 528v-530h-100v700h97l396 -528v528h99v-773q0 -65 -37.5 -101t-106.5 -36z" />
    <glyph glyph-name="eng" unicode="&#x14b;" horiz-adv-x="567" 
d="M366 -211q-14 0 -29.5 2.5t-27.5 4.5v80q18 -4 42 -4q31 0 45.5 14.5t14.5 47.5v369q0 60 -34 94.5t-93 34.5q-40 0 -72 -17t-53 -49v-366h-100v509h100v-52q59 62 153 62q59 0 103.5 -25t70 -70t25.5 -104v-394q0 -65 -37.5 -101t-107.5 -36z" />
    <glyph glyph-name="Omacron" unicode="&#x14c;" horiz-adv-x="810" 
d="M405 -11q-76 0 -142 27.5t-116.5 77t-78 115t-27.5 141.5t27.5 141.5t78 115t116.5 77t142 27.5t142.5 -27.5t116.5 -77t78 -115t28 -141.5t-28 -141.5t-78 -115t-116.5 -77t-142.5 -27.5zM406 86q54 0 100.5 20t81.5 55.5t55 84t20 104.5q0 57 -20 105t-55 83.5
t-81.5 55.5t-100.5 20q-55 0 -102 -20t-82 -55.5t-54.5 -83.5t-19.5 -104q0 -57 19.5 -105.5t54.5 -84t82 -55.5t102 -20zM257 813v67h298v-67h-298z" />
    <glyph glyph-name="omacron" unicode="&#x14d;" horiz-adv-x="602" 
d="M301 -10q-74 0 -134.5 35t-95.5 95t-35 134t35 134t95.5 95.5t134.5 35.5q75 0 135 -35.5t95 -95.5t35 -134t-35 -134t-95 -95t-135 -35zM301 78q47 0 85 23.5t60 63.5t22 90q0 49 -22.5 88.5t-60 63.5t-84.5 24t-84.5 -24t-60 -63.5t-22.5 -88.5q0 -50 22 -90t60 -63.5
t85 -23.5zM152 622v67h298v-67h-298z" />
    <glyph glyph-name="Obreve" unicode="&#x14e;" horiz-adv-x="810" 
d="M405 -11q-76 0 -142 27.5t-116.5 77t-78 115t-27.5 141.5t27.5 141.5t78 115t116.5 77t142 27.5t142.5 -27.5t116.5 -77t78 -115t28 -141.5t-28 -141.5t-78 -115t-116.5 -77t-142.5 -27.5zM406 86q54 0 100.5 20t81.5 55.5t55 84t20 104.5q0 57 -20 105t-55 83.5
t-81.5 55.5t-100.5 20q-55 0 -102 -20t-82 -55.5t-54.5 -83.5t-19.5 -104q0 -57 19.5 -105.5t54.5 -84t82 -55.5t102 -20zM406 786q-63 0 -106 34t-57 94l65 17q23 -84 98 -84q36 0 61 21t37 63l65 -17q-14 -60 -57 -94t-106 -34z" />
    <glyph glyph-name="obreve" unicode="&#x14f;" horiz-adv-x="602" 
d="M301 -10q-74 0 -134.5 35t-95.5 95t-35 134t35 134t95.5 95.5t134.5 35.5q75 0 135 -35.5t95 -95.5t35 -134t-35 -134t-95 -95t-135 -35zM301 78q47 0 85 23.5t60 63.5t22 90q0 49 -22.5 88.5t-60 63.5t-84.5 24t-84.5 -24t-60 -63.5t-22.5 -88.5q0 -50 22 -90t60 -63.5
t85 -23.5zM301 595q-63 0 -106 34t-57 94l65 17q23 -84 98 -84q36 0 61 21t37 63l65 -17q-14 -60 -57 -94t-106 -34z" />
    <glyph glyph-name="Ohungarumlaut" unicode="&#x150;" horiz-adv-x="810" 
d="M405 -11q-76 0 -142 27.5t-116.5 77t-78 115t-27.5 141.5t27.5 141.5t78 115t116.5 77t142 27.5t142.5 -27.5t116.5 -77t78 -115t28 -141.5t-28 -141.5t-78 -115t-116.5 -77t-142.5 -27.5zM406 86q54 0 100.5 20t81.5 55.5t55 84t20 104.5q0 57 -20 105t-55 83.5
t-81.5 55.5t-100.5 20q-55 0 -102 -20t-82 -55.5t-54.5 -83.5t-19.5 -104q0 -57 19.5 -105.5t54.5 -84t82 -55.5t102 -20zM268 797l103 119h107l-130 -119h-80zM450 797l103 119h108l-135 -119h-76z" />
    <glyph glyph-name="ohungarumlaut" unicode="&#x151;" horiz-adv-x="602" 
d="M301 -10q-74 0 -134.5 35t-95.5 95t-35 134t35 134t95.5 95.5t134.5 35.5q75 0 135 -35.5t95 -95.5t35 -134t-35 -134t-95 -95t-135 -35zM301 78q47 0 85 23.5t60 63.5t22 90q0 49 -22.5 88.5t-60 63.5t-84.5 24t-84.5 -24t-60 -63.5t-22.5 -88.5q0 -50 22 -90t60 -63.5
t85 -23.5zM163 606l103 119h107l-130 -119h-80zM345 606l103 119h108l-135 -119h-76z" />
    <glyph glyph-name="OE" unicode="&#x152;" horiz-adv-x="1091" 
d="M396 0q-74 0 -138 27t-112 75t-75.5 111.5t-27.5 136.5t27.5 136.5t75.5 111.5t112 75t138 27h658v-92h-428q49 -36 80.5 -91t38.5 -119h182v-89h-181q-7 -66 -38.5 -122.5t-81.5 -94.5h428v-92h-658zM397 94q51 0 96 19.5t78.5 54.5t52.5 81.5t19 100.5t-19 100.5
t-52.5 81.5t-78.5 54.5t-96 19.5q-52 0 -97 -19.5t-78.5 -54.5t-52.5 -81.5t-19 -100.5t19 -100.5t52.5 -81.5t78.5 -54.5t97 -19.5z" />
    <glyph glyph-name="oe" unicode="&#x153;" horiz-adv-x="1006" 
d="M301 -10q-74 0 -134.5 35t-95.5 95.5t-35 134.5t35 134t95.5 95t134.5 35q68 0 124.5 -31.5t89.5 -85.5q34 52 88.5 84t120.5 32q70 0 125.5 -35.5t87.5 -96t32 -136.5v-28h-400q8 -42 31 -75t60 -52t80 -19q37 0 71 11.5t58 33.5l64 -63q-45 -34 -93 -50.5t-104 -16.5
q-71 0 -128.5 32t-91.5 85q-34 -54 -90.5 -86t-124.5 -32zM301 78q47 0 85 23.5t59.5 64t21.5 89.5q0 50 -21.5 89.5t-59.5 63t-85 23.5t-84.5 -23.5t-60 -63t-22.5 -89.5q0 -49 22.5 -89.5t60 -64t84.5 -23.5zM570 297h301q-7 40 -28.5 70.5t-52.5 48t-69 17.5t-70 -17
t-53 -47.5t-28 -71.5z" />
    <glyph glyph-name="Racute" unicode="&#x154;" horiz-adv-x="659" 
d="M71 0v700h317q70 0 122.5 -26t82 -72.5t29.5 -108.5q0 -69 -39 -119t-105 -72l156 -302h-116l-145 287h-197v-287h-105zM176 375h204q62 0 99.5 31.5t37.5 85.5q0 52 -37.5 84t-99.5 32h-204v-233zM255 794l92 122h121l-129 -122h-84z" />
    <glyph glyph-name="racute" unicode="&#x155;" horiz-adv-x="371" 
d="M59 0v509h100v-65q24 36 59.5 56.5t80.5 20.5q31 -1 51 -9v-90q-14 6 -29 8.5t-30 2.5q-44 0 -78 -23.5t-54 -68.5v-341h-100zM131 603l92 122h121l-129 -122h-84z" />
    <glyph glyph-name="Rcommaaccent" unicode="&#x156;" horiz-adv-x="659" 
d="M71 0v700h317q70 0 122.5 -26t82 -72.5t29.5 -108.5q0 -69 -39 -119t-105 -72l156 -302h-116l-145 287h-197v-287h-105zM176 375h204q62 0 99.5 31.5t37.5 85.5q0 52 -37.5 84t-99.5 32h-204v-233zM237 -273l46 189h96l-68 -189h-74z" />
    <glyph glyph-name="rcommaaccent" unicode="&#x157;" horiz-adv-x="371" 
d="M59 0v509h100v-65q24 36 59.5 56.5t80.5 20.5q31 -1 51 -9v-90q-14 6 -29 8.5t-30 2.5q-44 0 -78 -23.5t-54 -68.5v-341h-100zM14 -273l46 189h96l-68 -189h-74z" />
    <glyph glyph-name="Rcaron" unicode="&#x158;" horiz-adv-x="659" 
d="M71 0v700h317q70 0 122.5 -26t82 -72.5t29.5 -108.5q0 -69 -39 -119t-105 -72l156 -302h-116l-145 287h-197v-287h-105zM176 375h204q62 0 99.5 31.5t37.5 85.5q0 52 -37.5 84t-99.5 32h-204v-233zM248 918l79 -76l78 76h82l-109 -126h-104l-109 126h83z" />
    <glyph glyph-name="rcaron" unicode="&#x159;" horiz-adv-x="371" 
d="M59 0v509h100v-65q24 36 59.5 56.5t80.5 20.5q31 -1 51 -9v-90q-14 6 -29 8.5t-30 2.5q-44 0 -78 -23.5t-54 -68.5v-341h-100zM124 727l79 -76l78 76h82l-109 -126h-104l-109 126h83z" />
    <glyph glyph-name="Sacute" unicode="&#x15a;" horiz-adv-x="613" 
d="M308 -10q-84 0 -162 33t-138 93l64 74q57 -56 116.5 -83t124.5 -27q51 0 89.5 14.5t59.5 41.5t21 61q0 47 -33 72t-109 38l-117 19q-96 17 -143.5 62t-47.5 120q0 60 32 105.5t90.5 70.5t135.5 25q76 0 149.5 -24.5t132.5 -70.5l-58 -80q-113 86 -229 86q-46 0 -80 -13
t-53 -36.5t-19 -54.5q0 -43 29 -65.5t96 -32.5l113 -19q111 -18 163 -65t52 -129q0 -64 -35 -112.5t-98 -75.5t-146 -27zM218 795l92 122h121l-129 -122h-84z" />
    <glyph glyph-name="sacute" unicode="&#x15b;" horiz-adv-x="465" 
d="M234 -10q-66 0 -123.5 19.5t-99.5 55.5l55 66q39 -31 80.5 -47.5t84.5 -16.5q54 0 88 21t34 55q0 28 -20 44t-62 22l-92 13q-76 11 -114 47t-38 96q0 46 25 80.5t70 54t105 19.5q55 0 106 -16t98 -50l-51 -66q-42 28 -81.5 41t-79.5 13q-46 0 -74 -19.5t-28 -50.5
q0 -28 19.5 -43.5t64.5 -21.5l92 -13q76 -11 115 -46.5t39 -95.5q0 -46 -28 -82.5t-76 -57.5t-109 -21zM159 603l92 122h121l-129 -122h-84z" />
    <glyph glyph-name="Scircumflex" unicode="&#x15c;" horiz-adv-x="613" 
d="M308 -10q-84 0 -162 33t-138 93l64 74q57 -56 116.5 -83t124.5 -27q51 0 89.5 14.5t59.5 41.5t21 61q0 47 -33 72t-109 38l-117 19q-96 17 -143.5 62t-47.5 120q0 60 32 105.5t90.5 70.5t135.5 25q76 0 149.5 -24.5t132.5 -70.5l-58 -80q-113 86 -229 86q-46 0 -80 -13
t-53 -36.5t-19 -54.5q0 -43 29 -65.5t96 -32.5l113 -19q111 -18 163 -65t52 -129q0 -64 -35 -112.5t-98 -75.5t-146 -27zM368 792l-80 77l-79 -77h-81l109 127h104l109 -127h-82z" />
    <glyph glyph-name="scircumflex" unicode="&#x15d;" horiz-adv-x="465" 
d="M234 -10q-66 0 -123.5 19.5t-99.5 55.5l55 66q39 -31 80.5 -47.5t84.5 -16.5q54 0 88 21t34 55q0 28 -20 44t-62 22l-92 13q-76 11 -114 47t-38 96q0 46 25 80.5t70 54t105 19.5q55 0 106 -16t98 -50l-51 -66q-42 28 -81.5 41t-79.5 13q-46 0 -74 -19.5t-28 -50.5
q0 -28 19.5 -43.5t64.5 -21.5l92 -13q76 -11 115 -46.5t39 -95.5q0 -46 -28 -82.5t-76 -57.5t-109 -21zM309 600l-80 77l-79 -77h-81l109 127h104l109 -127h-82z" />
    <glyph glyph-name="Scedilla" unicode="&#x15e;" horiz-adv-x="613" 
d="M280 -230q-71 0 -118 43l37 38q37 -30 81 -30q28 0 44 12t16 32t-17 31.5t-46 11.5h-35l25 84q-73 8 -140 39.5t-119 84.5l64 74q57 -56 116.5 -83t124.5 -27q51 0 89.5 14.5t59.5 41.5t21 61q0 47 -33 72t-109 38l-117 19q-96 17 -143.5 62t-47.5 120q0 60 32 105.5
t90.5 70.5t135.5 25q76 0 149.5 -24.5t132.5 -70.5l-58 -80q-113 86 -229 86q-46 0 -80 -13t-53 -36.5t-19 -54.5q0 -43 29 -65.5t96 -32.5l113 -19q111 -18 163 -65t52 -129q0 -62 -33.5 -110.5t-94 -75.5t-140.5 -29l-11 -40q44 -2 69.5 -25t25.5 -60q0 -41 -35 -68
t-88 -27z" />
    <glyph glyph-name="scedilla" unicode="&#x15f;" horiz-adv-x="465" 
d="M219 -231q-71 0 -118 43l36 38q38 -31 81 -31q29 0 44.5 12.5t15.5 32.5t-17 31.5t-46 11.5h-34l25 85q-57 3 -107.5 22.5t-87.5 51.5l55 66q39 -31 80.5 -47.5t84.5 -16.5q54 0 88 21t34 55q0 27 -20 43t-62 22l-92 13q-76 11 -114 46.5t-38 95.5q0 45 25 79.5t70 54
t105 19.5q55 0 106 -16t98 -49l-51 -66q-42 28 -81.5 41t-79.5 13q-46 0 -74 -19.5t-28 -50.5q0 -27 19.5 -42t64.5 -22l92 -13q76 -11 115 -46.5t39 -95.5q0 -42 -24.5 -76.5t-67 -56t-97.5 -26.5l-12 -43q44 -3 69.5 -26t25.5 -59q0 -41 -34.5 -68t-87.5 -27z" />
    <glyph glyph-name="Scaron" unicode="&#x160;" horiz-adv-x="613" 
d="M308 -10q-84 0 -162 33t-138 93l64 74q57 -56 116.5 -83t124.5 -27q51 0 89.5 14.5t59.5 41.5t21 61q0 47 -33 72t-109 38l-117 19q-96 17 -143.5 62t-47.5 120q0 60 32 105.5t90.5 70.5t135.5 25q76 0 149.5 -24.5t132.5 -70.5l-58 -80q-113 86 -229 86q-46 0 -80 -13
t-53 -36.5t-19 -54.5q0 -43 29 -65.5t96 -32.5l113 -19q111 -18 163 -65t52 -129q0 -64 -35 -112.5t-98 -75.5t-146 -27zM211 919l79 -76l78 76h82l-109 -126h-104l-109 126h83z" />
    <glyph glyph-name="scaron" unicode="&#x161;" horiz-adv-x="465" 
d="M234 -10q-66 0 -123.5 19.5t-99.5 55.5l55 66q39 -31 80.5 -47.5t84.5 -16.5q54 0 88 21t34 55q0 28 -20 44t-62 22l-92 13q-76 11 -114 47t-38 96q0 46 25 80.5t70 54t105 19.5q55 0 106 -16t98 -50l-51 -66q-42 28 -81.5 41t-79.5 13q-46 0 -74 -19.5t-28 -50.5
q0 -28 19.5 -43.5t64.5 -21.5l92 -13q76 -11 115 -46.5t39 -95.5q0 -46 -28 -82.5t-76 -57.5t-109 -21zM152 727l79 -76l78 76h82l-109 -126h-104l-109 126h83z" />
    <glyph glyph-name="Tcedilla" unicode="&#x162;" horiz-adv-x="631" 
d="M300 -231q-72 0 -118 43l36 38q38 -31 81 -31q28 0 44 12.5t16 32.5t-17 31.5t-46 11.5h-34l26 93h-25v607h-246v93h597v-93h-246v-607h-27l-14 -51q44 -3 69.5 -26t25.5 -59q0 -41 -35 -68t-87 -27z" />
    <glyph glyph-name="tcedilla" unicode="&#x163;" horiz-adv-x="389" 
d="M229 -231q-71 0 -118 43l36 38q38 -31 81 -31q29 0 45 12.5t16 32.5t-17 31.5t-47 11.5h-34l27 91q-93 25 -93 128v299h-108v84h108v130l99 24v-154h150v-84h-150v-276q0 -38 17.5 -54.5t57.5 -16.5q21 0 37.5 2.5t35.5 9.5v-85q-20 -7 -46.5 -10t-48.5 -3h-4h-4l-13 -43
q44 -3 69.5 -26t25.5 -59q0 -41 -34.5 -68t-87.5 -27z" />
    <glyph glyph-name="Tcaron" unicode="&#x164;" horiz-adv-x="631" 
d="M263 0v607h-246v93h597v-93h-246v-607h-105zM237 918l79 -76l78 76h82l-109 -126h-104l-109 126h83z" />
    <glyph glyph-name="tcaron" unicode="&#x165;" horiz-adv-x="389" 
d="M297 585l5 190l92 18l-30 -208h-67zM277 -8q-74 0 -113 34t-39 100v299h-108v84h108v130l99 24v-154h150v-84h-150v-276q0 -38 17.5 -54.5t57.5 -16.5q21 0 37.5 2.5t35.5 9.5v-85q-20 -7 -46.5 -10t-48.5 -3z" />
    <glyph glyph-name="Tbar" unicode="&#x166;" horiz-adv-x="631" 
d="M263 0v295h-144v86h144v226h-246v93h597v-93h-246v-226h144v-86h-144v-295h-105z" />
    <glyph glyph-name="tbar" unicode="&#x167;" horiz-adv-x="389" 
d="M277 -9q-74 0 -113 34.5t-39 100.5v123h-108v75h108v101h-108v84h108v130l99 24v-154h150v-84h-150v-101h152v-75h-152v-100q0 -39 17.5 -55.5t57.5 -16.5q21 0 37.5 3t35.5 9v-84q-20 -7 -46.5 -10.5t-48.5 -3.5z" />
    <glyph glyph-name="Utilde" unicode="&#x168;" horiz-adv-x="713" 
d="M356 -11q-91 0 -158 38t-103 107.5t-36 164.5v401h105v-401q0 -65 23.5 -113t67 -74t101.5 -26q60 0 103 26t66.5 74t23.5 113v401h105v-401q0 -95 -36.5 -164.5t-103.5 -107.5t-158 -38zM243 786l-66 13q24 109 103 109q27 0 53 -13t49 -26.5t44 -13.5q17 0 27 12.5
t17 43.5l64 -13q-11 -55 -37 -82t-65 -27q-26 0 -52.5 13.5t-50 26.5t-43.5 13q-18 0 -27.5 -13t-15.5 -43z" />
    <glyph glyph-name="utilde" unicode="&#x169;" horiz-adv-x="567" 
d="M256 -10q-59 0 -104 25t-70 70.5t-25 104.5v319h99v-302q0 -60 34.5 -95t92.5 -35q41 0 73 17.5t52 49.5v365h100v-509h-100v52q-59 -62 -152 -62zM170 596l-66 13q24 109 103 109q27 0 53 -13t49 -26.5t44 -13.5q17 0 27 12.5t17 43.5l64 -13q-11 -55 -37 -82t-65 -27
q-26 0 -52.5 13.5t-50 26.5t-43.5 13q-18 0 -27.5 -13t-15.5 -43z" />
    <glyph glyph-name="Umacron" unicode="&#x16a;" horiz-adv-x="713" 
d="M356 -11q-91 0 -158 38t-103 107.5t-36 164.5v401h105v-401q0 -65 23.5 -113t67 -74t101.5 -26q60 0 103 26t66.5 74t23.5 113v401h105v-401q0 -95 -36.5 -164.5t-103.5 -107.5t-158 -38zM207 813v67h298v-67h-298z" />
    <glyph glyph-name="umacron" unicode="&#x16b;" horiz-adv-x="567" 
d="M256 -10q-59 0 -104 25t-70 70.5t-25 104.5v319h99v-302q0 -60 34.5 -95t92.5 -35q41 0 73 17.5t52 49.5v365h100v-509h-100v52q-59 -62 -152 -62zM134 622v67h298v-67h-298z" />
    <glyph glyph-name="Ubreve" unicode="&#x16c;" horiz-adv-x="713" 
d="M356 -11q-91 0 -158 38t-103 107.5t-36 164.5v401h105v-401q0 -65 23.5 -113t67 -74t101.5 -26q60 0 103 26t66.5 74t23.5 113v401h105v-401q0 -95 -36.5 -164.5t-103.5 -107.5t-158 -38zM356 786q-63 0 -106 34t-57 94l65 17q23 -84 98 -84q36 0 61 21t37 63l65 -17
q-14 -60 -57 -94t-106 -34z" />
    <glyph glyph-name="ubreve" unicode="&#x16d;" horiz-adv-x="567" 
d="M256 -10q-59 0 -104 25t-70 70.5t-25 104.5v319h99v-302q0 -60 34.5 -95t92.5 -35q41 0 73 17.5t52 49.5v365h100v-509h-100v52q-59 -62 -152 -62zM283 595q-63 0 -106 34t-57 94l65 17q23 -84 98 -84q36 0 61 21t37 63l65 -17q-14 -60 -57 -94t-106 -34z" />
    <glyph glyph-name="Uring" unicode="&#x16e;" horiz-adv-x="713" 
d="M356 -11q-91 0 -158 38t-103 107.5t-36 164.5v401h105v-401q0 -65 23.5 -113t67 -74t101.5 -26q60 0 103 26t66.5 74t23.5 113v401h105v-401q0 -95 -36.5 -164.5t-103.5 -107.5t-158 -38zM356 775q-32 0 -58.5 15.5t-42 42t-15.5 57.5t15.5 57t42 42t58.5 16t58.5 -16
t42 -42t15.5 -57t-15.5 -57.5t-42 -42t-58.5 -15.5zM356 823q28 0 47.5 19.5t19.5 47.5t-19.5 47.5t-47.5 19.5t-47.5 -19.5t-19.5 -47.5t19.5 -47.5t47.5 -19.5z" />
    <glyph glyph-name="uring" unicode="&#x16f;" horiz-adv-x="567" 
d="M256 -10q-59 0 -104 25t-70 70.5t-25 104.5v319h99v-302q0 -60 34.5 -95t92.5 -35q41 0 73 17.5t52 49.5v365h100v-509h-100v52q-59 -62 -152 -62zM283 584q-32 0 -58.5 15.5t-42 42t-15.5 57.5t15.5 57t42 42t58.5 16t58.5 -16t42 -42t15.5 -57t-15.5 -57.5t-42 -42
t-58.5 -15.5zM283 632q28 0 47.5 19.5t19.5 47.5t-19.5 47.5t-47.5 19.5t-47.5 -19.5t-19.5 -47.5t19.5 -47.5t47.5 -19.5z" />
    <glyph glyph-name="Uhungarumlaut" unicode="&#x170;" horiz-adv-x="713" 
d="M356 -11q-91 0 -158 38t-103 107.5t-36 164.5v401h105v-401q0 -65 23.5 -113t67 -74t101.5 -26q60 0 103 26t66.5 74t23.5 113v401h105v-401q0 -95 -36.5 -164.5t-103.5 -107.5t-158 -38zM218 797l103 119h107l-130 -119h-80zM400 797l103 119h108l-135 -119h-76z" />
    <glyph glyph-name="uhungarumlaut" unicode="&#x171;" horiz-adv-x="567" 
d="M256 -10q-59 0 -104 25t-70 70.5t-25 104.5v319h99v-302q0 -60 34.5 -95t92.5 -35q41 0 73 17.5t52 49.5v365h100v-509h-100v52q-59 -62 -152 -62zM145 606l103 119h107l-130 -119h-80zM327 606l103 119h108l-135 -119h-76z" />
    <glyph glyph-name="Uogonek" unicode="&#x172;" horiz-adv-x="713" 
d="M377 -221q-45 0 -73 24t-28 64q0 33 19.5 62t62.5 60q-91 1 -158 38.5t-104 106.5t-37 165v401h105v-401q0 -65 23.5 -113t67 -74t101.5 -26q60 0 103 26t66.5 74t23.5 113v401h105v-401q0 -120 -58.5 -199.5t-160.5 -102.5q-49 -31 -72.5 -58t-23.5 -55
q0 -23 14.5 -35.5t40.5 -12.5q12 0 23.5 3t20.5 10l17 -48q-16 -10 -36 -16t-42 -6z" />
    <glyph glyph-name="uogonek" unicode="&#x173;" horiz-adv-x="567" 
d="M448 -221q-45 0 -73 24t-28 64q0 36 23 67.5t73 65.5h-35v52q-59 -62 -152 -62q-59 0 -104 25t-70 70t-25 105v319h99v-302q0 -60 34.5 -95t92.5 -35q41 0 73 17.5t52 49.5v365h100v-509q-51 -31 -74.5 -59.5t-23.5 -56.5q0 -23 14 -35.5t41 -12.5q11 0 23 3t21 10
l17 -48q-16 -10 -36 -16t-42 -6z" />
    <glyph glyph-name="Wcircumflex" unicode="&#x174;" horiz-adv-x="908" 
d="M184 0l-153 700h108l109 -535l158 535h100l158 -534l110 534h103l-153 -700h-108l-161 550l-162 -550h-109zM531 791l-80 77l-79 -77h-81l109 127h104l109 -127h-82z" />
    <glyph glyph-name="wcircumflex" unicode="&#x175;" horiz-adv-x="731" 
d="M154 0l-142 509h97l99 -374l116 374h86l116 -374l99 374h94l-143 -509h-96l-114 373l-115 -373h-97zM445 600l-80 77l-79 -77h-81l109 127h104l109 -127h-82z" />
    <glyph glyph-name="Ycircumflex" unicode="&#x176;" horiz-adv-x="666" 
d="M281 0v278l-282 422h122l215 -329l215 329h117l-282 -424v-276h-105zM413 791l-80 77l-79 -77h-81l109 127h104l109 -127h-82z" />
    <glyph glyph-name="ycircumflex" unicode="&#x177;" horiz-adv-x="537" 
d="M93 -215q-16 0 -30 1.5t-23 4.5v88q18 -4 44 -4q70 0 101 75l22 49l-204 510h111l148 -388l164 388h108l-246 -572q-24 -54 -51 -87.5t-62 -49t-82 -15.5zM344 600l-80 77l-79 -77h-81l109 127h104l109 -127h-82z" />
    <glyph glyph-name="Ydieresis" unicode="&#x178;" horiz-adv-x="666" 
d="M281 0v278l-282 422h122l215 -329l215 329h117l-282 -424v-276h-105zM237 799q-25 0 -42 16.5t-17 41.5t17 41.5t42 16.5t42 -16.5t17 -41.5q0 -24 -17 -41t-42 -17zM431 799q-25 0 -42 16.5t-17 41.5t17 41.5t42 16.5t42 -16.5t17 -41.5q0 -24 -17 -41t-42 -17z" />
    <glyph glyph-name="Zacute" unicode="&#x179;" horiz-adv-x="609" 
d="M23 0v73l420 535h-416v92h554v-73l-422 -535h428v-92h-564zM241 794l92 122h121l-129 -122h-84z" />
    <glyph glyph-name="zacute" unicode="&#x17a;" horiz-adv-x="478" 
d="M29 0v74l286 349h-283v86h408v-73l-286 -350h291v-86h-416zM164 603l92 122h121l-129 -122h-84z" />
    <glyph glyph-name="Zdotaccent" unicode="&#x17b;" horiz-adv-x="609" 
d="M23 0v73l420 535h-416v92h554v-73l-422 -535h428v-92h-564zM312 793q-25 0 -42.5 17t-17.5 42q0 24 17.5 41t42.5 17t42.5 -17t17.5 -41q0 -25 -17.5 -42t-42.5 -17z" />
    <glyph glyph-name="zdotaccent" unicode="&#x17c;" horiz-adv-x="478" 
d="M29 0v74l286 349h-283v86h408v-73l-286 -350h291v-86h-416zM235 602q-25 0 -42.5 17t-17.5 42q0 24 17.5 41t42.5 17t42.5 -17t17.5 -41q0 -25 -17.5 -42t-42.5 -17z" />
    <glyph glyph-name="Zcaron" unicode="&#x17d;" horiz-adv-x="609" 
d="M23 0v73l420 535h-416v92h554v-73l-422 -535h428v-92h-564zM234 918l79 -76l78 76h82l-109 -126h-104l-109 126h83z" />
    <glyph glyph-name="zcaron" unicode="&#x17e;" horiz-adv-x="478" 
d="M29 0v74l286 349h-283v86h408v-73l-286 -350h291v-86h-416zM157 727l79 -76l78 76h82l-109 -126h-104l-109 126h83z" />
    <glyph glyph-name="Scommaaccent" unicode="&#x218;" horiz-adv-x="613" 
d="M308 -10q-84 0 -162 33t-138 93l64 74q57 -56 116.5 -83t124.5 -27q51 0 89.5 14.5t59.5 41.5t21 61q0 47 -33 72t-109 38l-117 19q-96 17 -143.5 62t-47.5 120q0 60 32 105.5t90.5 70.5t135.5 25q76 0 149.5 -24.5t132.5 -70.5l-58 -80q-113 86 -229 86q-46 0 -80 -13
t-53 -36.5t-19 -54.5q0 -43 29 -65.5t96 -32.5l113 -19q111 -18 163 -65t52 -129q0 -64 -35 -112.5t-98 -75.5t-146 -27zM203 -272l46 189h96l-68 -189h-74z" />
    <glyph glyph-name="scommaaccent" unicode="&#x219;" horiz-adv-x="465" 
d="M234 -10q-66 0 -123.5 19.5t-99.5 55.5l55 66q39 -31 80.5 -47.5t84.5 -16.5q54 0 88 21t34 55q0 28 -20 44t-62 22l-92 13q-76 11 -114 47t-38 96q0 46 25 80.5t70 54t105 19.5q55 0 106 -16t98 -50l-51 -66q-42 28 -81.5 41t-79.5 13q-46 0 -74 -19.5t-28 -50.5
q0 -28 19.5 -43.5t64.5 -21.5l92 -13q76 -11 115 -46.5t39 -95.5q0 -46 -28 -82.5t-76 -57.5t-109 -21zM141 -273l46 189h96l-68 -189h-74z" />
    <glyph glyph-name="uni021A" unicode="&#x21a;" horiz-adv-x="631" 
d="M263 0v607h-246v93h597v-93h-246v-607h-105zM222 -273l46 189h96l-68 -189h-74z" />
    <glyph glyph-name="uni021B" unicode="&#x21b;" horiz-adv-x="389" 
d="M277 -9q-74 0 -113 34.5t-39 100.5v299h-108v84h108v130l99 24v-154h150v-84h-150v-276q0 -39 17.5 -55.5t57.5 -16.5q21 0 37.5 3t35.5 9v-84q-20 -7 -46.5 -10.5t-48.5 -3.5zM148 -273l46 189h96l-68 -189h-74z" />
    <glyph glyph-name="dotlessj" unicode="&#x237;" horiz-adv-x="218" 
d="M15 -214q-16 0 -31 2.5l-27 4.5v80q18 -4 41 -4q33 0 47 14.5t14 47.5v578h100v-586q0 -65 -37.5 -101t-106.5 -36z" />
    <glyph glyph-name="uni02BB" unicode="&#x2bb;" horiz-adv-x="250" 
d="M215 728l-62 -233h-106l92 233h76z" />
    <glyph glyph-name="uni02BC" unicode="&#x2bc;" horiz-adv-x="250" 
d="M45 496l62 233h106l-92 -233h-76z" />
    <glyph glyph-name="circumflex" unicode="&#x2c6;" 
d="M379 600l-80 77l-79 -77h-81l109 127h104l109 -127h-82z" />
    <glyph glyph-name="caron" unicode="&#x2c7;" 
d="M222 727l79 -76l78 76h82l-109 -126h-104l-109 126h83z" />
    <glyph glyph-name="breve" unicode="&#x2d8;" 
d="M300 595q-63 0 -106 34t-57 94l65 17q23 -84 98 -84q36 0 61 21t37 63l65 -17q-14 -60 -57 -94t-106 -34z" />
    <glyph glyph-name="dotaccent" unicode="&#x2d9;" 
d="M300 602q-25 0 -42.5 17t-17.5 42q0 24 17.5 41t42.5 17t42.5 -17t17.5 -41q0 -25 -17.5 -42t-42.5 -17z" />
    <glyph glyph-name="ring" unicode="&#x2da;" 
d="M300 584q-32 0 -58.5 15.5t-42 42t-15.5 57.5t15.5 57t42 42t58.5 16t58.5 -16t42 -42t15.5 -57t-15.5 -57.5t-42 -42t-58.5 -15.5zM300 632q28 0 47.5 19.5t19.5 47.5t-19.5 47.5t-47.5 19.5t-47.5 -19.5t-19.5 -47.5t19.5 -47.5t47.5 -19.5z" />
    <glyph glyph-name="ogonek" unicode="&#x2db;" 
d="M297 -221q-46 0 -73.5 24t-27.5 64q0 41 29.5 76t94.5 75l38 -18q-51 -31 -75 -59.5t-24 -56.5q0 -23 14 -35.5t41 -12.5q11 0 23 3t21 10l17 -48q-17 -10 -36.5 -16t-41.5 -6z" />
    <glyph glyph-name="tilde" unicode="&#x2dc;" 
d="M187 595l-66 13q24 109 103 109q27 0 53 -13t49 -26.5t44 -13.5q17 0 27 12.5t17 43.5l64 -13q-11 -55 -37 -82t-65 -27q-26 0 -52.5 13.5t-50 26.5t-43.5 13q-18 0 -27.5 -13t-15.5 -43z" />
    <glyph glyph-name="hungarumlaut" unicode="&#x2dd;" 
d="M162 606l103 119h107l-130 -119h-80zM344 606l103 119h108l-135 -119h-76z" />
    <glyph glyph-name="uni0327" unicode="&#x327;" horiz-adv-x="0" 
d="M290 -231q-71 0 -118 43l36 38q38 -31 81 -31q29 0 45 12.5t16 32.5t-17 31.5t-47 11.5h-34l27 93h53l-15 -51q44 -3 69.5 -26t25.5 -59q0 -41 -34.5 -68t-87.5 -27z" />
    <glyph glyph-name="uni0328" unicode="&#x328;" horiz-adv-x="0" 
d="M297 -221q-46 0 -73.5 24t-27.5 64q0 41 29.5 76t94.5 75l38 -18q-51 -31 -75 -59.5t-24 -56.5q0 -23 14 -35.5t41 -12.5q11 0 23 3t21 10l17 -48q-17 -10 -36.5 -16t-41.5 -6z" />
    <glyph glyph-name="Wgrave" unicode="&#x1e80;" horiz-adv-x="908" 
d="M184 0l-153 700h108l109 -535l158 535h100l158 -534l110 534h103l-153 -700h-108l-161 550l-162 -550h-109zM429 794l-128 122h122l90 -122h-84z" />
    <glyph glyph-name="wgrave" unicode="&#x1e81;" horiz-adv-x="731" 
d="M154 0l-142 509h97l99 -374l116 374h86l116 -374l99 374h94l-143 -509h-96l-114 373l-115 -373h-97zM343 603l-128 122h122l90 -122h-84z" />
    <glyph glyph-name="Wacute" unicode="&#x1e82;" horiz-adv-x="908" 
d="M184 0l-153 700h108l109 -535l158 535h100l158 -534l110 534h103l-153 -700h-108l-161 550l-162 -550h-109zM381 794l92 122h121l-129 -122h-84z" />
    <glyph glyph-name="wacute" unicode="&#x1e83;" horiz-adv-x="731" 
d="M154 0l-142 509h97l99 -374l116 374h86l116 -374l99 374h94l-143 -509h-96l-114 373l-115 -373h-97zM295 603l92 122h121l-129 -122h-84z" />
    <glyph glyph-name="Wdieresis" unicode="&#x1e84;" horiz-adv-x="908" 
d="M184 0l-153 700h108l109 -535l158 535h100l158 -534l110 534h103l-153 -700h-108l-161 550l-162 -550h-109zM355 799q-25 0 -42 16.5t-17 41.5t17 41.5t42 16.5t42 -16.5t17 -41.5q0 -24 -17 -41t-42 -17zM549 799q-25 0 -42 16.5t-17 41.5t17 41.5t42 16.5t42 -16.5
t17 -41.5q0 -24 -17 -41t-42 -17z" />
    <glyph glyph-name="wdieresis" unicode="&#x1e85;" horiz-adv-x="731" 
d="M154 0l-142 509h97l99 -374l116 374h86l116 -374l99 374h94l-143 -509h-96l-114 373l-115 -373h-97zM269 608q-25 0 -42 16.5t-17 41.5t17 41.5t42 16.5t42 -16.5t17 -41.5q0 -24 -17 -41t-42 -17zM463 608q-25 0 -42 16.5t-17 41.5t17 41.5t42 16.5t42 -16.5t17 -41.5
q0 -24 -17 -41t-42 -17z" />
    <glyph glyph-name="Ygrave" unicode="&#x1ef2;" horiz-adv-x="666" 
d="M281 0v278l-282 422h122l215 -329l215 329h117l-282 -424v-276h-105zM311 794l-128 122h122l90 -122h-84z" />
    <glyph glyph-name="ygrave" unicode="&#x1ef3;" horiz-adv-x="537" 
d="M93 -215q-16 0 -30 1.5t-23 4.5v88q18 -4 44 -4q70 0 101 75l22 49l-204 510h111l148 -388l164 388h108l-246 -572q-24 -54 -51 -87.5t-62 -49t-82 -15.5zM242 603l-128 122h122l90 -122h-84z" />
    <glyph glyph-name="enspace" unicode="&#x2002;" horiz-adv-x="500" 
 />
    <glyph glyph-name="emspace" unicode="&#x2003;" horiz-adv-x="1000" 
 />
    <glyph glyph-name="thinspace" unicode="&#x2009;" horiz-adv-x="175" 
 />
    <glyph glyph-name="hairspace" unicode="&#x200a;" horiz-adv-x="100" 
 />
    <glyph glyph-name="zerowidthspace" unicode="&#x200b;" horiz-adv-x="0" 
 />
    <glyph glyph-name="endash" unicode="&#x2013;" horiz-adv-x="552" 
d="M46 239v87h460v-87h-460z" />
    <glyph glyph-name="emdash" unicode="&#x2014;" horiz-adv-x="702" 
d="M46 239v87h610v-87h-610z" />
    <glyph glyph-name="uni2015" unicode="&#x2015;" horiz-adv-x="952" 
d="M46 239v87h860v-87h-860z" />
    <glyph glyph-name="quoteleft" unicode="&#x2018;" horiz-adv-x="250" 
d="M215 728l-62 -233h-106l92 233h76z" />
    <glyph glyph-name="quoteright" unicode="&#x2019;" horiz-adv-x="250" 
d="M45 496l62 233h106l-92 -233h-76z" />
    <glyph glyph-name="quotesinglbase" unicode="&#x201a;" horiz-adv-x="250" 
d="M27 -143l62 233h106l-92 -233h-76z" />
    <glyph glyph-name="quotedblleft" unicode="&#x201c;" horiz-adv-x="409" 
d="M215 728l-62 -233h-106l92 233h76zM374 728l-62 -233h-106l92 233h76z" />
    <glyph glyph-name="quotedblright" unicode="&#x201d;" horiz-adv-x="409" 
d="M204 496l62 233h106l-92 -233h-76zM45 496l62 233h106l-92 -233h-76z" />
    <glyph glyph-name="quotedblbase" unicode="&#x201e;" horiz-adv-x="409" 
d="M186 -143l62 233h106l-92 -233h-76zM27 -143l62 233h106l-92 -233h-76z" />
    <glyph glyph-name="dagger" unicode="&#x2020;" horiz-adv-x="435" 
d="M176 0v430h-124v79h124v191h84v-191h124v-79h-124v-430h-84z" />
    <glyph glyph-name="daggerdbl" unicode="&#x2021;" horiz-adv-x="435" 
d="M176 0v191h-124v79h124v160h-124v79h124v191h84v-191h124v-79h-124v-160h124v-79h-124v-191h-84z" />
    <glyph glyph-name="bullet" unicode="&#x2022;" horiz-adv-x="339" 
d="M169 237q-29 0 -54 14.5t-39 38.5t-14 53q0 30 14 54.5t39 39t54 14.5q30 0 54.5 -14.5t39 -39t14.5 -54.5q0 -29 -14.5 -53t-39 -38.5t-54.5 -14.5z" />
    <glyph glyph-name="ellipsis" unicode="&#x2026;" horiz-adv-x="667" 
d="M125 -7q-26 0 -44.5 18.5t-18.5 44.5t18.5 44.5t44.5 18.5t44.5 -18.5t18.5 -44.5t-18.5 -44.5t-44.5 -18.5zM334 -7q-26 0 -44.5 18.5t-18.5 44.5t18.5 44.5t44.5 18.5t44.5 -18.5t18.5 -44.5t-18.5 -44.5t-44.5 -18.5zM542 -7q-26 0 -44.5 18.5t-18.5 44.5t18.5 44.5
t44.5 18.5t44.5 -18.5t18.5 -44.5t-18.5 -44.5t-44.5 -18.5z" />
    <glyph glyph-name="perthousand" unicode="&#x2030;" horiz-adv-x="1110" 
d="M178 345q-69 0 -111 50t-42 130q0 81 42 130.5t111 49.5q68 0 110 -49.5t43 -130.5q-1 -80 -43 -130t-110 -50zM178 402q41 0 65 33.5t24 89.5q0 57 -24 90.5t-65 33.5t-64.5 -33.5t-24.5 -90.5q1 -56 24.5 -89.5t64.5 -33.5zM142 0l394 700h79l-395 -700h-78zM585 -5
q-69 0 -111 50t-42 130q0 81 42 130.5t111 49.5q68 0 110 -49.5t43 -130.5q-1 -80 -43 -130t-110 -50zM585 52q41 0 65 33.5t24 89.5q0 57 -24 90.5t-65 33.5t-64.5 -33.5t-24.5 -90.5q1 -56 24.5 -89.5t64.5 -33.5zM933 -5q-69 0 -111 50t-42 130q0 81 42 130.5t111 49.5
q68 0 110 -49.5t43 -130.5q-1 -80 -43 -130t-110 -50zM933 52q41 0 65 33.5t24 89.5q0 57 -24 90.5t-65 33.5t-64.5 -33.5t-24.5 -90.5q1 -56 24.5 -89.5t64.5 -33.5z" />
    <glyph glyph-name="uni2032" unicode="&#x2032;" horiz-adv-x="250" 
d="M45 496l62 233h106l-92 -233h-76z" />
    <glyph glyph-name="uni2033" unicode="&#x2033;" horiz-adv-x="409" 
d="M204 496l62 233h106l-92 -233h-76zM45 496l62 233h106l-92 -233h-76z" />
    <glyph glyph-name="guilsinglleft" unicode="&#x2039;" horiz-adv-x="406" 
d="M264 0l-238 255l238 254h104l-232 -252l235 -257h-107z" />
    <glyph glyph-name="guilsinglright" unicode="&#x203a;" horiz-adv-x="406" 
d="M142 509l238 -255l-238 -254h-104l232 252l-235 257h107z" />
    <glyph glyph-name="fraction" unicode="&#x2044;" horiz-adv-x="578" 
d="M25 0l394 700h79l-395 -700h-78z" />
    <glyph glyph-name="uni2070" unicode="&#x2070;" horiz-adv-x="355" 
d="M178 345q-69 0 -111 50t-42 130q0 81 42 130.5t111 49.5q68 0 110 -49.5t43 -130.5q-1 -80 -43 -130t-110 -50zM178 402q41 0 65 33.5t24 89.5q0 57 -24 90.5t-65 33.5t-64.5 -33.5t-24.5 -90.5q1 -56 24.5 -89.5t64.5 -33.5z" />
    <glyph glyph-name="uni2074" unicode="&#x2074;" horiz-adv-x="341" 
d="M218 350v83h-197v53l188 214h75v-212h43v-55h-43v-83h-66zM96 488h122v139z" />
    <glyph glyph-name="uni2075" unicode="&#x2075;" horiz-adv-x="315" 
d="M150 345q-77 0 -130 47l40 45q22 -20 44 -28.5t48 -8.5q33 0 53 17t20 43t-21.5 42.5t-55.5 16.5q-15 0 -32.5 -3t-34.5 -10l-42 13l9 181h224v-56h-172l-3 -84q16 6 32 8.5t33 2.5q59 0 94.5 -30t35.5 -80q0 -52 -39.5 -84t-102.5 -32z" />
    <glyph glyph-name="uni2076" unicode="&#x2076;" horiz-adv-x="331" 
d="M178 345q-69 0 -111.5 47.5t-42.5 124.5q0 85 47.5 136.5t126.5 51.5q26 0 53.5 -9t46.5 -24l-37 -47q-15 12 -32.5 17t-36.5 5q-47 0 -73 -31t-29 -90q18 20 43.5 31t52.5 11q54 0 88 -30.5t34 -77.5q0 -49 -37 -82t-93 -33zM175 517q-23 0 -44 -10.5t-37 -29.5
q8 -35 29.5 -55.5t52.5 -20.5q29 0 48.5 16.5t19.5 41.5q0 26 -19 42t-50 16z" />
    <glyph glyph-name="uni2077" unicode="&#x2077;" horiz-adv-x="307" 
d="M58 350l163 294h-204v56h279v-48l-160 -302h-78z" />
    <glyph glyph-name="uni2078" unicode="&#x2078;" horiz-adv-x="331" 
d="M166 345q-62 0 -101 28.5t-39 73.5q0 28 17 50.5t46 33.5q-23 11 -37 32t-14 45q0 42 36.5 70t90.5 28q55 0 91.5 -28t36.5 -70q0 -24 -14 -45t-37 -32q28 -11 45 -33.5t17 -50.5q0 -45 -38.5 -73.5t-99.5 -28.5zM166 555q26 0 44 14t18 35t-17.5 35t-44.5 14
q-28 0 -46 -14t-18 -35t18 -35t46 -14zM166 399q31 0 52 15t21 37q0 24 -21 39t-52 15q-33 0 -53.5 -15t-20.5 -39q0 -22 20.5 -37t53.5 -15z" />
    <glyph glyph-name="uni2079" unicode="&#x2079;" horiz-adv-x="331" 
d="M153 705q69 0 111.5 -48t42.5 -125q0 -84 -47.5 -135.5t-126.5 -51.5q-26 0 -53.5 9t-46.5 23l37 48q15 -12 32.5 -17.5t36.5 -5.5q47 0 73 31.5t29 89.5q-18 -19 -43 -30.5t-53 -11.5q-54 0 -88 30.5t-34 77.5q0 50 37 83t93 33zM156 533q24 0 44.5 10t36.5 30
q-8 35 -29.5 55.5t-52.5 20.5q-29 0 -48.5 -16.5t-19.5 -41.5q0 -26 19 -42t50 -16z" />
    <glyph glyph-name="uni2080" unicode="&#x2080;" horiz-adv-x="355" 
d="M178 -5q-69 0 -111 50t-42 130q0 81 42 130.5t111 49.5q68 0 110 -49.5t43 -130.5q-1 -80 -43 -130t-110 -50zM178 52q41 0 65 33.5t24 89.5q0 57 -24 90.5t-65 33.5t-64.5 -33.5t-24.5 -90.5q1 -56 24.5 -89.5t64.5 -33.5z" />
    <glyph glyph-name="uni2081" unicode="&#x2081;" horiz-adv-x="177" 
d="M86 0v283l-67 -27v56l91 38h41v-350h-65z" />
    <glyph glyph-name="uni2082" unicode="&#x2082;" horiz-adv-x="297" 
d="M26 0v47l138 123q25 23 35 39.5t10 34.5q0 24 -18 39.5t-47 15.5q-24 0 -46 -10t-48 -33l-37 43q31 28 64 42t69 14q56 0 91.5 -29.5t35.5 -77.5q0 -30 -15 -56t-53 -60l-86 -77h158v-55h-251z" />
    <glyph glyph-name="uni2083" unicode="&#x2083;" horiz-adv-x="319" 
d="M154 -5q-41 0 -76.5 14t-60.5 40l44 41q21 -22 42 -30.5t51 -8.5q33 0 53 14t20 37q0 21 -18.5 32.5t-49.5 11.5h-32v53h26q27 0 45 15t18 37q0 21 -17.5 34.5t-45.5 13.5q-27 0 -46.5 -9.5t-42.5 -32.5l-44 41q26 27 61.5 42.5t73.5 15.5q56 0 92 -27.5t35 -70.5
q1 -26 -13.5 -47.5t-39.5 -33.5q29 -10 47 -31t18 -49q0 -44 -39.5 -73t-100.5 -29z" />
    <glyph glyph-name="uni2084" unicode="&#x2084;" horiz-adv-x="341" 
d="M218 0v83h-197v53l188 214h75v-212h43v-55h-43v-83h-66zM96 138h122v139z" />
    <glyph glyph-name="uni2085" unicode="&#x2085;" horiz-adv-x="315" 
d="M150 -5q-77 0 -130 47l40 45q22 -20 44 -28.5t48 -8.5q33 0 53 17t20 43t-21.5 42.5t-55.5 16.5q-15 0 -32.5 -3t-34.5 -10l-42 13l9 181h224v-56h-172l-3 -84q16 6 32 8.5t33 2.5q59 0 94.5 -30t35.5 -80q0 -52 -39.5 -84t-102.5 -32z" />
    <glyph glyph-name="uni2086" unicode="&#x2086;" horiz-adv-x="331" 
d="M178 -5q-69 0 -111.5 47.5t-42.5 124.5q0 85 47.5 136.5t126.5 51.5q26 0 53.5 -9t46.5 -24l-37 -47q-15 12 -32.5 17t-36.5 5q-47 0 -73 -31t-29 -90q18 20 43.5 31t52.5 11q54 0 88 -30.5t34 -77.5q0 -49 -37 -82t-93 -33zM175 167q-23 0 -44 -10.5t-37 -29.5
q8 -35 29.5 -55.5t52.5 -20.5q29 0 48.5 16.5t19.5 41.5q0 26 -19 42t-50 16z" />
    <glyph glyph-name="uni2087" unicode="&#x2087;" horiz-adv-x="307" 
d="M58 0l163 294h-204v56h279v-48l-160 -302h-78z" />
    <glyph glyph-name="uni2088" unicode="&#x2088;" horiz-adv-x="331" 
d="M166 -5q-62 0 -101 28.5t-39 73.5q0 28 17 50.5t46 33.5q-23 11 -37 32t-14 45q0 42 36.5 70t90.5 28q55 0 91.5 -28t36.5 -70q0 -24 -14 -45t-37 -32q28 -11 45 -33.5t17 -50.5q0 -45 -38.5 -73.5t-99.5 -28.5zM166 205q26 0 44 14t18 35t-17.5 35t-44.5 14
q-28 0 -46 -14t-18 -35t18 -35t46 -14zM166 49q31 0 52 15t21 37q0 24 -21 39t-52 15q-33 0 -53.5 -15t-20.5 -39q0 -22 20.5 -37t53.5 -15z" />
    <glyph glyph-name="uni2089" unicode="&#x2089;" horiz-adv-x="331" 
d="M153 355q69 0 111.5 -47.5t42.5 -124.5q0 -85 -47.5 -136.5t-126.5 -51.5q-26 0 -53.5 9t-46.5 24l37 47q15 -12 32.5 -17t36.5 -5q47 0 73 31t29 90q-18 -20 -43.5 -31t-52.5 -11q-54 0 -88 30.5t-34 77.5q0 49 37 82t93 33zM156 183q23 0 44 10.5t37 29.5
q-8 35 -29.5 55.5t-52.5 20.5q-29 0 -48.5 -16.5t-19.5 -41.5q0 -26 19 -42t50 -16z" />
    <glyph glyph-name="Euro" unicode="&#x20ac;" horiz-adv-x="781" 
d="M467 -11q-85 0 -154.5 33.5t-116.5 93t-65 139.5h-97v59h88q-1 9 -1.5 18t-0.5 18q0 10 0.5 19.5t1.5 18.5h-88v59h97q19 80 66 139t117 92t155 33q86 0 155.5 -32t116.5 -94l-70 -54q-34 47 -86.5 71.5t-116.5 24.5q-59 0 -107 -22t-81.5 -62.5t-50.5 -95.5h272l-22 -59
h-262q-1 -9 -1 -18.5v-19.5v-18t1 -18h236l-22 -59h-202q16 -55 49.5 -96t81.5 -63.5t107 -22.5q62 0 116.5 25.5t87.5 70.5l67 -52q-46 -62 -116 -95t-155 -33z" />
    <glyph glyph-name="trademark" unicode="&#x2122;" horiz-adv-x="681" 
d="M325 421v279h68l82 -167l82 167h67v-279h-52l2 214l-99 -196l-99 193l1 -211h-52zM127 421v232h-97v47h248v-47h-97v-232h-54z" />
    <glyph glyph-name="uni2191" unicode="&#x2191;" horiz-adv-x="550" 
d="M227 0v570l-155 -200l-61 51l263 329l263 -329l-61 -51l-156 202v-572h-93z" />
    <glyph glyph-name="uni2193" unicode="&#x2193;" horiz-adv-x="550" 
d="M321 700v-570l155 200l61 -51l-263 -329l-263 329l61 51l156 -202v572h93z" />
    <glyph glyph-name="minus" unicode="&#x2212;" 
d="M94 319v78h412v-78h-412z" />
    <glyph glyph-name="uni2215" unicode="&#x2215;" horiz-adv-x="578" 
d="M26 0l394 700h77l-394 -700h-77z" />
    <glyph glyph-name="notequal" unicode="&#x2260;" 
d="M102 111l79 118h-87v78h136l65 97h-201v77h251l77 117h76l-77 -117h85v-77h-135l-65 -97h200v-78h-249l-79 -118h-76z" />
    <glyph glyph-name="fi" unicode="&#xfb01;" horiz-adv-x="614" 
d="M135 0v425h-118v84h118v77q0 80 44.5 122t127.5 42q21 0 39.5 -2.5t33.5 -7.5v-86q-18 5 -32 7.5t-31 2.5q-42 0 -62.5 -19.5t-20.5 -61.5v-74h146v-84h-146v-425h-99zM456 0v509h100v-509h-100zM506 591q-25 0 -43 18.5t-18 43.5q0 26 18 43.5t43 17.5q26 0 44 -17.5
t18 -43.5q0 -25 -18 -43.5t-44 -18.5z" />
    <glyph glyph-name="fl" unicode="&#xfb02;" horiz-adv-x="614" 
d="M135 0v425h-118v84h118v77q0 80 44.5 122t127.5 42q21 0 39.5 -2.5t33.5 -7.5v-86q-18 5 -32 7.5t-31 2.5q-42 0 -62.5 -19.5t-20.5 -61.5v-74h146v-84h-146v-425h-99zM456 0v700l100 19v-719h-100z" />
    <glyph glyph-name="uniFEFF" unicode="&#xfeff;" horiz-adv-x="0" 
 />
    <glyph glyph-name="uniFFFD" unicode="&#xfffd;" horiz-adv-x="575" 
d="M90 -100v850h394v-850h-394z" />
    <glyph glyph-name="NULL" horiz-adv-x="209" 
 />
    <glyph glyph-name="CR" horiz-adv-x="209" 
 />
    <glyph glyph-name="idotaccent" horiz-adv-x="216" 
d="M59 0v509h100v-509h-100zM109 591q-25 0 -43 18.5t-18 43.5q0 26 18 43.5t43 17.5q26 0 44 -17.5t18 -43.5q0 -25 -18 -43.5t-44 -18.5z" />
    <glyph glyph-name="a.school" horiz-adv-x="607" 
d="M293 -8q-71 0 -130 35t-93 94.5t-34 133.5t34 133t93.5 94t131.5 35q42 0 81 -13t72 -38v43h100v-509h-99v49q-65 -57 -156 -57zM306 79q44 0 80.5 16t61.5 46v229q-25 28 -61.5 44.5t-80.5 16.5q-48 0 -87 -23t-62 -62.5t-23 -89.5t23 -90t62 -63.5t87 -23.5z" />
    <glyph glyph-name="aacute.school" horiz-adv-x="607" 
d="M293 -8q-71 0 -130 35t-93 94.5t-34 133.5t34 133t93.5 94t131.5 35q42 0 81 -13t72 -38v43h100v-509h-99v49q-65 -57 -156 -57zM306 79q44 0 80.5 16t61.5 46v229q-25 28 -61.5 44.5t-80.5 16.5q-48 0 -87 -23t-62 -62.5t-23 -89.5t23 -90t62 -63.5t87 -23.5zM232 603
l92 122h121l-129 -122h-84z" />
    <glyph glyph-name="abreve.school" horiz-adv-x="607" 
d="M293 -8q-71 0 -130 35t-93 94.5t-34 133.5t34 133t93.5 94t131.5 35q42 0 81 -13t72 -38v43h100v-509h-99v49q-65 -57 -156 -57zM306 79q44 0 80.5 16t61.5 46v229q-25 28 -61.5 44.5t-80.5 16.5q-48 0 -87 -23t-62 -62.5t-23 -89.5t23 -90t62 -63.5t87 -23.5zM303 595
q-63 0 -106 34t-57 94l65 17q23 -84 98 -84q36 0 61 21t37 63l65 -17q-14 -60 -57 -94t-106 -34z" />
    <glyph glyph-name="acircumflex.school" horiz-adv-x="607" 
d="M293 -8q-71 0 -130 35t-93 94.5t-34 133.5t34 133t93.5 94t131.5 35q42 0 81 -13t72 -38v43h100v-509h-99v49q-65 -57 -156 -57zM306 79q44 0 80.5 16t61.5 46v229q-25 28 -61.5 44.5t-80.5 16.5q-48 0 -87 -23t-62 -62.5t-23 -89.5t23 -90t62 -63.5t87 -23.5zM382 600
l-80 77l-79 -77h-81l109 127h104l109 -127h-82z" />
    <glyph glyph-name="adieresis.school" horiz-adv-x="607" 
d="M293 -8q-71 0 -130 35t-93 94.5t-34 133.5t34 133t93.5 94t131.5 35q42 0 81 -13t72 -38v43h100v-509h-99v49q-65 -57 -156 -57zM306 79q44 0 80.5 16t61.5 46v229q-25 28 -61.5 44.5t-80.5 16.5q-48 0 -87 -23t-62 -62.5t-23 -89.5t23 -90t62 -63.5t87 -23.5zM206 608
q-25 0 -42 16.5t-17 41.5t17 41.5t42 16.5t42 -16.5t17 -41.5q0 -24 -17 -41t-42 -17zM400 608q-25 0 -42 16.5t-17 41.5t17 41.5t42 16.5t42 -16.5t17 -41.5q0 -24 -17 -41t-42 -17z" />
    <glyph glyph-name="agrave.school" horiz-adv-x="607" 
d="M293 -8q-71 0 -130 35t-93 94.5t-34 133.5t34 133t93.5 94t131.5 35q42 0 81 -13t72 -38v43h100v-509h-99v49q-65 -57 -156 -57zM306 79q44 0 80.5 16t61.5 46v229q-25 28 -61.5 44.5t-80.5 16.5q-48 0 -87 -23t-62 -62.5t-23 -89.5t23 -90t62 -63.5t87 -23.5zM280 603
l-128 122h122l90 -122h-84z" />
    <glyph glyph-name="amacron.school" horiz-adv-x="607" 
d="M293 -8q-71 0 -130 35t-93 94.5t-34 133.5t34 133t93.5 94t131.5 35q42 0 81 -13t72 -38v43h100v-509h-99v49q-65 -57 -156 -57zM306 79q44 0 80.5 16t61.5 46v229q-25 28 -61.5 44.5t-80.5 16.5q-48 0 -87 -23t-62 -62.5t-23 -89.5t23 -90t62 -63.5t87 -23.5zM154 622
v67h298v-67h-298z" />
    <glyph glyph-name="aogonek.school" horiz-adv-x="607" 
d="M487 -221q-46 0 -73.5 24t-27.5 64q0 36 22.5 67.5t72.5 65.5h-32v49q-65 -57 -156 -57q-71 0 -130 35t-93 94.5t-34 133.5t34.5 133t93.5 94t131 35q42 0 81 -13t72 -38v43h100v-509q-52 -31 -76 -59.5t-24 -56.5q0 -23 14.5 -35.5t40.5 -12.5q12 0 24 3t21 10l16 -48
q-16 -10 -36 -16t-41 -6zM134 256q0 -50 23 -90t62 -63.5t87 -23.5q44 0 80.5 16t61.5 46v229q-25 28 -62 44.5t-80 16.5q-48 0 -87 -23t-62 -62.5t-23 -89.5z" />
    <glyph glyph-name="aring.school" horiz-adv-x="607" 
d="M293 -8q-71 0 -130 35t-93 94.5t-34 133.5t34 133t93.5 94t131.5 35q42 0 81 -13t72 -38v43h100v-509h-99v49q-65 -57 -156 -57zM306 79q44 0 80.5 16t61.5 46v229q-25 28 -61.5 44.5t-80.5 16.5q-48 0 -87 -23t-62 -62.5t-23 -89.5t23 -90t62 -63.5t87 -23.5zM303 584
q-32 0 -58.5 15.5t-42 42t-15.5 57.5t15.5 57t42 42t58.5 16t58.5 -16t42 -42t15.5 -57t-15.5 -57.5t-42 -42t-58.5 -15.5zM303 632q28 0 47.5 19.5t19.5 47.5t-19.5 47.5t-47.5 19.5t-47.5 -19.5t-19.5 -47.5t19.5 -47.5t47.5 -19.5z" />
    <glyph glyph-name="atilde.school" horiz-adv-x="607" 
d="M293 -8q-71 0 -130 35t-93 94.5t-34 133.5t34 133t93.5 94t131.5 35q42 0 81 -13t72 -38v43h100v-509h-99v49q-65 -57 -156 -57zM306 79q44 0 80.5 16t61.5 46v229q-25 28 -61.5 44.5t-80.5 16.5q-48 0 -87 -23t-62 -62.5t-23 -89.5t23 -90t62 -63.5t87 -23.5zM190 596
l-66 13q24 109 103 109q27 0 53 -13t49 -26.5t44 -13.5q17 0 27 12.5t17 43.5l64 -13q-11 -55 -37 -82t-65 -27q-26 0 -52.5 13.5t-50 26.5t-43.5 13q-18 0 -27.5 -13t-15.5 -43z" />
    <glyph glyph-name="g.alt" horiz-adv-x="559" 
d="M265 -214q-116 0 -179 31.5t-63 88.5q0 33 26.5 60t73.5 43q-37 26 -37 71q0 27 18 50.5t48 36.5q-44 26 -71 68t-27 93q0 54 29.5 97t79 68.5t110.5 25.5q40 0 76.5 -12t64.5 -32q20 32 50 50t65 18q8 0 15 -1t11 -3l3 -79q-6 1 -14.5 1.5t-17.5 0.5q-45 0 -76 -22
q19 -24 30 -52t11 -60q0 -53 -29.5 -97t-78.5 -69.5t-110 -25.5q-17 0 -33 2.5t-32 6.5q-33 -15 -33 -41q0 -35 59 -38l178 -7q67 -3 104.5 -32.5t37.5 -79.5q0 -49 -35.5 -85.5t-100 -56t-153.5 -19.5zM273 214q35 0 63 15t44 41t16 58t-16 58t-44 40.5t-63 14.5t-63 -14.5
t-44.5 -40.5t-16.5 -58t16.5 -58t44.5 -41t63 -15zM262 -146q88 0 140 20.5t52 55.5q0 39 -59 41l-161 7q-12 1 -22.5 2t-20.5 3q-36 -9 -56 -25.5t-20 -38.5q0 -31 38 -48t109 -17z" />
    <glyph glyph-name="gbreve.alt" horiz-adv-x="559" 
d="M265 -214q-116 0 -179 31.5t-63 88.5q0 33 26.5 60t73.5 43q-37 26 -37 71q0 27 18 50.5t48 36.5q-44 26 -71 68t-27 93q0 54 29.5 97t79 68.5t110.5 25.5q40 0 76.5 -12t64.5 -32q20 32 50 50t65 18q8 0 15 -1t11 -3l3 -79q-6 1 -14.5 1.5t-17.5 0.5q-45 0 -76 -22
q19 -24 30 -52t11 -60q0 -53 -29.5 -97t-78.5 -69.5t-110 -25.5q-17 0 -33 2.5t-32 6.5q-33 -15 -33 -41q0 -35 59 -38l178 -7q67 -3 104.5 -32.5t37.5 -79.5q0 -49 -35.5 -85.5t-100 -56t-153.5 -19.5zM273 214q35 0 63 15t44 41t16 58t-16 58t-44 40.5t-63 14.5t-63 -14.5
t-44.5 -40.5t-16.5 -58t16.5 -58t44.5 -41t63 -15zM262 -146q88 0 140 20.5t52 55.5q0 39 -59 41l-161 7q-12 1 -22.5 2t-20.5 3q-36 -9 -56 -25.5t-20 -38.5q0 -31 38 -48t109 -17zM275 595q-63 0 -106 34t-57 94l65 17q23 -84 98 -84q36 0 61 21t37 63l65 -17
q-14 -60 -57 -94t-106 -34z" />
    <glyph glyph-name="gcircumflex.alt" horiz-adv-x="559" 
d="M265 -214q-116 0 -179 31.5t-63 88.5q0 33 26.5 60t73.5 43q-37 26 -37 71q0 27 18 50.5t48 36.5q-44 26 -71 68t-27 93q0 54 29.5 97t79 68.5t110.5 25.5q40 0 76.5 -12t64.5 -32q20 32 50 50t65 18q8 0 15 -1t11 -3l3 -79q-6 1 -14.5 1.5t-17.5 0.5q-45 0 -76 -22
q19 -24 30 -52t11 -60q0 -53 -29.5 -97t-78.5 -69.5t-110 -25.5q-17 0 -33 2.5t-32 6.5q-33 -15 -33 -41q0 -35 59 -38l178 -7q67 -3 104.5 -32.5t37.5 -79.5q0 -49 -35.5 -85.5t-100 -56t-153.5 -19.5zM273 214q35 0 63 15t44 41t16 58t-16 58t-44 40.5t-63 14.5t-63 -14.5
t-44.5 -40.5t-16.5 -58t16.5 -58t44.5 -41t63 -15zM262 -146q88 0 140 20.5t52 55.5q0 39 -59 41l-161 7q-12 1 -22.5 2t-20.5 3q-36 -9 -56 -25.5t-20 -38.5q0 -31 38 -48t109 -17zM354 600l-80 77l-79 -77h-81l109 127h104l109 -127h-82z" />
    <glyph glyph-name="gcommaaccent.alt" horiz-adv-x="559" 
d="M265 -214q-116 0 -179 31.5t-63 88.5q0 33 26.5 60t73.5 43q-37 26 -37 71q0 27 18 50.5t48 36.5q-44 26 -71 68t-27 93q0 54 29.5 97t79 68.5t110.5 25.5q40 0 76.5 -12t64.5 -32q20 32 50 50t65 18q8 0 15 -1t11 -3l3 -79q-6 1 -14.5 1.5t-17.5 0.5q-45 0 -76 -22
q19 -24 30 -52t11 -60q0 -53 -29.5 -97t-78.5 -69.5t-110 -25.5q-17 0 -33 2.5t-32 6.5q-33 -15 -33 -41q0 -35 59 -38l178 -7q67 -3 104.5 -32.5t37.5 -79.5q0 -49 -35.5 -85.5t-100 -56t-153.5 -19.5zM273 214q35 0 63 15t44 41t16 58t-16 58t-44 40.5t-63 14.5t-63 -14.5
t-44.5 -40.5t-16.5 -58t16.5 -58t44.5 -41t63 -15zM262 -146q88 0 140 20.5t52 55.5q0 39 -59 41l-161 7q-12 1 -22.5 2t-20.5 3q-36 -9 -56 -25.5t-20 -38.5q0 -31 38 -48t109 -17zM372 793l-46 -189h-96l68 189h74z" />
    <glyph glyph-name="gdotaccent.alt" horiz-adv-x="559" 
d="M265 -214q-116 0 -179 31.5t-63 88.5q0 33 26.5 60t73.5 43q-37 26 -37 71q0 27 18 50.5t48 36.5q-44 26 -71 68t-27 93q0 54 29.5 97t79 68.5t110.5 25.5q40 0 76.5 -12t64.5 -32q20 32 50 50t65 18q8 0 15 -1t11 -3l3 -79q-6 1 -14.5 1.5t-17.5 0.5q-45 0 -76 -22
q19 -24 30 -52t11 -60q0 -53 -29.5 -97t-78.5 -69.5t-110 -25.5q-17 0 -33 2.5t-32 6.5q-33 -15 -33 -41q0 -35 59 -38l178 -7q67 -3 104.5 -32.5t37.5 -79.5q0 -49 -35.5 -85.5t-100 -56t-153.5 -19.5zM273 214q35 0 63 15t44 41t16 58t-16 58t-44 40.5t-63 14.5t-63 -14.5
t-44.5 -40.5t-16.5 -58t16.5 -58t44.5 -41t63 -15zM262 -146q88 0 140 20.5t52 55.5q0 39 -59 41l-161 7q-12 1 -22.5 2t-20.5 3q-36 -9 -56 -25.5t-20 -38.5q0 -31 38 -48t109 -17zM275 602q-25 0 -42.5 17t-17.5 42q0 24 17.5 41t42.5 17t42.5 -17t17.5 -41
q0 -25 -17.5 -42t-42.5 -17z" />
    <glyph glyph-name="caronSlovak" 
d="M283 505l5 195l90 15l-29 -210h-66z" />
    <glyph glyph-name="commaaccent" 
d="M206 -273l46 189h96l-68 -189h-74z" />
    <glyph glyph-name="exclamdown.cap" horiz-adv-x="221" 
d="M153 499l12 -505h-103l12 505h79zM113 706q26 0 45 -18.5t19 -44.5t-19 -44.5t-45 -18.5t-44.5 18.5t-18.5 44.5t18.5 44.5t44.5 18.5z" />
    <glyph glyph-name="questiondown.cap" horiz-adv-x="515" 
d="M331 495q2 -46 -5 -79t-25.5 -59t-49.5 -49l-47 -33q-39 -28 -55 -51.5t-16 -52.5q0 -28 17.5 -49t46.5 -34t66 -13q47 0 88 23t69 65l80 -41q-26 -42 -63.5 -72t-82.5 -45.5t-96 -15.5q-64 0 -114 23.5t-79.5 63.5t-29.5 92q0 34 11 62t37 54.5t72 58.5l31 22
q35 23 49 53.5t11 76.5h85zM288 707q26 0 44.5 -18.5t18.5 -44.5t-18.5 -44.5t-44.5 -18.5t-44.5 18.5t-18.5 44.5t18.5 44.5t44.5 18.5z" />
    <glyph glyph-name="periodcentered.cap" horiz-adv-x="252" 
d="M125 285q-26 0 -44.5 18.5t-18.5 44.5q0 27 18.5 45.5t44.5 18.5t44.5 -18.5t18.5 -45.5q0 -26 -18.5 -44.5t-44.5 -18.5z" />
    <glyph glyph-name="hyphen.cap" horiz-adv-x="452" 
d="M46 304v87h360v-87h-360z" />
    <glyph glyph-name="endash.cap" horiz-adv-x="552" 
d="M46 304v87h460v-87h-460z" />
    <glyph glyph-name="emdash.cap" horiz-adv-x="702" 
d="M46 304v87h610v-87h-610z" />
    <glyph glyph-name="uni2015.cap" horiz-adv-x="952" 
d="M46 304v87h860v-87h-860z" />
    <glyph glyph-name="at.cap" horiz-adv-x="784" 
d="M406 -11q-78 0 -144.5 26.5t-115.5 73.5t-76.5 111.5t-27.5 139.5q0 79 27.5 147t76.5 118t115 78.5t144 28.5q71 0 132 -23.5t106.5 -65t71 -97.5t25.5 -120t-23.5 -114t-65 -78.5t-94.5 -28.5q-69 0 -98 41q-24 -21 -51 -32t-54 -11q-41 0 -74 20t-51.5 54.5
t-18.5 77.5q0 50 23 91t62 65t88 24q58 0 97 -36l5 23h72l-40 -198q-7 -31 6.5 -48t43.5 -17q33 0 59 21t41 58t15 84q0 74 -37 132.5t-100 92t-143 33.5q-63 0 -118 -24t-96.5 -67t-64.5 -101t-23 -124q0 -88 39.5 -156t109.5 -106.5t159 -38.5q92 0 167 39l22 -49
q-45 -22 -92.5 -33t-98.5 -11zM371 243q41 0 73 31v18.5t3 20.5l20 99q-14 20 -35.5 30.5t-47.5 10.5q-28 0 -51.5 -15t-37.5 -40.5t-14 -56.5q0 -43 25 -70.5t65 -27.5z" />
    <glyph glyph-name="zero.tab" 
d="M300 -11q-77 0 -136.5 43.5t-92.5 124.5t-33 193q0 113 33 193.5t92.5 124t136.5 43.5q78 0 137 -43.5t92 -124t33 -193.5q0 -112 -33 -193t-92 -124.5t-137 -43.5zM168 174l218 419q-18 16 -39.5 24t-46.5 8q-50 0 -87.5 -34t-58 -95.5t-20.5 -145.5q0 -53 9 -97.5
t25 -78.5zM300 75q50 0 87.5 34t58 95.5t20.5 145.5q0 53 -9 97.5t-25 78.5l-218 -419q37 -32 86 -32z" />
    <glyph glyph-name="one.tab" 
d="M75 0v83h177v515l-177 -77v87l212 92h61v-617h193v-83h-466z" />
    <glyph glyph-name="two.tab" 
d="M67 0v70l284 302q29 30 45 54t22.5 45.5t6.5 45.5q0 47 -38 78t-96 31q-48 0 -90 -19t-93 -66l-54 66q56 52 115.5 78t123.5 26q67 0 118 -24t79.5 -66.5t28.5 -97.5q0 -35 -9 -64.5t-31 -62t-62 -74.5l-228 -240l344 1v-83h-466z" />
    <glyph glyph-name="three.tab" 
d="M287 -11q-75 0 -140.5 26.5t-113.5 76.5l65 62q42 -44 85.5 -62.5t102.5 -18.5q47 0 83.5 16t56.5 44t20 65q0 34 -17.5 60.5t-47 41t-69.5 14.5h-85v81h78q53 0 85 31t32 81q0 33 -18 60t-49.5 42.5t-71.5 15.5q-53 0 -93.5 -18.5t-83.5 -64.5l-65 62q48 52 111 79.5
t133 27.5q68 0 120.5 -25t83 -69.5t30.5 -100.5q0 -55 -36.5 -98.5t-95.5 -60.5q71 -15 113 -59.5t42 -104.5q0 -59 -32.5 -105t-90.5 -72.5t-132 -26.5z" />
    <glyph glyph-name="four.tab" 
d="M394 0v178h-371v78l361 444h104v-439h91v-83h-91v-178h-94zM131 261h263v325z" />
    <glyph glyph-name="five.tab" 
d="M285 -11q-140 0 -243 95l59 66q45 -41 89.5 -59.5t97.5 -18.5q48 0 83 18.5t55 52t20 76.5q0 63 -44.5 102t-115.5 39q-36 0 -71 -9.5t-73 -29.5l-68 21l16 358h416v-83h-332l-10 -216q39 20 74.5 27.5t73.5 7.5q70 0 121.5 -26.5t80.5 -74.5t29 -111q0 -70 -32.5 -122.5
t-90.5 -82.5t-135 -30z" />
    <glyph glyph-name="six.tab" 
d="M322 -10q-84 0 -148 43t-100 119.5t-36 177.5q0 115 40 200.5t112.5 133t169.5 47.5q48 0 95.5 -14.5t82.5 -41.5l-51 -71q-31 20 -64.5 30t-70.5 10q-68 0 -116.5 -34.5t-74.5 -99.5t-27 -157q37 49 89 76.5t108 27.5q69 0 122 -27.5t83 -76.5t30 -112q0 -66 -32 -118.5
t-87 -82.5t-125 -30zM317 360q-52 0 -98.5 -24t-80.5 -66q9 -59 33.5 -103.5t62.5 -69t85 -24.5q44 0 78 19t53.5 52t19.5 75q0 41 -19.5 73t-54 50t-79.5 18z" />
    <glyph glyph-name="seven.tab" 
d="M118 0l334 615h-408v85h512v-73l-326 -627h-112z" />
    <glyph glyph-name="eight.tab" 
d="M300 -11q-75 0 -132.5 26t-90.5 72t-33 105q0 41 19.5 76t55 61t80.5 37q-58 18 -94 61t-36 96q0 54 30.5 96.5t82.5 67t118 24.5t118.5 -24.5t82.5 -67t30 -96.5q0 -53 -36 -96t-94 -61q69 -18 112 -65.5t43 -108.5q0 -59 -32.5 -105t-90.5 -72t-133 -26zM300 403
q39 0 70 15t49 41t18 58q0 33 -18 59.5t-49 41t-70 14.5t-70 -14.5t-49 -40.5t-18 -59t18 -59t49 -41t70 -15zM300 68q46 0 82 16.5t57 46t21 66.5t-21 66.5t-57 46t-82 16.5t-82 -17t-57 -46t-21 -66t21 -66.5t57 -46t82 -16.5z" />
    <glyph glyph-name="nine.tab" 
d="M278 711q84 0 148 -43t100 -119.5t36 -177.5q0 -115 -40 -200.5t-112.5 -133t-169.5 -47.5q-48 0 -95.5 14.5t-82.5 41.5l51 71q31 -20 64.5 -30t70.5 -10q68 0 116.5 34.5t74.5 99.5t27 157q-37 -49 -89 -76.5t-108 -27.5q-69 0 -122 27.5t-83 76.5t-30 112
q0 66 32 118.5t87 82.5t125 30zM283 341q52 0 98.5 24t80.5 66q-9 59 -33.5 103.5t-62.5 69t-85 24.5q-44 0 -78 -19t-53.5 -52t-19.5 -75q0 -41 19.5 -73t54 -50t79.5 -18z" />
    <glyph glyph-name="gravecomb" horiz-adv-x="0" 
d="M283 603l-128 122h122l90 -122h-84z" />
    <glyph glyph-name="acutecomb" horiz-adv-x="0" 
d="M229 603l92 122h121l-129 -122h-84z" />
    <glyph glyph-name="uni0302" horiz-adv-x="0" 
d="M379 600l-80 77l-79 -77h-81l109 127h104l109 -127h-82z" />
    <glyph glyph-name="tildecomb" horiz-adv-x="0" 
d="M187 595l-66 13q24 109 103 109q27 0 53 -13t49 -26.5t44 -13.5q17 0 27 12.5t17 43.5l64 -13q-11 -55 -37 -82t-65 -27q-26 0 -52.5 13.5t-50 26.5t-43.5 13q-18 0 -27.5 -13t-15.5 -43z" />
    <glyph glyph-name="uni0304" horiz-adv-x="0" 
d="M151 622v67h298v-67h-298z" />
    <glyph glyph-name="uni0306" horiz-adv-x="0" 
d="M300 595q-63 0 -106 34t-57 94l65 17q23 -84 98 -84q36 0 61 21t37 63l65 -17q-14 -60 -57 -94t-106 -34z" />
    <glyph glyph-name="uni0307" horiz-adv-x="0" 
d="M300 602q-25 0 -42.5 17t-17.5 42q0 24 17.5 41t42.5 17t42.5 -17t17.5 -41q0 -25 -17.5 -42t-42.5 -17z" />
    <glyph glyph-name="uni0308" horiz-adv-x="0" 
d="M203 608q-25 0 -42 16.5t-17 41.5t17 41.5t42 16.5t42 -16.5t17 -41.5q0 -24 -17 -41t-42 -17zM397 608q-25 0 -42 16.5t-17 41.5t17 41.5t42 16.5t42 -16.5t17 -41.5q0 -24 -17 -41t-42 -17z" />
    <glyph glyph-name="uni030A" horiz-adv-x="0" 
d="M300 584q-32 0 -58.5 15.5t-42 42t-15.5 57.5t15.5 57t42 42t58.5 16t58.5 -16t42 -42t15.5 -57t-15.5 -57.5t-42 -42t-58.5 -15.5zM300 632q28 0 47.5 19.5t19.5 47.5t-19.5 47.5t-47.5 19.5t-47.5 -19.5t-19.5 -47.5t19.5 -47.5t47.5 -19.5z" />
    <glyph glyph-name="uni030B" horiz-adv-x="0" 
d="M162 606l103 119h107l-130 -119h-80zM344 606l103 119h108l-135 -119h-76z" />
    <glyph glyph-name="uni030C" horiz-adv-x="0" 
d="M222 727l79 -76l78 76h82l-109 -126h-104l-109 126h83z" />
    <glyph glyph-name="uni0326" horiz-adv-x="0" 
d="M206 -273l46 189h96l-68 -189h-74z" />
    </font>
</defs>
</svg>
