<?xml version="1.0" standalone="no"?>
<!DOCTYPE svg PUBLIC "-//W3C//DTD SVG 1.1//EN" "http://www.w3.org/Graphics/SVG/1.1/DTD/svg11.dtd" >
<svg xmlns="http://www.w3.org/2000/svg" xmlns:xlink="http://www.w3.org/1999/xlink" version="1.1">
<metadata>
Created by FontForge 20170731 at Thu Jul 28 13:13:41 2022
 By Aleksey,,,
Copyright 2021 The Red Hat Project Authors (https://github.com/RedHatOfficial/RedHatFont)
</metadata>
<defs>
<font id="RedHatDisplay-BoldItalic" horiz-adv-x="600" >
  <font-face 
    font-family="Red Hat Display"
    font-weight="700"
    font-style="italic"
    font-stretch="normal"
    units-per-em="1000"
    panose-1="2 1 3 3 4 2 1 13 3 3"
    ascent="800"
    descent="-200"
    x-height="521"
    cap-height="700"
    bbox="-170 -286 1146 1004"
    underline-thickness="100"
    underline-position="-350"
    slope="-12"
    unicode-range="U+0020-FFFD"
  />
<missing-glyph horiz-adv-x="514" 
d="M60 -100v850h394v-850h-394z" />
    <glyph glyph-name=".notdef" horiz-adv-x="514" 
d="M60 -100v850h394v-850h-394z" />
    <glyph glyph-name=".null" horiz-adv-x="0" 
 />
    <glyph glyph-name="nonmarkingreturn" horiz-adv-x="333" 
 />
    <glyph glyph-name="space" unicode=" " horiz-adv-x="201" 
 />
    <glyph glyph-name="exclam" unicode="!" horiz-adv-x="235" 
d="M56 210l87 491h137l-121 -491h-103zM68 -10q-30 0 -50.5 20.5t-20.5 50.5q0 24 12.5 44.5t33 33.5t45.5 13q30 0 49.5 -20.5t19.5 -50.5q0 -24 -12.5 -44.5t-32.5 -33.5t-44 -13z" />
    <glyph glyph-name="quotedbl" unicode="&#x22;" horiz-adv-x="435" 
d="M108 425l44 280h131l-77 -280h-98zM293 425l44 280h131l-77 -280h-98z" />
    <glyph glyph-name="numbersign" unicode="#" horiz-adv-x="723" 
d="M9 0l96 194h-96l21 98h123l57 116h-107l22 98h133l96 194h121l-96 -194h148l95 194h121l-96 -194h95l-21 -98h-122l-57 -116h105l-20 -98h-133l-96 -194h-120l96 194h-148l-96 -194h-121zM274 292h148l57 116h-148z" />
    <glyph glyph-name="dollar" unicode="$" horiz-adv-x="589" 
d="M184 -66l18 87q-65 11 -122 42.5t-102 82.5l88 92q74 -82 161 -103l35 167l-58 15q-68 18 -104.5 59.5t-36.5 102.5q0 64 32.5 110.5t92 72t139.5 25.5h17l17 80h65l-19 -88q59 -10 112 -36t93 -66l-84 -94q-66 64 -145 82l-32 -153l39 -9q84 -21 125 -62t41 -104
q0 -67 -35 -117t-98.5 -77.5t-149.5 -27.5h-7l-17 -81h-65zM288 422l32 152h-8q-56 0 -89 -21t-33 -57q0 -26 19.5 -42.5t60.5 -27.5zM290 128q42 1 71.5 11.5t46 30t16.5 44.5q0 19 -9.5 32.5t-31 24.5t-59.5 21z" />
    <glyph glyph-name="percent" unicode="%" horiz-adv-x="802" 
d="M209 345q-62 0 -99 38.5t-37 102.5q0 61 25 110.5t67 79.5t94 30q63 0 99.5 -38.5t36.5 -102.5q0 -61 -25 -111t-66.5 -79.5t-94.5 -29.5zM217 418q28 0 49.5 19t34.5 51t13 71q0 35 -17 54.5t-47 19.5q-26 0 -47.5 -19t-34.5 -51t-13 -71q0 -35 16.5 -54.5t45.5 -19.5z
M98 0l536 700h98l-539 -700h-95zM579 -5q-62 0 -99 38t-37 103q0 61 25 110.5t67 79.5t94 30q63 0 99.5 -38.5t36.5 -102.5q0 -61 -25 -110.5t-66.5 -79.5t-94.5 -30zM587 68q28 0 49.5 19t34.5 51t13 71q0 35 -17 54.5t-47 19.5q-26 0 -47.5 -19t-34.5 -51t-13 -71
q0 -35 16.5 -54.5t45.5 -19.5z" />
    <glyph glyph-name="ampersand" unicode="&#x26;" horiz-adv-x="670" 
d="M619 80l-91 -95q-19 16 -38.5 33.5t-39.5 36.5q-46 -32 -97 -48.5t-107 -16.5q-70 0 -122.5 22t-81 63t-28.5 97q0 48 18 87t57.5 71.5t100.5 60.5q-16 32 -23 60t-7 58q0 59 27 104t74.5 71t108.5 26q52 0 91 -19t61 -51.5t22 -75.5q0 -55 -33 -99t-99 -77l-55 -28
q22 -33 50 -67.5t57 -67.5q23 29 43.5 66.5t39.5 81.5l111 -29q-26 -61 -55 -109.5t-61 -86.5q20 -19 39 -36t38 -32zM282 527q0 -20 6 -40.5t19 -45.5l47 23q33 17 50 38.5t17 46.5q0 27 -16.5 43.5t-46.5 16.5q-22 0 -39 -10.5t-27 -29t-10 -42.5zM141 190
q0 -42 32.5 -67.5t88.5 -25.5q30 0 58 9t55 26q-36 40 -70 84.5t-65 90.5q-35 -17 -57 -35t-32 -38t-10 -44z" />
    <glyph glyph-name="quotesingle" unicode="'" horiz-adv-x="246" 
d="M108 425l44 280h131l-77 -280h-98z" />
    <glyph glyph-name="parenleft" unicode="(" horiz-adv-x="404" 
d="M208 -218q-82 62 -125.5 153t-43.5 202q0 124 44.5 235.5t126.5 199t192 139.5l56 -91q-67 -33 -121 -82t-92.5 -110.5t-59 -131.5t-20.5 -146q0 -89 34 -163t99 -127z" />
    <glyph glyph-name="parenright" unicode=")" horiz-adv-x="404" 
d="M196 713q83 -63 126 -154t43 -202q0 -123 -44.5 -235t-126 -199.5t-192.5 -138.5l-56 91q67 32 121 81.5t92.5 111t59 131.5t20.5 145q0 90 -33.5 163.5t-99.5 127.5z" />
    <glyph glyph-name="asterisk" unicode="*" horiz-adv-x="466" 
d="M202 317l26 117l-113 -58l-32 80l124 58l-97 75l61 68l89 -73l23 116h87l-27 -118l116 58l34 -77l-127 -62l95 -72l-63 -70l-86 71l-22 -113h-88z" />
    <glyph glyph-name="plus" unicode="+" 
d="M224 129l37 175h-166l23 106h166l37 174h103l-38 -174h166l-22 -106h-166l-37 -175h-103z" />
    <glyph glyph-name="comma" unicode="," horiz-adv-x="250" 
d="M-82 -151l123 263h139l-160 -263h-102z" />
    <glyph glyph-name="hyphen" unicode="-" horiz-adv-x="449" 
d="M57 343h370l-24 -116h-370z" />
    <glyph glyph-name="period" unicode="." horiz-adv-x="250" 
d="M76 -10q-30 0 -50.5 20.5t-20.5 50.5q0 24 12.5 44.5t33 33.5t44.5 13q31 0 50.5 -20.5t19.5 -50.5q0 -24 -12.5 -44.5t-32.5 -33.5t-44 -13z" />
    <glyph glyph-name="slash" unicode="/" horiz-adv-x="508" 
d="M-170 -209l609 909h143l-608 -909h-144z" />
    <glyph glyph-name="zero" unicode="0" horiz-adv-x="673" 
d="M308 -10q-80 0 -139 34t-91.5 97t-32.5 148q0 91 28 171t77 141t114.5 95.5t138.5 34.5q81 0 139.5 -34.5t91.5 -97t33 -147.5q0 -91 -28 -171.5t-77.5 -141t-114.5 -95t-139 -34.5zM321 108q44 0 82.5 25t68 68.5t46.5 100.5t17 122q0 79 -38.5 124t-106.5 45
q-43 0 -82 -25t-68.5 -68.5t-46.5 -101t-17 -122.5q0 -78 38.5 -123t106.5 -45z" />
    <glyph glyph-name="one" unicode="1" horiz-adv-x="343" 
d="M100 0l119 561l-146 -57l25 120l200 76h85l-149 -700h-134z" />
    <glyph glyph-name="two" unicode="2" horiz-adv-x="562" 
d="M-14 0l19 93l352 306q41 35 57.5 61.5t16.5 55.5q0 36 -28.5 57.5t-73.5 21.5q-41 0 -84 -18t-96 -57l-57 95q58 47 122.5 71t128.5 24q65 0 113.5 -22.5t75.5 -62t27 -92.5q0 -37 -11.5 -70t-37.5 -65t-69 -68l-256 -220l310 1l-24 -111h-485z" />
    <glyph glyph-name="three" unicode="3" horiz-adv-x="604" 
d="M271 -10q-83 0 -153.5 36.5t-111.5 98.5l96 74q38 -50 79.5 -72t93.5 -22q42 0 74 13.5t50 38t18 54.5q0 39 -28.5 62t-80.5 23h-66l23 109h67q37 0 66 13t45.5 36.5t16.5 52.5q0 38 -30 63t-82 25q-45 0 -88 -16.5t-85 -50.5l-65 91q49 43 113.5 67t132.5 24
q72 0 125 -23.5t82.5 -65t29.5 -93.5q0 -67 -43.5 -116.5t-118.5 -67.5q55 -17 84 -53.5t29 -87.5q0 -60 -36 -108.5t-97.5 -76.5t-139.5 -28z" />
    <glyph glyph-name="four" unicode="4" horiz-adv-x="659" 
d="M359 0l35 164h-388l23 110l458 426h154l-90 -421h86l-25 -115h-85l-35 -164h-133zM189 279h229l57 265z" />
    <glyph glyph-name="five" unicode="5" horiz-adv-x="591" 
d="M263 -10q-80 0 -145.5 29.5t-110.5 84.5l92 84q39 -45 80.5 -65t92.5 -20q41 0 73.5 16.5t51.5 45.5t19 65q0 49 -38 79.5t-98 30.5q-24 0 -50.5 -6.5t-56.5 -20.5l-90 36l89 351h438l-25 -112h-319l-45 -170q32 12 58 17t52 5q65 0 113.5 -24t76 -67t27.5 -100
q0 -73 -37.5 -131.5t-102.5 -93t-145 -34.5z" />
    <glyph glyph-name="six" unicode="6" horiz-adv-x="625" 
d="M310 -11q-75 0 -132.5 34.5t-90 98.5t-32.5 152q0 95 28.5 174.5t79 138.5t117.5 91.5t144 32.5q63 0 116.5 -21t93.5 -59l-79 -94q-33 30 -67.5 44.5t-71.5 14.5q-56 0 -104.5 -32.5t-82 -90.5t-44.5 -135q38 46 86 70.5t100 24.5q61 0 107.5 -25t73.5 -68t27 -99
q0 -53 -21.5 -99t-58.5 -80t-85.5 -53.5t-103.5 -19.5zM321 102q37 0 67 16.5t47.5 45t17.5 64.5q0 30 -15 53.5t-42 37t-62 13.5q-42 0 -81.5 -15.5t-72.5 -47.5q2 -52 19.5 -89.5t49 -57.5t72.5 -20z" />
    <glyph glyph-name="seven" unicode="7" horiz-adv-x="589" 
d="M49 0l432 585h-381l26 115h524l-22 -98l-418 -602h-161z" />
    <glyph glyph-name="eight" unicode="8" horiz-adv-x="621" 
d="M283 -11q-74 0 -130.5 24t-88 67t-31.5 97q0 46 22.5 85t61 67.5t88.5 40.5q-40 20 -62 53t-22 73q0 62 35 110.5t94 76.5t130 28q67 0 117 -23.5t78 -64t28 -91.5q0 -41 -19 -76t-53 -62t-78 -40q47 -20 76.5 -58t29.5 -86q0 -63 -37.5 -113t-99.5 -79t-139 -29z
M354 408q33 0 60 14t43.5 38.5t16.5 53.5q0 25 -12.5 46t-36.5 32.5t-57 11.5t-60.5 -14.5t-44.5 -39t-17 -54.5q0 -25 14 -45t38 -31.5t56 -11.5zM293 98q40 0 70.5 14.5t48.5 40.5t18 58q0 29 -16 51t-44 35.5t-67 13.5t-70 -15t-49.5 -40t-18.5 -57q0 -29 16 -51.5
t44.5 -36t67.5 -13.5z" />
    <glyph glyph-name="nine" unicode="9" horiz-adv-x="625" 
d="M349 711q76 0 133.5 -34.5t90 -98t32.5 -152.5q0 -94 -28.5 -174t-79.5 -139t-117.5 -91.5t-143.5 -32.5q-63 0 -116.5 21t-94.5 59l80 94q33 -30 67.5 -44.5t71.5 -14.5q57 0 105 32.5t81.5 90.5t44.5 135q-38 -46 -86 -70.5t-100 -24.5q-60 0 -107 25t-74 68.5
t-27 98.5q0 53 21 99t58.5 80t85.5 53.5t103 19.5zM339 598q-37 0 -67 -16.5t-47.5 -45t-17.5 -64.5q0 -30 15 -53.5t42 -37t62 -13.5q42 0 81.5 16t72.5 47q-1 52 -19 89.5t-49.5 57.5t-72.5 20z" />
    <glyph glyph-name="colon" unicode=":" horiz-adv-x="250" 
d="M77 -10q-30 0 -50.5 20.5t-20.5 50.5q0 24 12.5 44.5t33 33.5t44.5 13q31 0 50.5 -20.5t19.5 -50.5q0 -24 -12.5 -44.5t-32.5 -33.5t-44 -13zM157 368q-30 0 -50.5 20.5t-20.5 50.5q0 24 12.5 44.5t33 33.5t44.5 13q31 0 50.5 -20.5t19.5 -50.5q0 -24 -12.5 -44.5
t-32.5 -33.5t-44 -13z" />
    <glyph glyph-name="semicolon" unicode=";" horiz-adv-x="250" 
d="M165 368q-30 0 -50.5 20.5t-20.5 50.5q0 24 12.5 44.5t33 33.5t44.5 13q31 0 50.5 -20.5t19.5 -50.5q0 -24 -12.5 -44.5t-32.5 -33.5t-44 -13zM-82 -151l123 263h139l-160 -263h-102z" />
    <glyph glyph-name="less" unicode="&#x3c;" 
d="M397 60l-283 288l404 287l55 -84l-299 -209l207 -204z" />
    <glyph glyph-name="equal" unicode="=" 
d="M74 203l22 106h434l-22 -106h-434zM115 394l22 106h434l-22 -106h-434z" />
    <glyph glyph-name="greater" unicode="&#x3e;" 
d="M247 635l283 -287l-404 -288l-55 84l299 209l-207 205z" />
    <glyph glyph-name="question" unicode="?" horiz-adv-x="515" 
d="M165 213q8 48 20.5 81t35.5 57t58 45l62 37q34 20 52.5 44t18.5 47q0 33 -26.5 52t-71.5 19q-42 0 -81 -20.5t-64 -56.5l-97 51q44 66 113.5 103.5t145.5 37.5q64 0 112.5 -21t76 -58t27.5 -87q0 -59 -36.5 -107t-119.5 -95l-37 -22q-36 -19 -52.5 -42.5t-23.5 -64.5
h-113zM184 -10q-31 0 -51 20.5t-20 50.5q0 24 12 44.5t33 33.5t45 13q31 0 50.5 -20.5t19.5 -50.5q0 -24 -12.5 -44.5t-33 -33.5t-43.5 -13z" />
    <glyph glyph-name="at" unicode="@" horiz-adv-x="776" 
d="M400 -144q-80 0 -147.5 26t-117.5 73.5t-77.5 111.5t-27.5 140q0 80 27.5 148.5t77.5 119.5t118 79t148 28q72 0 133.5 -23.5t107.5 -65t71.5 -96.5t25.5 -119q0 -68 -24 -120t-67 -81.5t-100 -29.5q-74 0 -103 41q-47 -41 -105 -41q-41 0 -74 21t-52 56.5t-19 78.5
q0 52 23.5 93t64 66t90.5 25q26 0 50 -9t42 -24l4 20h96l-44 -206q-5 -25 6 -38.5t36 -13.5q31 0 54.5 20t36.5 55t13 80q0 72 -35 128.5t-96 89t-138 32.5q-63 0 -117 -23.5t-94.5 -65t-63.5 -98t-23 -121.5q0 -86 38 -151.5t106 -102.5t156 -37q91 0 164 36l27 -58
q-48 -22 -94 -33t-97 -11zM363 126q36 0 64 25q-1 14 3 31l18 89q-12 17 -30 25.5t-42 8.5t-44 -12.5t-32.5 -34t-12.5 -47.5q0 -37 21.5 -61t54.5 -24z" />
    <glyph glyph-name="A" unicode="A" horiz-adv-x="718" 
d="M-59 0l428 700h164l133 -700h-146l-32 184h-284l-107 -184h-156zM272 300h197l-45 258z" />
    <glyph glyph-name="B" unicode="B" horiz-adv-x="678" 
d="M7 0l149 700h301q96 0 152.5 -45.5t56.5 -121.5q0 -58 -31.5 -104.5t-83.5 -73.5q39 -21 60.5 -55t21.5 -77q0 -64 -35 -114.5t-95 -79.5t-137 -29h-359zM237 414h173q48 0 79.5 26.5t31.5 68.5q0 34 -23.5 52.5t-63.5 18.5h-162zM174 120h195q36 0 63 13t42.5 37
t15.5 54q0 36 -25.5 56.5t-70.5 20.5h-181z" />
    <glyph glyph-name="C" unicode="C" horiz-adv-x="708" 
d="M392 -12q-72 0 -133 25.5t-107.5 70.5t-72 105.5t-25.5 130.5q0 80 30.5 150.5t83.5 123.5t123.5 83.5t150.5 30.5q95 0 168.5 -36.5t118.5 -104.5l-110 -94q-30 50 -77.5 76t-107.5 26q-49 0 -91.5 -19t-74.5 -53t-50 -79t-18 -96q0 -59 27 -106t74 -74t107 -27
q52 0 101 21.5t89 62.5l78 -98q-55 -55 -131.5 -87t-152.5 -32z" />
    <glyph glyph-name="D" unicode="D" horiz-adv-x="723" 
d="M7 0l149 700h229q70 0 129 -23t103 -65t68 -99t24 -125q0 -79 -32 -149.5t-87.5 -124t-128.5 -84t-156 -30.5h-298zM176 129h141q51 0 95 19t77.5 53.5t52.5 79.5t19 97q0 57 -24.5 100.5t-68 68t-99.5 24.5h-99z" />
    <glyph glyph-name="E" unicode="E" horiz-adv-x="634" 
d="M7 0l149 700h527l-27 -126h-385l-35 -160h254l-26 -122h-253l-36 -166h390l-27 -126h-531z" />
    <glyph glyph-name="F" unicode="F" horiz-adv-x="628" 
d="M7 0l149 700h530l-28 -126h-387l-36 -165h257l-25 -122h-257l-61 -287h-142z" />
    <glyph glyph-name="G" unicode="G" horiz-adv-x="778" 
d="M383 -13q-71 0 -131.5 24t-105.5 68t-70 103.5t-25 128.5q0 81 31 153t86 127t126.5 86.5t152.5 31.5q90 0 165.5 -38.5t119.5 -105.5l-111 -93q-29 49 -78 76t-108 27q-49 0 -92 -19.5t-76 -54.5t-51.5 -81.5t-18.5 -99.5q0 -58 25.5 -103.5t71 -71.5t103.5 -26
q47 0 87.5 19t69.5 52.5t41 77.5h-204l26 125h353l-13 -69q-17 -98 -71 -174.5t-132 -119.5t-171 -43z" />
    <glyph glyph-name="H" unicode="H" horiz-adv-x="724" 
d="M7 0l149 700h142l-60 -282h316l60 282h141l-149 -700h-141l60 287h-316l-60 -287h-142z" />
    <glyph glyph-name="I" unicode="I" horiz-adv-x="266" 
d="M7 0l149 700h142l-149 -700h-142z" />
    <glyph glyph-name="J" unicode="J" horiz-adv-x="629" 
d="M275 -10q-109 0 -177.5 55.5t-83.5 158.5l132 46q18 -128 126 -128q62 0 106.5 40.5t59.5 110.5l90 427h144l-97 -451q-17 -80 -59 -138t-104 -89.5t-137 -31.5z" />
    <glyph glyph-name="K" unicode="K" horiz-adv-x="683" 
d="M7 0l149 700h142l-65 -302l358 302h185l-410 -338l266 -362h-179l-234 332l-70 -332h-142z" />
    <glyph glyph-name="L" unicode="L" horiz-adv-x="616" 
d="M7 0l149 700h142l-122 -572h375l-27 -128h-517z" />
    <glyph glyph-name="M" unicode="M" horiz-adv-x="864" 
d="M7 0l149 700h178l107 -377l269 377h186l-149 -700h-131l109 514l-335 -464l-140 467l-109 -517h-134z" />
    <glyph glyph-name="N" unicode="N" horiz-adv-x="734" 
d="M7 0l149 700h134l243 -465l98 465h134l-149 -700h-124l-249 481l-102 -481h-134z" />
    <glyph glyph-name="O" unicode="O" horiz-adv-x="797" 
d="M392 -11q-72 0 -133.5 25t-107.5 69.5t-71.5 105t-25.5 131.5q0 81 30.5 151.5t84 124.5t124 84.5t150.5 30.5q73 0 134 -25t107 -69.5t71.5 -105t25.5 -131.5q0 -81 -30.5 -151.5t-84 -124.5t-124 -84.5t-150.5 -30.5zM401 122q49 0 91.5 19.5t74.5 53.5t50.5 79.5
t18.5 96.5q0 59 -26 106t-72 74t-104 27q-48 0 -90.5 -19.5t-75 -53.5t-50.5 -79.5t-18 -96.5q0 -59 25.5 -106t71.5 -74t104 -27z" />
    <glyph glyph-name="P" unicode="P" horiz-adv-x="668" 
d="M7 0l149 700h312q65 0 113 -25t75 -69.5t27 -103.5q0 -67 -34.5 -121t-93.5 -85.5t-132 -31.5h-219l-55 -264h-142zM231 384h189q35 0 61.5 14t42 38t15.5 54q0 40 -26 62.5t-70 22.5h-172z" />
    <glyph glyph-name="Q" unicode="Q" horiz-adv-x="797" 
d="M392 -11q-72 0 -133.5 25t-107.5 69.5t-71.5 105t-25.5 131.5q0 81 30.5 151.5t84 124.5t124 84.5t150.5 30.5q73 0 134 -25t107 -69.5t71.5 -105t25.5 -131.5q0 -91 -38.5 -169.5t-104.5 -132.5l54 -93l-132 -17l-29 50q-31 -14 -66.5 -21.5t-72.5 -7.5zM401 122
q17 0 33 3.5t31 9.5l-62 107l131 17l35 -61q31 34 49 78t18 95q0 59 -26 106t-72 74t-104 27q-48 0 -90.5 -19.5t-75 -53.5t-50.5 -79.5t-18 -96.5q0 -59 25.5 -106t71.5 -74t104 -27z" />
    <glyph glyph-name="R" unicode="R" horiz-adv-x="666" 
d="M7 0l149 700h312q65 0 113 -24.5t74.5 -68.5t26.5 -102q0 -54 -23 -100.5t-63.5 -79t-95.5 -46.5l105 -279h-150l-92 268h-158l-56 -268h-142zM231 387h188q35 0 62 13.5t42 37.5t15 54q0 38 -25.5 60.5t-69.5 22.5h-172z" />
    <glyph glyph-name="S" unicode="S" horiz-adv-x="619" 
d="M307 -10q-95 0 -177 36.5t-142 105.5l95 98q54 -60 112 -89.5t124 -29.5q40 0 70 11t46.5 32t16.5 48q0 30 -23 48.5t-78 32.5l-131 34q-77 21 -116 65.5t-39 110.5q0 67 32.5 115.5t92.5 75t143 26.5q84 0 162.5 -31.5t136.5 -87.5l-89 -102q-52 50 -107 75t-116 25
q-54 0 -86.5 -21.5t-32.5 -58.5q0 -27 21 -44.5t68 -30.5l125 -30q89 -21 133.5 -67t44.5 -114q0 -70 -35.5 -122.5t-99.5 -81.5t-151 -29z" />
    <glyph glyph-name="T" unicode="T" horiz-adv-x="639" 
d="M193 0l122 572h-232l28 128h604l-28 -128h-230l-122 -572h-142z" />
    <glyph glyph-name="U" unicode="U" horiz-adv-x="710" 
d="M329 -10q-99 0 -166 42.5t-93 119t-4 176.5l79 372h142l-82 -386q-12 -57 0.5 -100t47 -66.5t86.5 -23.5q68 0 118.5 45.5t66.5 121.5l87 409h141l-90 -422q-19 -91 -65 -155t-114 -98.5t-154 -34.5z" />
    <glyph glyph-name="V" unicode="V" horiz-adv-x="718" 
d="M223 0l-133 700h148l95 -552l329 552h153l-427 -700h-165z" />
    <glyph glyph-name="W" unicode="W" horiz-adv-x="926" 
d="M123 0l-3 700h140l-7 -473l234 473h134l34 -472l193 472h146l-300 -700h-150l-33 489l-239 -489h-149z" />
    <glyph glyph-name="X" unicode="X" horiz-adv-x="686" 
d="M-58 0l344 365l-172 335h159l115 -230l211 230h172l-322 -342l184 -358h-160l-127 254l-233 -254h-171z" />
    <glyph glyph-name="Y" unicode="Y" horiz-adv-x="691" 
d="M219 0l56 269l-188 431h151l130 -304l256 304h167l-373 -434l-57 -266h-142z" />
    <glyph glyph-name="Z" unicode="Z" horiz-adv-x="604" 
d="M-34 0l21 99l469 475h-365l27 126h560l-22 -99l-470 -475h374l-27 -126h-567z" />
    <glyph glyph-name="bracketleft" unicode="[" horiz-adv-x="386" 
d="M-46 -213l195 913h293l-23 -107h-166l-148 -699h166l-23 -107h-294z" />
    <glyph glyph-name="backslash" unicode="\" horiz-adv-x="487" 
d="M462 -209h-134l-220 909h132z" />
    <glyph glyph-name="bracketright" unicode="]" horiz-adv-x="386" 
d="M425 700l-195 -913h-293l23 107h166l148 699h-166l23 107h294z" />
    <glyph glyph-name="asciicircum" unicode="^" 
d="M92 350l249 350h112l99 -350h-105l-70 248l-175 -248h-110z" />
    <glyph glyph-name="underscore" unicode="_" horiz-adv-x="484" 
d="M-94 -176l21 96h486l-21 -96h-486z" />
    <glyph glyph-name="grave" unicode="`" 
d="M330 608l-131 130h153l87 -130h-109z" />
    <glyph glyph-name="a" unicode="a" horiz-adv-x="545" 
d="M186 -6q-81 0 -129 39.5t-48 105.5q0 54 26.5 92t75.5 59t117 21q37 0 73.5 -7t68.5 -20l6 27q11 53 -15.5 79.5t-90.5 26.5q-29 0 -63.5 -8t-83.5 -26l-33 103q58 23 110 33.5t99 10.5q79 0 130.5 -26t72.5 -74.5t6 -116.5l-66 -313h-132l6 32q-31 -19 -63 -28.5
t-67 -9.5zM232 91q28 0 54 7.5t49 21.5l17 76q-52 25 -114 25q-47 0 -74.5 -19t-27.5 -51q0 -28 25.5 -44t70.5 -16z" />
    <glyph glyph-name="b" unicode="b" horiz-adv-x="619" 
d="M299 -8q-47 0 -87 15.5t-71 44.5l-11 -52h-132l149 700l140 30l-49 -234q56 32 119 32q66 0 118 -32t83 -86.5t31 -122.5q0 -62 -22.5 -115t-62 -93.5t-92 -63.5t-113.5 -23zM294 110q47 0 83.5 22t58.5 59.5t22 83.5q0 39 -17.5 70t-48.5 49t-70 18q-32 0 -60 -10
t-52 -31l-42 -202q20 -27 53 -43t73 -16z" />
    <glyph glyph-name="c" unicode="c" horiz-adv-x="520" 
d="M274 -10q-70 0 -126 31.5t-88.5 87t-32.5 125.5q0 61 22.5 115t62 94.5t92 63.5t111.5 23q66 0 122.5 -28t91.5 -77l-93 -84q-23 36 -54 53t-69 17q-31 0 -58.5 -13.5t-49 -37t-33 -54t-11.5 -65.5q0 -39 16.5 -69t45.5 -47t66 -17q32 0 61.5 13t58.5 39l68 -90
q-89 -80 -203 -80z" />
    <glyph glyph-name="d" unicode="d" horiz-adv-x="619" 
d="M262 -7q-65 0 -117.5 31.5t-83.5 86.5t-31 123q0 61 22.5 114.5t62.5 93.5t93 63t112 23q46 0 86.5 -14t70.5 -41l48 227l141 30l-155 -730h-133l5 26q-57 -33 -121 -33zM298 109q32 0 59.5 10t50.5 30l44 206q-20 25 -54 40.5t-73 15.5q-45 0 -82 -22.5t-59 -59.5
t-22 -83q0 -39 17.5 -70.5t48.5 -49t70 -17.5z" />
    <glyph glyph-name="e" unicode="e" horiz-adv-x="576" 
d="M291 -10q-76 0 -135.5 31.5t-93.5 88t-34 127.5q0 60 22 113t61 93.5t90 63t109 22.5q69 0 122 -32.5t83 -88.5t30 -130q0 -11 -0.5 -24t-4.5 -39h-378q6 -33 25 -58.5t48.5 -39.5t66.5 -14q33 0 62 10t51 28l75 -87q-48 -34 -95 -49t-104 -15zM170 312h249q-6 31 -22 54
t-40 36t-54 13t-56.5 -13t-46 -36t-30.5 -54z" />
    <glyph glyph-name="f" unicode="f" horiz-adv-x="422" 
d="M76 0l86 407h-113l24 114h113l14 64q18 81 71 124t137 43q25 0 52.5 -4t44.5 -12l-23 -114q-17 6 -34 9t-36 3q-34 0 -53.5 -15t-26.5 -47l-11 -51h138l-24 -114h-138l-87 -407h-134z" />
    <glyph glyph-name="g" unicode="g" horiz-adv-x="619" 
d="M261 -213q-65 0 -130 19t-113 53l62 102q44 -29 89 -44.5t88 -15.5q98 0 117 92l7 35q-55 -31 -119 -31q-65 0 -117.5 31t-82.5 85.5t-30 122.5q0 61 22.5 114t62 93t92 62.5t111.5 22.5q46 0 86 -13.5t70 -40.5l10 47h134l-114 -543q-20 -93 -82.5 -142t-162.5 -49z
M298 111q61 0 109 39l44 207q-21 24 -54 39t-72 15q-45 0 -82 -22t-58 -58.5t-21 -82.5q0 -39 17 -70t47.5 -49t69.5 -18z" />
    <glyph glyph-name="h" unicode="h" horiz-adv-x="582" 
d="M-2 0l149 700l140 30l-52 -247q64 46 141 46q62 0 104.5 -28.5t59.5 -77.5t4 -112l-66 -311h-135l64 298q10 52 -14 83.5t-74 31.5q-32 0 -59.5 -12t-49.5 -36l-78 -365h-134z" />
    <glyph glyph-name="i" unicode="i" horiz-adv-x="240" 
d="M-2 0l110 521h134l-110 -521h-134zM196 583q-29 0 -48.5 20t-19.5 49q0 24 12 44t31.5 31.5t42.5 11.5q29 0 48.5 -19.5t19.5 -48.5q0 -24 -12 -43.5t-31.5 -32t-42.5 -12.5z" />
    <glyph glyph-name="j" unicode="j" horiz-adv-x="240" 
d="M196 583q-29 0 -48.5 20t-19.5 49q0 24 12 44t31.5 31.5t42.5 11.5q29 0 48.5 -19.5t19.5 -48.5q0 -24 -12 -43.5t-31.5 -32t-42.5 -12.5zM-65 -215q-19 0 -43 4t-38 9l22 104q11 -3 22.5 -4.5t28.5 -1.5q25 0 39.5 12.5t19.5 37.5l122 575h135l-126 -589
q-14 -71 -62 -109t-120 -38z" />
    <glyph glyph-name="k" unicode="k" horiz-adv-x="557" 
d="M-2 0l149 700l140 30l-92 -433l256 224h167l-307 -260l209 -261h-163l-176 231l-49 -231h-134z" />
    <glyph glyph-name="l" unicode="l" horiz-adv-x="240" 
d="M-2 0l149 700l140 30l-155 -730h-134z" />
    <glyph glyph-name="m" unicode="m" horiz-adv-x="888" 
d="M-2 0l110 521h134l-8 -41q61 49 134 49q51 0 88 -22.5t56 -61.5q39 42 85 63t96 21q59 0 98.5 -28t56 -76.5t2.5 -111.5l-67 -313h-134l64 301q11 49 -10.5 80.5t-66.5 31.5q-58 0 -106 -56q-1 -10 -2.5 -21t-3.5 -23l-67 -313h-134l64 299q10 51 -10.5 82.5t-67.5 31.5
q-27 0 -52 -12t-48 -36l-77 -365h-134z" />
    <glyph glyph-name="n" unicode="n" horiz-adv-x="582" 
d="M-2 0l110 521h134l-8 -38q65 46 142 46q62 0 104.5 -28.5t59.5 -77.5t4 -112l-66 -311h-135l64 298q10 52 -14 83.5t-74 31.5q-32 0 -59.5 -12t-50.5 -36l-77 -365h-134z" />
    <glyph glyph-name="o" unicode="o" horiz-adv-x="607" 
d="M286 -10q-73 0 -131 33t-91.5 90t-33.5 127q0 60 22.5 112.5t63 92.5t93.5 63t112 23q73 0 130.5 -33t91.5 -89.5t34 -127.5q0 -60 -23 -112.5t-63.5 -92.5t-92.5 -63t-112 -23zM292 109q32 0 59.5 13t48.5 35.5t33 53t12 63.5q0 41 -17 72t-46.5 48.5t-67.5 17.5
q-31 0 -58.5 -13t-49 -35.5t-33 -53t-11.5 -63.5q0 -40 16.5 -71.5t46 -49t67.5 -17.5z" />
    <glyph glyph-name="p" unicode="p" horiz-adv-x="619" 
d="M-46 -204l154 725h133l-6 -27q57 34 122 34q66 0 118 -32t83 -86.5t31 -122.5q0 -62 -22.5 -115t-62 -93.5t-92 -63.5t-113.5 -23q-46 0 -86 15.5t-70 42.5l-55 -254h-134zM294 110q47 0 83.5 22t58.5 59.5t22 83.5q0 39 -17.5 70t-48.5 49t-70 18q-32 0 -60 -10t-51 -30
l-43 -203q20 -27 53 -43t73 -16z" />
    <glyph glyph-name="q" unicode="q" horiz-adv-x="619" 
d="M333 -204l49 229q-28 -15 -58 -23.5t-62 -8.5q-65 0 -117.5 31.5t-83.5 86.5t-31 123q0 61 22.5 114.5t62.5 93.5t93 63t112 23q47 0 87.5 -14t70.5 -42l10 49h133l-153 -725h-135zM298 109q32 0 59 10t51 30l44 205q-20 26 -54 41.5t-73 15.5q-45 0 -82 -22.5t-59 -59.5
t-22 -83q0 -39 17.5 -70.5t48.5 -49t70 -17.5z" />
    <glyph glyph-name="r" unicode="r" horiz-adv-x="399" 
d="M-3 0l111 521h134l-11 -52q29 30 64 46t74 16q43 0 65 -14l-25 -120q-10 7 -32 12.5t-42 5.5q-78 0 -131 -71l-72 -344h-135z" />
    <glyph glyph-name="s" unicode="s" horiz-adv-x="484" 
d="M228 -11q-72 0 -138 24t-109 65l77 87q42 -36 84.5 -54t86.5 -18q41 0 66.5 16t25.5 41q0 18 -14 29t-43 18l-96 21q-64 14 -97.5 50t-33.5 91q0 53 25 90.5t71.5 58.5t109.5 21t121 -20.5t104 -59.5l-75 -83q-39 30 -79.5 45.5t-79.5 15.5q-36 0 -57 -14t-21 -38
q0 -19 14.5 -30.5t47.5 -18.5l95 -21q66 -14 101 -50t35 -89q0 -50 -29 -90t-79 -63.5t-113 -23.5z" />
    <glyph glyph-name="t" unicode="t" horiz-adv-x="416" 
d="M249 -7q-88 0 -126.5 42t-21.5 120l53 252h-105l24 114h105l28 133l141 31l-35 -164h145l-24 -114h-145l-50 -229q-7 -38 8 -54.5t58 -16.5q16 0 31 2t33 6l-24 -111q-18 -4 -45 -7.5t-50 -3.5z" />
    <glyph glyph-name="u" unicode="u" horiz-adv-x="582" 
d="M205 -8q-61 0 -103.5 28.5t-59.5 77.5t-4 112l66 311h134l-63 -298q-11 -52 13.5 -83.5t74.5 -31.5q32 0 59.5 12.5t49.5 35.5l78 365h134l-111 -521h-134l8 38q-65 -46 -142 -46z" />
    <glyph glyph-name="v" unicode="v" horiz-adv-x="568" 
d="M164 0l-109 521h143l65 -347l213 347h147l-330 -521h-129z" />
    <glyph glyph-name="w" unicode="w" horiz-adv-x="756" 
d="M96 0l-31 521h125l13 -336l172 336h113l30 -336l156 336h128l-251 -521h-129l-28 334l-170 -334h-128z" />
    <glyph glyph-name="x" unicode="x" horiz-adv-x="543" 
d="M-58 0l257 267l-135 254h151l79 -155l145 155h157l-246 -256l139 -265h-149l-85 166l-156 -166h-157z" />
    <glyph glyph-name="y" unicode="y" horiz-adv-x="565" 
d="M22 -214q-22 0 -41.5 2.5t-37.5 7.5l24 117q10 -3 22 -4.5t27 -1.5q35 0 62.5 16t48.5 49l18 28l-90 521h143l54 -366l224 366h147l-368 -585q-50 -80 -104.5 -115t-128.5 -35z" />
    <glyph glyph-name="z" unicode="z" horiz-adv-x="489" 
d="M-29 0l21 97l313 309h-246l24 115h427l-20 -97l-315 -309h256l-25 -115h-435z" />
    <glyph glyph-name="braceleft" unicode="{" horiz-adv-x="420" 
d="M197 -218q-75 0 -114.5 31t-42.5 80.5t33 104.5l53 82q19 30 20.5 56t-14.5 42.5t-50 16.5h-82l22 102h82q48 0 73.5 32t17.5 79l-17 95q-9 59 12 105.5t66 74t107 27.5q28 0 55 -4.5t54 -17.5l-40 -97q-15 7 -32.5 11t-29.5 4q-37 0 -61 -26.5t-16 -78.5l17 -104
q6 -41 -10 -73.5t-47.5 -53.5t-70.5 -29q37 -11 60 -34.5t26 -57t-22 -73.5l-56 -90q-20 -33 -18.5 -55.5t18.5 -34.5t42 -12q15 0 27.5 2t24.5 6l-1 -99q-24 -7 -44.5 -9t-41.5 -2z" />
    <glyph glyph-name="bar" unicode="|" horiz-adv-x="318" 
d="M-3 -211l193 911h125l-193 -911h-125z" />
    <glyph glyph-name="braceright" unicode="}" horiz-adv-x="420" 
d="M217 707q74 0 113.5 -31t42.5 -80.5t-33 -105.5l-52 -81q-19 -30 -20.5 -56.5t14.5 -43t49 -16.5h82l-21 -101h-83q-48 0 -73.5 -32t-16.5 -79l16 -95q10 -59 -11.5 -106t-66 -74.5t-107.5 -27.5q-28 0 -54.5 5t-54.5 18l40 97q15 -7 32.5 -11t30.5 -4q36 0 60 26.5
t16 77.5l-16 104q-6 41 10 74t47 54.5t70 27.5q-37 11 -60 35t-25.5 57.5t21.5 72.5l56 90q21 33 19 56t-18.5 34.5t-42.5 11.5q-15 0 -27.5 -2t-23.5 -6v100q25 6 45 8.5t42 2.5z" />
    <glyph glyph-name="asciitilde" unicode="~" 
d="M147 297l-89 20q25 76 64.5 115.5t88.5 39.5q23 0 47.5 -8t52.5 -25l68 -43q19 -12 32.5 -17t24.5 -5q22 0 39 17.5t31 54.5l89 -21q-25 -74 -64.5 -114.5t-89.5 -40.5q-22 0 -47 8.5t-52 25.5l-68 42q-20 13 -33 18t-25 5q-22 0 -39 -18t-30 -54z" />
    <glyph glyph-name="uni00A0" unicode="&#xa0;" horiz-adv-x="201" 
 />
    <glyph glyph-name="exclamdown" unicode="&#xa1;" horiz-adv-x="235" 
d="M174 286l-87 -492h-137l121 492h103zM161 505q31 0 51.5 -20t20.5 -51q0 -24 -12.5 -44.5t-33 -33t-45.5 -12.5q-29 0 -49 20.5t-20 50.5q0 24 12.5 44.5t32.5 33t43 12.5z" />
    <glyph glyph-name="cent" unicode="&#xa2;" horiz-adv-x="521" 
d="M190 -112l23 108q-55 13 -97 46t-65.5 82.5t-23.5 109.5q0 63 22.5 116.5t63 94t95 63t119.5 22.5l18 90h59l-21 -98q45 -11 83 -36t63 -61l-93 -84q-16 24 -35.5 39.5t-42.5 22.5l-63 -295q31 2 58.5 15t55.5 37l68 -90q-44 -40 -96 -60t-111 -20l-22 -102h-58zM239 118
l62 292q-39 -4 -71 -27t-50.5 -60t-18.5 -82q0 -44 21 -76.5t57 -46.5z" />
    <glyph glyph-name="sterling" unicode="&#xa3;" horiz-adv-x="643" 
d="M424 -31q-20 0 -41 3.5t-45 9.5l-157 47q-11 3 -21 4.5t-19 1.5q-53 0 -96 -57l-87 74q35 46 75 69t88 25q15 10 23 26t8 38l1 76h-99l19 89h80l1 80q1 75 33.5 132.5t90 90.5t130.5 33q101 0 162.5 -50t76.5 -147l-115 -30q-16 116 -127 116q-57 0 -91 -38.5t-35 -103.5
v-83h184l-19 -89h-164l-1 -42q-1 -75 -50 -115l149 -44q12 -3 22 -4.5t19 -1.5q50 0 90 51l86 -67q-37 -48 -79 -71t-92 -23z" />
    <glyph glyph-name="uni00A4" unicode="&#xa4;" horiz-adv-x="685" 
d="M92 46l-65 65l95 96q-24 32 -37.5 72t-13.5 84q0 45 13.5 84.5t36.5 71.5l-94 97l66 67l97 -98q32 22 71 33.5t82 11.5t81.5 -12t71.5 -34l97 98l65 -65l-96 -97q24 -32 37.5 -72t13.5 -85q0 -44 -13 -83.5t-37 -71.5l96 -96l-67 -67l-96 98q-33 -22 -71.5 -34.5
t-82.5 -12.5q-43 0 -82.5 12.5t-71.5 34.5zM343 212q40 0 72.5 20t52 54.5t19.5 76.5q0 43 -19 77t-52 54.5t-74 20.5q-40 0 -72.5 -20.5t-52 -54.5t-19.5 -77q0 -42 19.5 -76.5t52 -54.5t73.5 -20z" />
    <glyph glyph-name="yen" unicode="&#xa5;" horiz-adv-x="696" 
d="M219 0l27 130h-172l15 74h172l13 59h-171l15 73h132l-163 364h151l130 -304l256 304h167l-317 -364h131l-15 -73h-173l-13 -59h172l-15 -74h-172l-28 -130h-142z" />
    <glyph glyph-name="uni00A6" unicode="&#xa6;" horiz-adv-x="320" 
d="M228 284h-126l89 416h126zM-2 -211l87 415h126l-87 -415h-126z" />
    <glyph glyph-name="section" unicode="&#xa7;" horiz-adv-x="567" 
d="M241 -52q-57 0 -112.5 20t-102.5 58l68 76q40 -32 79 -48.5t71 -16.5q31 0 50.5 16t19.5 40q0 32 -43 52l-98 49q-64 32 -91 62.5t-27 70.5q0 59 34.5 99.5t93.5 56.5q-20 27 -20 64q0 47 25 83.5t69 57.5t100 21q59 0 114 -19.5t102 -58.5l-69 -76q-40 32 -78 48.5
t-72 16.5q-30 0 -49.5 -15.5t-19.5 -40.5q0 -32 42 -53l99 -48q65 -32 92 -62t27 -71q0 -57 -34 -98.5t-94 -58.5q20 -26 20 -63q0 -47 -25 -83.5t-69 -57.5t-102 -21zM343 234q38 2 62.5 21.5t24.5 49.5q0 19 -12.5 34t-41.5 28l-119 56q-39 -2 -63.5 -21t-24.5 -50
q0 -19 13 -34t41 -28z" />
    <glyph glyph-name="dieresis" unicode="&#xa8;" 
d="M272 602q-27 0 -44.5 18t-17.5 46q0 33 23.5 57t56.5 24q25 0 42.5 -18t17.5 -46q0 -32 -23.5 -56.5t-54.5 -24.5zM483 602q-26 0 -44 18t-18 46q0 32 24 56.5t56 24.5q26 0 43 -18t17 -46q0 -32 -23.5 -56.5t-54.5 -24.5z" />
    <glyph glyph-name="copyright" unicode="&#xa9;" horiz-adv-x="774" 
d="M367 -10q-91 0 -162.5 41t-112.5 112.5t-41 161.5q0 83 31 156t85.5 129.5t125.5 88.5t150 32q92 0 163 -41.5t112 -113t41 -161.5q0 -83 -31 -156t-85.5 -129t-125.5 -88t-150 -32zM373 54q63 0 120 27t101 73.5t69.5 106t25.5 126.5q0 75 -32.5 133t-89.5 91.5
t-130 33.5q-63 0 -120 -26.5t-101 -73t-69 -106t-25 -125.5q0 -75 32.5 -133.5t89.5 -92.5t129 -34zM387 161q-48 0 -85.5 22t-59 59t-21.5 85q0 60 30 109t79.5 77.5t107.5 28.5q46 0 85.5 -20.5t63.5 -59.5l-77 -64q-17 25 -36 36.5t-44 11.5q-27 0 -50.5 -15.5t-38 -41
t-14.5 -56.5q0 -34 22 -56t56 -22q39 0 80 35l47 -73q-29 -26 -66.5 -41t-78.5 -15z" />
    <glyph glyph-name="ordfeminine" unicode="&#xaa;" horiz-adv-x="429" 
d="M200 306q-61 0 -97.5 30t-36.5 80q0 60 45 94.5t121 34.5q27 0 54 -5t51 -14l4 18q16 77 -78 77q-20 0 -46.5 -6t-63.5 -20l-26 81q86 34 159 34q92 0 134 -44.5t26 -120.5l-50 -234h-105l5 22q-44 -27 -96 -27zM237 382q39 0 74 20l12 55q-39 18 -81 18
q-35 0 -54.5 -13.5t-19.5 -36.5q0 -21 18 -32t51 -11z" />
    <glyph glyph-name="guillemotleft" unicode="&#xab;" horiz-adv-x="679" 
d="M451 521l-290 -262l177 -259h-137l-183 260l294 261h139zM698 521l-290 -262l177 -259h-137l-183 260l294 261h139z" />
    <glyph glyph-name="uni00AC" unicode="&#xac;" horiz-adv-x="558" 
d="M327 0l49 227h-341l24 116h476l-73 -343h-135z" />
    <glyph glyph-name="uni00AD" unicode="&#xad;" horiz-adv-x="458" 
d="M57 343h370l-24 -116h-370z" />
    <glyph glyph-name="registered" unicode="&#xae;" horiz-adv-x="477" 
d="M274 306q-52 0 -93 23.5t-64.5 64.5t-23.5 94q0 47 18 88.5t49.5 74t72 50.5t85.5 18q53 0 93.5 -23.5t64 -64.5t23.5 -93q0 -46 -18 -88t-49.5 -74.5t-72 -51t-85.5 -18.5zM278 351q48 0 87 25t62.5 67.5t23.5 93.5q0 62 -38 100t-100 38q-47 0 -86 -25.5t-62 -67.5
t-23 -94q0 -61 37.5 -99t98.5 -38zM204 420l40 188h78q26 0 41 -14t15 -39q0 -19 -11.5 -36t-30.5 -25l25 -74h-49l-22 66h-25l-14 -66h-47zM309 571h-26l-11 -51h30q14 0 22 8.5t8 20.5q0 22 -23 22z" />
    <glyph glyph-name="macron" unicode="&#xaf;" 
d="M223 625l19 86h310l-20 -86h-309z" />
    <glyph glyph-name="degree" unicode="&#xb0;" horiz-adv-x="367" 
d="M234 418q-37 0 -66.5 17t-46 46t-16.5 66q0 44 21.5 81t58 59t78.5 22q37 0 67 -17t46.5 -46t16.5 -66q0 -44 -21.5 -81t-58 -59t-79.5 -22zM239 491q22 0 40 11t29 29.5t11 39.5q0 28 -17.5 46.5t-43.5 18.5q-21 0 -39 -10.5t-29 -29t-11 -40.5q0 -27 17 -46t43 -19z
" />
    <glyph glyph-name="plusminus" unicode="&#xb1;" 
d="M31 -1l22 106h434l-22 -106h-434zM239 199l34 156h-167l23 106h166l33 155h103l-34 -155h166l-23 -106h-165l-34 -156h-102z" />
    <glyph glyph-name="twosuperior" unicode="&#xb2;" horiz-adv-x="301" 
d="M46 350l12 58l162 120q25 17 36.5 33t11.5 32q0 18 -14.5 29t-38.5 11q-20 0 -41.5 -8.5t-48.5 -29.5l-33 60q33 25 68.5 37.5t68.5 12.5q55 0 89 -27t34 -69q0 -34 -19 -64t-60 -60l-88 -65h131l-14 -70h-256z" />
    <glyph glyph-name="threesuperior" unicode="&#xb3;" horiz-adv-x="322" 
d="M191 345q-48 0 -85 17.5t-56 49.5l63 48q15 -23 35 -32.5t49 -9.5q26 0 43 10.5t17 26.5q0 15 -12 23.5t-35 8.5h-33l14 68h24q27 0 45.5 12t18.5 29q0 15 -14.5 25.5t-35.5 10.5q-44 0 -85 -35l-44 56q30 25 66.5 38.5t74.5 13.5q55 0 89.5 -26t34.5 -69
q0 -29 -18.5 -53t-47.5 -38q19 -10 29.5 -25.5t10.5 -36.5q0 -31 -19.5 -56.5t-53 -40.5t-75.5 -15z" />
    <glyph glyph-name="acute" unicode="&#xb4;" 
d="M306 608l117 130h154l-159 -130h-112z" />
    <glyph glyph-name="uni00B5" unicode="&#xb5;" horiz-adv-x="593" 
d="M-50 -209l155 730h137l-64 -303q-11 -50 12.5 -80t72.5 -30q35 0 65 13.5t53 38.5l77 361h137l-110 -521h-137l9 42q-72 -52 -158 -52q-19 0 -36 4t-30 10l-46 -213h-137z" />
    <glyph glyph-name="paragraph" unicode="&#xb6;" horiz-adv-x="724" 
d="M271 0l54 253h-13q-66 0 -116 24t-78 68t-28 101q0 74 35 131t96 90t139 33h375l-149 -700h-110l54 253h-95l-53 -253h-111zM458 361h95l48 228h-95zM319 361h28l49 228h-54q-38 0 -68 -16.5t-47.5 -45t-17.5 -65.5q0 -47 29.5 -74t80.5 -27z" />
    <glyph glyph-name="periodcentered" unicode="&#xb7;" horiz-adv-x="250" 
d="M121 205q-30 0 -50.5 20.5t-20.5 49.5q0 25 12.5 45.5t33 33t44.5 12.5q31 0 50.5 -20t19.5 -51q0 -23 -12.5 -44t-32.5 -33.5t-44 -12.5z" />
    <glyph glyph-name="cedilla" unicode="&#xb8;" 
d="M200 -235q-39 0 -69.5 12.5t-54.5 38.5l50 46q31 -33 77 -33q25 0 40 11t15 29q0 16 -13 26t-35 10h-39l47 95h67l-24 -47q36 -7 56 -27t20 -53q0 -30 -18.5 -54.5t-49.5 -39t-69 -14.5z" />
    <glyph glyph-name="onesuperior" unicode="&#xb9;" horiz-adv-x="191" 
d="M107 350l57 265l-79 -29l16 72l111 42h52l-75 -350h-82z" />
    <glyph glyph-name="ordmasculine" unicode="&#xba;" horiz-adv-x="475" 
d="M277 303q-55 0 -99 25t-69.5 67.5t-25.5 96.5q0 60 29.5 109.5t80 79t110.5 29.5q56 0 99.5 -24.5t69 -67.5t25.5 -97q0 -59 -30 -109t-80 -79.5t-110 -29.5zM282 396q31 0 56 16.5t40 44t15 60.5q0 29 -12.5 51t-34 35t-49.5 13q-30 0 -55 -16t-40 -43.5t-15 -59.5
q0 -29 12.5 -52t34 -36t48.5 -13z" />
    <glyph glyph-name="guillemotright" unicode="&#xbb;" horiz-adv-x="679" 
d="M228 0l289 262l-176 259h137l183 -260l-294 -261h-139zM-20 0l290 262l-177 259h137l183 -260l-293 -261h-140z" />
    <glyph glyph-name="onequarter" unicode="&#xbc;" horiz-adv-x="665" 
d="M467 0l17 77h-193l14 68l223 205h97l-44 -204h43l-15 -69h-42l-16 -77h-84zM399 146h100l24 115zM107 350l57 265l-79 -29l16 72l111 42h52l-75 -350h-82zM2 0l536 700h98l-539 -700h-95z" />
    <glyph glyph-name="onehalf" unicode="&#xbd;" horiz-adv-x="693" 
d="M107 350l57 265l-79 -29l16 72l111 42h52l-75 -350h-82zM1 0l536 700h98l-539 -700h-95zM358 0l12 58l162 120q25 17 36.5 33t11.5 32q0 18 -14.5 29t-38.5 11q-20 0 -41.5 -8.5t-48.5 -29.5l-33 60q33 25 68.5 37.5t68.5 12.5q55 0 89 -27t34 -69q0 -34 -19 -64t-60 -60
l-88 -65h131l-14 -70h-256z" />
    <glyph glyph-name="threequarters" unicode="&#xbe;" horiz-adv-x="759" 
d="M191 345q-48 0 -85 17.5t-56 49.5l63 48q15 -23 35 -32.5t49 -9.5q26 0 43 10.5t17 26.5q0 15 -12 23.5t-35 8.5h-33l14 68h24q27 0 45.5 12t18.5 29q0 15 -14.5 25.5t-35.5 10.5q-44 0 -85 -35l-44 56q30 25 66.5 38.5t74.5 13.5q55 0 89.5 -26t34.5 -69
q0 -29 -18.5 -53t-47.5 -38q19 -10 29.5 -25.5t10.5 -36.5q0 -31 -19.5 -56.5t-53 -40.5t-75.5 -15zM560 0l17 77h-193l14 68l223 205h97l-44 -204h43l-15 -69h-42l-16 -77h-84zM492 146h100l24 115zM95 0l536 700h98l-539 -700h-95z" />
    <glyph glyph-name="questiondown" unicode="&#xbf;" horiz-adv-x="515" 
d="M349 283q-7 -47 -20.5 -80t-36 -57.5t-57.5 -45.5l-62 -37q-34 -20 -53 -43.5t-19 -47.5q0 -32 27 -51.5t72 -19.5q43 0 81 21.5t64 55.5l97 -51q-44 -65 -113.5 -103t-146.5 -38q-63 0 -111.5 21t-76 58.5t-27.5 86.5q0 60 36.5 107.5t118.5 94.5l38 22q35 19 52 43
t24 64h113zM330 506q30 0 50.5 -20t20.5 -51q0 -24 -12 -44.5t-32.5 -33.5t-45.5 -13q-30 0 -50 21t-20 51q0 24 12.5 44.5t32.5 33t44 12.5z" />
    <glyph glyph-name="Agrave" unicode="&#xc0;" horiz-adv-x="718" 
d="M-59 0l428 700h164l133 -700h-146l-32 184h-284l-107 -184h-156zM272 300h197l-45 258zM414 787l-131 130h153l87 -130h-109z" />
    <glyph glyph-name="Aacute" unicode="&#xc1;" horiz-adv-x="718" 
d="M-59 0l428 700h164l133 -700h-146l-32 184h-284l-107 -184h-156zM272 300h197l-45 258zM390 787l117 130h154l-159 -130h-112z" />
    <glyph glyph-name="Acircumflex" unicode="&#xc2;" horiz-adv-x="718" 
d="M-59 0l428 700h164l133 -700h-146l-32 184h-284l-107 -184h-156zM272 300h197l-45 258zM278 784l141 136h138l83 -136h-105l-56 74l-89 -74h-112z" />
    <glyph glyph-name="Atilde" unicode="&#xc3;" horiz-adv-x="718" 
d="M-59 0l428 700h164l133 -700h-146l-32 184h-284l-107 -184h-156zM272 300h197l-45 258zM353 780l-78 27q50 113 122 113q31 0 57.5 -14.5t49 -29.5t41.5 -15q14 0 24.5 11.5t24.5 41.5l77 -26q-24 -58 -54 -86t-69 -28q-31 0 -57 14.5t-47.5 29.5t-42.5 15
q-14 0 -25 -12.5t-23 -40.5z" />
    <glyph glyph-name="Adieresis" unicode="&#xc4;" horiz-adv-x="718" 
d="M-59 0l428 700h164l133 -700h-146l-32 184h-284l-107 -184h-156zM272 300h197l-45 258zM356 781q-27 0 -44.5 18t-17.5 46q0 33 23.5 57t56.5 24q25 0 42.5 -18t17.5 -46q0 -32 -23.5 -56.5t-54.5 -24.5zM567 781q-26 0 -44 18t-18 46q0 32 24 56.5t56 24.5q26 0 43 -18
t17 -46q0 -32 -23.5 -56.5t-54.5 -24.5z" />
    <glyph glyph-name="Aring" unicode="&#xc5;" horiz-adv-x="718" 
d="M-59 0l428 700h164l133 -700h-146l-32 184h-284l-107 -184h-156zM272 300h197l-45 258zM466 765q-48 0 -79 30t-31 76q0 35 18.5 65.5t48.5 49t64 18.5q49 0 80 -30t31 -76q0 -35 -18.5 -65.5t-48.5 -49t-65 -18.5zM470 822q28 0 48 20.5t20 49.5q0 24 -15 39.5t-39 15.5
q-28 0 -48 -20.5t-20 -49.5q0 -24 15.5 -39.5t38.5 -15.5z" />
    <glyph glyph-name="AE" unicode="&#xc6;" horiz-adv-x="964" 
d="M-59 0l430 700h645l-26 -126h-426l26 -160h240l-27 -122h-196l26 -166h261l-26 -126h-357l-27 184h-284l-112 -184h-147zM271 300h197l-38 258z" />
    <glyph glyph-name="Ccedilla" unicode="&#xc7;" horiz-adv-x="708" 
d="M325 -235q-39 0 -69.5 12.5t-54.5 38.5l50 46q31 -33 77 -33q25 0 40 11t15 29q0 16 -13 26t-35 10h-39l43 87q-82 13 -146.5 58.5t-101.5 115t-37 154.5q0 80 30.5 150.5t83.5 123.5t123.5 83.5t150.5 30.5q95 0 168.5 -36.5t118.5 -104.5l-110 -94q-30 50 -77.5 76
t-107.5 26q-49 0 -91.5 -19t-74.5 -53t-50 -79t-18 -96q0 -59 27 -106t74 -74t107 -27q52 0 101 21.5t89 62.5l78 -98q-53 -53 -125.5 -84.5t-146.5 -34.5l-18 -35q36 -7 56 -27t20 -53q0 -30 -18.5 -54.5t-49.5 -39t-69 -14.5z" />
    <glyph glyph-name="Egrave" unicode="&#xc8;" horiz-adv-x="634" 
d="M7 0l149 700h527l-27 -126h-385l-35 -160h254l-26 -122h-253l-36 -166h390l-27 -126h-531zM386 787l-131 130h153l87 -130h-109z" />
    <glyph glyph-name="Eacute" unicode="&#xc9;" horiz-adv-x="634" 
d="M7 0l149 700h527l-27 -126h-385l-35 -160h254l-26 -122h-253l-36 -166h390l-27 -126h-531zM362 787l117 130h154l-159 -130h-112z" />
    <glyph glyph-name="Ecircumflex" unicode="&#xca;" horiz-adv-x="634" 
d="M7 0l149 700h527l-27 -126h-385l-35 -160h254l-26 -122h-253l-36 -166h390l-27 -126h-531zM249 784l141 136h138l83 -136h-105l-56 74l-89 -74h-112z" />
    <glyph glyph-name="Edieresis" unicode="&#xcb;" horiz-adv-x="634" 
d="M7 0l149 700h527l-27 -126h-385l-35 -160h254l-26 -122h-253l-36 -166h390l-27 -126h-531zM328 781q-27 0 -44.5 18t-17.5 46q0 33 23.5 57t56.5 24q25 0 42.5 -18t17.5 -46q0 -32 -23.5 -56.5t-54.5 -24.5zM539 781q-26 0 -44 18t-18 46q0 32 24 56.5t56 24.5
q26 0 43 -18t17 -46q0 -32 -23.5 -56.5t-54.5 -24.5z" />
    <glyph glyph-name="Igrave" unicode="&#xcc;" horiz-adv-x="266" 
d="M7 0l149 700h142l-149 -700h-142zM198 787l-131 130h153l87 -130h-109z" />
    <glyph glyph-name="Iacute" unicode="&#xcd;" horiz-adv-x="266" 
d="M7 0l149 700h142l-149 -700h-142zM174 787l117 130h154l-159 -130h-112z" />
    <glyph glyph-name="Icircumflex" unicode="&#xce;" horiz-adv-x="266" 
d="M7 0l149 700h142l-149 -700h-142zM61 784l141 136h138l83 -136h-105l-56 74l-89 -74h-112z" />
    <glyph glyph-name="Idieresis" unicode="&#xcf;" horiz-adv-x="266" 
d="M7 0l149 700h142l-149 -700h-142zM140 781q-27 0 -44.5 18t-17.5 46q0 33 23.5 57t56.5 24q25 0 42.5 -18t17.5 -46q0 -32 -23.5 -56.5t-54.5 -24.5zM351 781q-26 0 -44 18t-18 46q0 32 24 56.5t56 24.5q26 0 43 -18t17 -46q0 -32 -23.5 -56.5t-54.5 -24.5z" />
    <glyph glyph-name="Eth" unicode="&#xd0;" horiz-adv-x="747" 
d="M31 0l62 293h-77l24 115h78l62 292h229q70 0 129 -23t103 -65t68 -99t24 -125q0 -79 -32 -149.5t-88 -124t-128.5 -84t-155.5 -30.5h-298zM200 129h140q52 0 96 19t77.5 53.5t52.5 79.5t19 97q0 57 -25 100.5t-68 68t-100 24.5h-98l-35 -163h168l-24 -115h-169z" />
    <glyph glyph-name="Ntilde" unicode="&#xd1;" horiz-adv-x="734" 
d="M7 0l149 700h134l243 -465l98 465h134l-149 -700h-124l-249 481l-102 -481h-134zM370 780l-78 27q50 113 122 113q31 0 57.5 -14.5t49 -29.5t41.5 -15q14 0 24.5 11.5t24.5 41.5l77 -26q-24 -58 -54 -86t-69 -28q-31 0 -57 14.5t-47.5 29.5t-42.5 15q-14 0 -25 -12.5
t-23 -40.5z" />
    <glyph glyph-name="Ograve" unicode="&#xd2;" horiz-adv-x="797" 
d="M392 -11q-72 0 -133.5 25t-107.5 69.5t-71.5 105t-25.5 131.5q0 81 30.5 151.5t84 124.5t124 84.5t150.5 30.5q73 0 134 -25t107 -69.5t71.5 -105t25.5 -131.5q0 -81 -30.5 -151.5t-84 -124.5t-124 -84.5t-150.5 -30.5zM401 122q49 0 91.5 19.5t74.5 53.5t50.5 79.5
t18.5 96.5q0 59 -26 106t-72 74t-104 27q-48 0 -90.5 -19.5t-75 -53.5t-50.5 -79.5t-18 -96.5q0 -59 25.5 -106t71.5 -74t104 -27zM420 787l-131 130h153l87 -130h-109z" />
    <glyph glyph-name="Oacute" unicode="&#xd3;" horiz-adv-x="797" 
d="M392 -11q-72 0 -133.5 25t-107.5 69.5t-71.5 105t-25.5 131.5q0 81 30.5 151.5t84 124.5t124 84.5t150.5 30.5q73 0 134 -25t107 -69.5t71.5 -105t25.5 -131.5q0 -81 -30.5 -151.5t-84 -124.5t-124 -84.5t-150.5 -30.5zM401 122q49 0 91.5 19.5t74.5 53.5t50.5 79.5
t18.5 96.5q0 59 -26 106t-72 74t-104 27q-48 0 -90.5 -19.5t-75 -53.5t-50.5 -79.5t-18 -96.5q0 -59 25.5 -106t71.5 -74t104 -27zM396 787l117 130h154l-159 -130h-112z" />
    <glyph glyph-name="Ocircumflex" unicode="&#xd4;" horiz-adv-x="797" 
d="M392 -11q-72 0 -133.5 25t-107.5 69.5t-71.5 105t-25.5 131.5q0 81 30.5 151.5t84 124.5t124 84.5t150.5 30.5q73 0 134 -25t107 -69.5t71.5 -105t25.5 -131.5q0 -81 -30.5 -151.5t-84 -124.5t-124 -84.5t-150.5 -30.5zM401 122q49 0 91.5 19.5t74.5 53.5t50.5 79.5
t18.5 96.5q0 59 -26 106t-72 74t-104 27q-48 0 -90.5 -19.5t-75 -53.5t-50.5 -79.5t-18 -96.5q0 -59 25.5 -106t71.5 -74t104 -27zM283 784l141 136h138l83 -136h-105l-56 74l-89 -74h-112z" />
    <glyph glyph-name="Otilde" unicode="&#xd5;" horiz-adv-x="797" 
d="M392 -11q-72 0 -133.5 25t-107.5 69.5t-71.5 105t-25.5 131.5q0 81 30.5 151.5t84 124.5t124 84.5t150.5 30.5q73 0 134 -25t107 -69.5t71.5 -105t25.5 -131.5q0 -81 -30.5 -151.5t-84 -124.5t-124 -84.5t-150.5 -30.5zM401 122q49 0 91.5 19.5t74.5 53.5t50.5 79.5
t18.5 96.5q0 59 -26 106t-72 74t-104 27q-48 0 -90.5 -19.5t-75 -53.5t-50.5 -79.5t-18 -96.5q0 -59 25.5 -106t71.5 -74t104 -27zM359 780l-78 27q50 113 122 113q31 0 57.5 -14.5t49 -29.5t41.5 -15q14 0 24.5 11.5t24.5 41.5l77 -26q-24 -58 -54 -86t-69 -28
q-31 0 -57 14.5t-47.5 29.5t-42.5 15q-14 0 -25 -12.5t-23 -40.5z" />
    <glyph glyph-name="Odieresis" unicode="&#xd6;" horiz-adv-x="797" 
d="M392 -11q-72 0 -133.5 25t-107.5 69.5t-71.5 105t-25.5 131.5q0 81 30.5 151.5t84 124.5t124 84.5t150.5 30.5q73 0 134 -25t107 -69.5t71.5 -105t25.5 -131.5q0 -81 -30.5 -151.5t-84 -124.5t-124 -84.5t-150.5 -30.5zM401 122q49 0 91.5 19.5t74.5 53.5t50.5 79.5
t18.5 96.5q0 59 -26 106t-72 74t-104 27q-48 0 -90.5 -19.5t-75 -53.5t-50.5 -79.5t-18 -96.5q0 -59 25.5 -106t71.5 -74t104 -27zM362 781q-27 0 -44.5 18t-17.5 46q0 33 23.5 57t56.5 24q25 0 42.5 -18t17.5 -46q0 -32 -23.5 -56.5t-54.5 -24.5zM573 781q-26 0 -44 18
t-18 46q0 32 24 56.5t56 24.5q26 0 43 -18t17 -46q0 -32 -23.5 -56.5t-54.5 -24.5z" />
    <glyph glyph-name="multiply" unicode="&#xd7;" 
d="M135 141l-49 65l175 152l-110 153l77 66l110 -152l174 152l49 -65l-175 -153l110 -153l-77 -66l-110 153z" />
    <glyph glyph-name="Oslash" unicode="&#xd8;" horiz-adv-x="798" 
d="M392 -11q-60 0 -113 17.5t-95 49.5l-57 -56h-132l123 121q-30 42 -47 92.5t-17 106.5q0 81 30.5 151.5t84 124.5t124 84.5t150.5 30.5q60 0 112.5 -17t94.5 -49l56 55h133l-122 -120q30 -41 47 -92t17 -108q0 -81 -30.5 -151.5t-84 -124.5t-124 -84.5t-150.5 -30.5z
M225 227l323 317q-24 16 -52.5 25t-61.5 9q-48 0 -90.5 -19.5t-75 -53.5t-50.5 -79.5t-18 -96.5q0 -29 6.5 -54.5t18.5 -47.5zM401 122q49 0 91.5 19.5t74.5 53.5t50.5 79.5t18.5 96.5q0 30 -7 55.5t-19 47.5l-324 -316q24 -18 53.5 -27t61.5 -9z" />
    <glyph glyph-name="Ugrave" unicode="&#xd9;" horiz-adv-x="710" 
d="M329 -10q-99 0 -166 42.5t-93 119t-4 176.5l79 372h142l-82 -386q-12 -57 0.5 -100t47 -66.5t86.5 -23.5q68 0 118.5 45.5t66.5 121.5l87 409h141l-90 -422q-19 -91 -65 -155t-114 -98.5t-154 -34.5zM413 787l-131 130h153l87 -130h-109z" />
    <glyph glyph-name="Uacute" unicode="&#xda;" horiz-adv-x="710" 
d="M329 -10q-99 0 -166 42.5t-93 119t-4 176.5l79 372h142l-82 -386q-12 -57 0.5 -100t47 -66.5t86.5 -23.5q68 0 118.5 45.5t66.5 121.5l87 409h141l-90 -422q-19 -91 -65 -155t-114 -98.5t-154 -34.5zM389 787l117 130h154l-159 -130h-112z" />
    <glyph glyph-name="Ucircumflex" unicode="&#xdb;" horiz-adv-x="710" 
d="M329 -10q-99 0 -166 42.5t-93 119t-4 176.5l79 372h142l-82 -386q-12 -57 0.5 -100t47 -66.5t86.5 -23.5q68 0 118.5 45.5t66.5 121.5l87 409h141l-90 -422q-19 -91 -65 -155t-114 -98.5t-154 -34.5zM276 784l141 136h138l83 -136h-105l-56 74l-89 -74h-112z" />
    <glyph glyph-name="Udieresis" unicode="&#xdc;" horiz-adv-x="710" 
d="M329 -10q-99 0 -166 42.5t-93 119t-4 176.5l79 372h142l-82 -386q-12 -57 0.5 -100t47 -66.5t86.5 -23.5q68 0 118.5 45.5t66.5 121.5l87 409h141l-90 -422q-19 -91 -65 -155t-114 -98.5t-154 -34.5zM355 781q-27 0 -44.5 18t-17.5 46q0 33 23.5 57t56.5 24
q25 0 42.5 -18t17.5 -46q0 -32 -23.5 -56.5t-54.5 -24.5zM566 781q-26 0 -44 18t-18 46q0 32 24 56.5t56 24.5q26 0 43 -18t17 -46q0 -32 -23.5 -56.5t-54.5 -24.5z" />
    <glyph glyph-name="Yacute" unicode="&#xdd;" horiz-adv-x="691" 
d="M219 0l56 269l-188 431h151l130 -304l256 304h167l-373 -434l-57 -266h-142zM379 787l117 130h154l-159 -130h-112z" />
    <glyph glyph-name="Thorn" unicode="&#xde;" horiz-adv-x="668" 
d="M8 0l149 700h141l-28 -130h153q62 0 109 -24.5t73.5 -68t26.5 -102.5q0 -69 -33.5 -124.5t-91 -87.5t-129.5 -32h-201l-28 -131h-141zM203 251h171q34 0 59 14.5t39.5 39.5t14.5 59q0 38 -24.5 60t-65.5 22h-153z" />
    <glyph glyph-name="germandbls" unicode="&#xdf;" horiz-adv-x="672" 
d="M445 -13q-65 0 -122.5 26.5t-95.5 75.5l81 66q28 -36 62.5 -54t71.5 -18q35 0 54.5 14.5t19.5 39.5q0 17 -12 29t-41 26l-76 36q-41 20 -60 45t-19 59t15 57t38.5 39.5t49.5 29t49.5 25t38.5 27t15 36.5q0 21 -15.5 38t-43 27t-61.5 10q-64 0 -104 -34.5t-54 -104.5
l-104 -482h-134l107 499q24 112 99.5 172t190.5 60q74 0 131 -21.5t89.5 -59t32.5 -87.5q0 -39 -15 -65.5t-39.5 -45t-52 -31.5t-52 -23.5t-40 -22t-15.5 -27.5q0 -12 8.5 -21.5t29.5 -18.5l72 -35q49 -24 71.5 -53t22.5 -69q0 -47 -25 -84t-68.5 -58.5t-99.5 -21.5z" />
    <glyph glyph-name="agrave" unicode="&#xe0;" horiz-adv-x="545" 
d="M186 -6q-81 0 -129 39.5t-48 105.5q0 54 26.5 92t75.5 59t117 21q37 0 73.5 -7t68.5 -20l6 27q11 53 -15.5 79.5t-90.5 26.5q-29 0 -63.5 -8t-83.5 -26l-33 103q58 23 110 33.5t99 10.5q79 0 130.5 -26t72.5 -74.5t6 -116.5l-66 -313h-132l6 32q-31 -19 -63 -28.5
t-67 -9.5zM232 91q28 0 54 7.5t49 21.5l17 76q-52 25 -114 25q-47 0 -74.5 -19t-27.5 -51q0 -28 25.5 -44t70.5 -16zM268 608l-131 130h153l87 -130h-109z" />
    <glyph glyph-name="aacute" unicode="&#xe1;" horiz-adv-x="545" 
d="M186 -6q-81 0 -129 39.5t-48 105.5q0 54 26.5 92t75.5 59t117 21q37 0 73.5 -7t68.5 -20l6 27q11 53 -15.5 79.5t-90.5 26.5q-29 0 -63.5 -8t-83.5 -26l-33 103q58 23 110 33.5t99 10.5q79 0 130.5 -26t72.5 -74.5t6 -116.5l-66 -313h-132l6 32q-31 -19 -63 -28.5
t-67 -9.5zM232 91q28 0 54 7.5t49 21.5l17 76q-52 25 -114 25q-47 0 -74.5 -19t-27.5 -51q0 -28 25.5 -44t70.5 -16zM244 608l117 130h154l-159 -130h-112z" />
    <glyph glyph-name="acircumflex" unicode="&#xe2;" horiz-adv-x="545" 
d="M186 -6q-81 0 -129 39.5t-48 105.5q0 54 26.5 92t75.5 59t117 21q37 0 73.5 -7t68.5 -20l6 27q11 53 -15.5 79.5t-90.5 26.5q-29 0 -63.5 -8t-83.5 -26l-33 103q58 23 110 33.5t99 10.5q79 0 130.5 -26t72.5 -74.5t6 -116.5l-66 -313h-132l6 32q-31 -19 -63 -28.5
t-67 -9.5zM232 91q28 0 54 7.5t49 21.5l17 76q-52 25 -114 25q-47 0 -74.5 -19t-27.5 -51q0 -28 25.5 -44t70.5 -16zM131 605l141 136h138l83 -136h-105l-56 74l-89 -74h-112z" />
    <glyph glyph-name="atilde" unicode="&#xe3;" horiz-adv-x="545" 
d="M186 -6q-81 0 -129 39.5t-48 105.5q0 54 26.5 92t75.5 59t117 21q37 0 73.5 -7t68.5 -20l6 27q11 53 -15.5 79.5t-90.5 26.5q-29 0 -63.5 -8t-83.5 -26l-33 103q58 23 110 33.5t99 10.5q79 0 130.5 -26t72.5 -74.5t6 -116.5l-66 -313h-132l6 32q-31 -19 -63 -28.5
t-67 -9.5zM232 91q28 0 54 7.5t49 21.5l17 76q-52 25 -114 25q-47 0 -74.5 -19t-27.5 -51q0 -28 25.5 -44t70.5 -16zM207 601l-78 27q50 113 122 113q31 0 57.5 -14.5t49 -29.5t41.5 -15q14 0 24.5 11.5t24.5 41.5l77 -26q-24 -58 -54 -86t-69 -28q-31 0 -57 14.5
t-47.5 29.5t-42.5 15q-14 0 -25 -12.5t-23 -40.5z" />
    <glyph glyph-name="adieresis" unicode="&#xe4;" horiz-adv-x="545" 
d="M186 -6q-81 0 -129 39.5t-48 105.5q0 54 26.5 92t75.5 59t117 21q37 0 73.5 -7t68.5 -20l6 27q11 53 -15.5 79.5t-90.5 26.5q-29 0 -63.5 -8t-83.5 -26l-33 103q58 23 110 33.5t99 10.5q79 0 130.5 -26t72.5 -74.5t6 -116.5l-66 -313h-132l6 32q-31 -19 -63 -28.5
t-67 -9.5zM232 91q28 0 54 7.5t49 21.5l17 76q-52 25 -114 25q-47 0 -74.5 -19t-27.5 -51q0 -28 25.5 -44t70.5 -16zM210 602q-27 0 -44.5 18t-17.5 46q0 33 23.5 57t56.5 24q25 0 42.5 -18t17.5 -46q0 -32 -23.5 -56.5t-54.5 -24.5zM421 602q-26 0 -44 18t-18 46
q0 32 24 56.5t56 24.5q26 0 43 -18t17 -46q0 -32 -23.5 -56.5t-54.5 -24.5z" />
    <glyph glyph-name="aring" unicode="&#xe5;" horiz-adv-x="545" 
d="M186 -6q-81 0 -129 39.5t-48 105.5q0 54 26.5 92t75.5 59t117 21q37 0 73.5 -7t68.5 -20l6 27q11 53 -15.5 79.5t-90.5 26.5q-29 0 -63.5 -8t-83.5 -26l-33 103q58 23 110 33.5t99 10.5q79 0 130.5 -26t72.5 -74.5t6 -116.5l-66 -313h-132l6 32q-31 -19 -63 -28.5
t-67 -9.5zM232 91q28 0 54 7.5t49 21.5l17 76q-52 25 -114 25q-47 0 -74.5 -19t-27.5 -51q0 -28 25.5 -44t70.5 -16zM319 586q-48 0 -79 30t-31 76q0 35 18.5 65.5t48.5 49t64 18.5q49 0 80 -30t31 -76q0 -35 -18.5 -65.5t-48.5 -49t-65 -18.5zM323 643q28 0 48 20.5
t20 49.5q0 24 -15 39.5t-39 15.5q-28 0 -48 -20.5t-20 -49.5q0 -24 15.5 -39.5t38.5 -15.5z" />
    <glyph glyph-name="ae" unicode="&#xe6;" horiz-adv-x="899" 
d="M209 -6q-88 0 -140.5 41t-52.5 109q0 52 25.5 89.5t73 57.5t111.5 20q67 0 130 -21l6 27q10 48 -17.5 74t-87.5 26q-28 0 -61.5 -8t-83.5 -26l-33 103q60 23 112 33.5t99 10.5q60 0 103 -18t66 -52q37 33 82 51t92 18q69 0 122 -32.5t83 -88.5t30 -130q0 -11 -1 -24
t-4 -39h-379q6 -33 25.5 -58.5t49 -39.5t65.5 -14q34 0 62.5 10t51.5 28l74 -87q-47 -34 -94.5 -49t-103.5 -15q-64 0 -116 22t-87 62q-51 -42 -99 -61t-103 -19zM493 312h249q-6 31 -22 54t-40 36t-54 13q-31 0 -57 -13t-45.5 -36t-30.5 -54zM235 91q36 0 69.5 12t65.5 36
q-5 14 -9 29t-6 31q-24 10 -55 15.5t-60 5.5q-44 0 -70.5 -18t-26.5 -48q0 -29 24.5 -46t67.5 -17z" />
    <glyph glyph-name="ccedilla" unicode="&#xe7;" horiz-adv-x="520" 
d="M222 -234q-39 0 -69.5 12.5t-54.5 39.5l50 45q31 -33 77 -33q25 0 40.5 11t15.5 29q0 17 -13.5 26.5t-35.5 9.5h-39l43 86q-61 9 -108 42t-74 84.5t-27 115.5q0 61 22.5 115t62 94.5t92 63.5t111.5 23q66 0 122.5 -28t91.5 -77l-93 -84q-23 36 -54 53t-69 17
q-31 0 -58.5 -13.5t-49 -37t-33 -54t-11.5 -65.5q0 -39 16.5 -69t45.5 -47t66 -17q32 0 61.5 13t58.5 39l68 -90q-78 -70 -175 -79l-19 -37q36 -6 56 -26.5t20 -52.5q0 -31 -18 -55.5t-49.5 -39t-69.5 -14.5z" />
    <glyph glyph-name="egrave" unicode="&#xe8;" horiz-adv-x="576" 
d="M291 -10q-76 0 -135.5 31.5t-93.5 88t-34 127.5q0 60 22 113t61 93.5t90 63t109 22.5q69 0 122 -32.5t83 -88.5t30 -130q0 -11 -0.5 -24t-4.5 -39h-378q6 -33 25 -58.5t48.5 -39.5t66.5 -14q33 0 62 10t51 28l75 -87q-48 -34 -95 -49t-104 -15zM170 312h249q-6 31 -22 54
t-40 36t-54 13t-56.5 -13t-46 -36t-30.5 -54zM285 608l-131 130h153l87 -130h-109z" />
    <glyph glyph-name="eacute" unicode="&#xe9;" horiz-adv-x="576" 
d="M291 -10q-76 0 -135.5 31.5t-93.5 88t-34 127.5q0 60 22 113t61 93.5t90 63t109 22.5q69 0 122 -32.5t83 -88.5t30 -130q0 -11 -0.5 -24t-4.5 -39h-378q6 -33 25 -58.5t48.5 -39.5t66.5 -14q33 0 62 10t51 28l75 -87q-48 -34 -95 -49t-104 -15zM170 312h249q-6 31 -22 54
t-40 36t-54 13t-56.5 -13t-46 -36t-30.5 -54zM261 608l117 130h154l-159 -130h-112z" />
    <glyph glyph-name="ecircumflex" unicode="&#xea;" horiz-adv-x="576" 
d="M291 -10q-76 0 -135.5 31.5t-93.5 88t-34 127.5q0 60 22 113t61 93.5t90 63t109 22.5q69 0 122 -32.5t83 -88.5t30 -130q0 -11 -0.5 -24t-4.5 -39h-378q6 -33 25 -58.5t48.5 -39.5t66.5 -14q33 0 62 10t51 28l75 -87q-48 -34 -95 -49t-104 -15zM170 312h249q-6 31 -22 54
t-40 36t-54 13t-56.5 -13t-46 -36t-30.5 -54zM148 605l141 136h138l83 -136h-105l-56 74l-89 -74h-112z" />
    <glyph glyph-name="edieresis" unicode="&#xeb;" horiz-adv-x="576" 
d="M291 -10q-76 0 -135.5 31.5t-93.5 88t-34 127.5q0 60 22 113t61 93.5t90 63t109 22.5q69 0 122 -32.5t83 -88.5t30 -130q0 -11 -0.5 -24t-4.5 -39h-378q6 -33 25 -58.5t48.5 -39.5t66.5 -14q33 0 62 10t51 28l75 -87q-48 -34 -95 -49t-104 -15zM170 312h249q-6 31 -22 54
t-40 36t-54 13t-56.5 -13t-46 -36t-30.5 -54zM227 602q-27 0 -44.5 18t-17.5 46q0 33 23.5 57t56.5 24q25 0 42.5 -18t17.5 -46q0 -32 -23.5 -56.5t-54.5 -24.5zM438 602q-26 0 -44 18t-18 46q0 32 24 56.5t56 24.5q26 0 43 -18t17 -46q0 -32 -23.5 -56.5t-54.5 -24.5z" />
    <glyph glyph-name="igrave" unicode="&#xec;" horiz-adv-x="240" 
d="M-2 0l110 521h134l-110 -521h-134zM146 608l-131 130h153l87 -130h-109z" />
    <glyph glyph-name="iacute" unicode="&#xed;" horiz-adv-x="240" 
d="M-2 0l110 521h134l-110 -521h-134zM122 608l117 130h154l-159 -130h-112z" />
    <glyph glyph-name="icircumflex" unicode="&#xee;" horiz-adv-x="240" 
d="M-2 0l110 521h134l-110 -521h-134zM9 605l141 136h138l83 -136h-105l-56 74l-89 -74h-112z" />
    <glyph glyph-name="idieresis" unicode="&#xef;" horiz-adv-x="240" 
d="M-2 0l110 521h134l-110 -521h-134zM88 602q-27 0 -44.5 18t-17.5 46q0 33 23.5 57t56.5 24q25 0 42.5 -18t17.5 -46q0 -32 -23.5 -56.5t-54.5 -24.5zM299 602q-26 0 -44 18t-18 46q0 32 24 56.5t56 24.5q26 0 43 -18t17 -46q0 -32 -23.5 -56.5t-54.5 -24.5z" />
    <glyph glyph-name="eth" unicode="&#xf0;" horiz-adv-x="582" 
d="M266 -9q-69 0 -122.5 29.5t-83.5 82t-30 121.5q0 54 21 101t57.5 83.5t84.5 57t102 20.5q48 0 85 -16.5t61 -47.5q-1 37 -14 73t-35 69l-96 -47l-35 76l74 36q-15 15 -32.5 27t-37.5 23l87 84q56 -34 99 -78l107 52l36 -75l-90 -44q66 -106 66 -246q0 -82 -22.5 -151.5
t-63.5 -121t-96.5 -80t-121.5 -28.5zM271 112q38 0 70 20t51.5 53t19.5 72q0 33 -15 59t-40.5 41t-57.5 15q-38 0 -70.5 -20t-52 -53t-19.5 -72q0 -33 15 -59t41 -41t58 -15z" />
    <glyph glyph-name="ntilde" unicode="&#xf1;" horiz-adv-x="582" 
d="M-2 0l110 521h134l-8 -38q65 46 142 46q62 0 104.5 -28.5t59.5 -77.5t4 -112l-66 -311h-135l64 298q10 52 -14 83.5t-74 31.5q-32 0 -59.5 -12t-50.5 -36l-77 -365h-134zM256 601l-78 27q50 113 122 113q31 0 57.5 -14.5t49 -29.5t41.5 -15q14 0 24.5 11.5t24.5 41.5
l77 -26q-24 -58 -54 -86t-69 -28q-31 0 -57 14.5t-47.5 29.5t-42.5 15q-14 0 -25 -12.5t-23 -40.5z" />
    <glyph glyph-name="ograve" unicode="&#xf2;" horiz-adv-x="607" 
d="M286 -10q-73 0 -131 33t-91.5 90t-33.5 127q0 60 22.5 112.5t63 92.5t93.5 63t112 23q73 0 130.5 -33t91.5 -89.5t34 -127.5q0 -60 -23 -112.5t-63.5 -92.5t-92.5 -63t-112 -23zM292 109q32 0 59.5 13t48.5 35.5t33 53t12 63.5q0 41 -17 72t-46.5 48.5t-67.5 17.5
q-31 0 -58.5 -13t-49 -35.5t-33 -53t-11.5 -63.5q0 -40 16.5 -71.5t46 -49t67.5 -17.5zM300 608l-131 130h153l87 -130h-109z" />
    <glyph glyph-name="oacute" unicode="&#xf3;" horiz-adv-x="607" 
d="M286 -10q-73 0 -131 33t-91.5 90t-33.5 127q0 60 22.5 112.5t63 92.5t93.5 63t112 23q73 0 130.5 -33t91.5 -89.5t34 -127.5q0 -60 -23 -112.5t-63.5 -92.5t-92.5 -63t-112 -23zM292 109q32 0 59.5 13t48.5 35.5t33 53t12 63.5q0 41 -17 72t-46.5 48.5t-67.5 17.5
q-31 0 -58.5 -13t-49 -35.5t-33 -53t-11.5 -63.5q0 -40 16.5 -71.5t46 -49t67.5 -17.5zM276 608l117 130h154l-159 -130h-112z" />
    <glyph glyph-name="ocircumflex" unicode="&#xf4;" horiz-adv-x="607" 
d="M286 -10q-73 0 -131 33t-91.5 90t-33.5 127q0 60 22.5 112.5t63 92.5t93.5 63t112 23q73 0 130.5 -33t91.5 -89.5t34 -127.5q0 -60 -23 -112.5t-63.5 -92.5t-92.5 -63t-112 -23zM292 109q32 0 59.5 13t48.5 35.5t33 53t12 63.5q0 41 -17 72t-46.5 48.5t-67.5 17.5
q-31 0 -58.5 -13t-49 -35.5t-33 -53t-11.5 -63.5q0 -40 16.5 -71.5t46 -49t67.5 -17.5zM163 605l141 136h138l83 -136h-105l-56 74l-89 -74h-112z" />
    <glyph glyph-name="otilde" unicode="&#xf5;" horiz-adv-x="607" 
d="M286 -10q-73 0 -131 33t-91.5 90t-33.5 127q0 60 22.5 112.5t63 92.5t93.5 63t112 23q73 0 130.5 -33t91.5 -89.5t34 -127.5q0 -60 -23 -112.5t-63.5 -92.5t-92.5 -63t-112 -23zM292 109q32 0 59.5 13t48.5 35.5t33 53t12 63.5q0 41 -17 72t-46.5 48.5t-67.5 17.5
q-31 0 -58.5 -13t-49 -35.5t-33 -53t-11.5 -63.5q0 -40 16.5 -71.5t46 -49t67.5 -17.5zM239 601l-78 27q50 113 122 113q31 0 57.5 -14.5t49 -29.5t41.5 -15q14 0 24.5 11.5t24.5 41.5l77 -26q-24 -58 -54 -86t-69 -28q-31 0 -57 14.5t-47.5 29.5t-42.5 15q-14 0 -25 -12.5
t-23 -40.5z" />
    <glyph glyph-name="odieresis" unicode="&#xf6;" horiz-adv-x="607" 
d="M286 -10q-73 0 -131 33t-91.5 90t-33.5 127q0 60 22.5 112.5t63 92.5t93.5 63t112 23q73 0 130.5 -33t91.5 -89.5t34 -127.5q0 -60 -23 -112.5t-63.5 -92.5t-92.5 -63t-112 -23zM292 109q32 0 59.5 13t48.5 35.5t33 53t12 63.5q0 41 -17 72t-46.5 48.5t-67.5 17.5
q-31 0 -58.5 -13t-49 -35.5t-33 -53t-11.5 -63.5q0 -40 16.5 -71.5t46 -49t67.5 -17.5zM242 602q-27 0 -44.5 18t-17.5 46q0 33 23.5 57t56.5 24q25 0 42.5 -18t17.5 -46q0 -32 -23.5 -56.5t-54.5 -24.5zM453 602q-26 0 -44 18t-18 46q0 32 24 56.5t56 24.5q26 0 43 -18
t17 -46q0 -32 -23.5 -56.5t-54.5 -24.5z" />
    <glyph glyph-name="divide" unicode="&#xf7;" 
d="M96 306l22 105h434l-22 -105h-434zM272 62q-32 0 -53.5 22t-21.5 55q0 35 26.5 61t63.5 26q31 0 52 -21.5t21 -54.5q0 -35 -25.5 -61.5t-62.5 -26.5zM365 496q-33 0 -54.5 22t-21.5 54q0 36 26.5 62t63.5 26q31 0 52.5 -21.5t21.5 -54.5q0 -35 -26 -61.5t-62 -26.5z" />
    <glyph glyph-name="oslash" unicode="&#xf8;" horiz-adv-x="607" 
d="M286 -10q-44 0 -84 13t-71 36l-40 -39h-100l89 88q-24 31 -37 70t-13 82q0 60 22.5 112.5t63 92.5t93.5 63t112 23q44 0 83.5 -13t71.5 -35l38 38h101l-88 -88q24 -31 37 -70t13 -82q0 -60 -23 -112t-63.5 -92.5t-92.5 -63.5t-112 -23zM175 183l209 208q-14 10 -32 15.5
t-38 5.5q-31 0 -58.5 -13t-49 -35.5t-33 -53t-11.5 -63.5q0 -18 3.5 -34t9.5 -30zM292 109q32 0 59.5 13t48.5 35.5t33 53t12 63.5q0 18 -3.5 34t-10.5 30l-210 -208q16 -10 33.5 -15.5t37.5 -5.5z" />
    <glyph glyph-name="ugrave" unicode="&#xf9;" horiz-adv-x="582" 
d="M205 -8q-61 0 -103.5 28.5t-59.5 77.5t-4 112l66 311h134l-63 -298q-11 -52 13.5 -83.5t74.5 -31.5q32 0 59.5 12.5t49.5 35.5l78 365h134l-111 -521h-134l8 38q-65 -46 -142 -46zM307 608l-131 130h153l87 -130h-109z" />
    <glyph glyph-name="uacute" unicode="&#xfa;" horiz-adv-x="582" 
d="M205 -8q-61 0 -103.5 28.5t-59.5 77.5t-4 112l66 311h134l-63 -298q-11 -52 13.5 -83.5t74.5 -31.5q32 0 59.5 12.5t49.5 35.5l78 365h134l-111 -521h-134l8 38q-65 -46 -142 -46zM283 608l117 130h154l-159 -130h-112z" />
    <glyph glyph-name="ucircumflex" unicode="&#xfb;" horiz-adv-x="582" 
d="M205 -8q-61 0 -103.5 28.5t-59.5 77.5t-4 112l66 311h134l-63 -298q-11 -52 13.5 -83.5t74.5 -31.5q32 0 59.5 12.5t49.5 35.5l78 365h134l-111 -521h-134l8 38q-65 -46 -142 -46zM170 605l141 136h138l83 -136h-105l-56 74l-89 -74h-112z" />
    <glyph glyph-name="udieresis" unicode="&#xfc;" horiz-adv-x="582" 
d="M205 -8q-61 0 -103.5 28.5t-59.5 77.5t-4 112l66 311h134l-63 -298q-11 -52 13.5 -83.5t74.5 -31.5q32 0 59.5 12.5t49.5 35.5l78 365h134l-111 -521h-134l8 38q-65 -46 -142 -46zM249 602q-27 0 -44.5 18t-17.5 46q0 33 23.5 57t56.5 24q25 0 42.5 -18t17.5 -46
q0 -32 -23.5 -56.5t-54.5 -24.5zM460 602q-26 0 -44 18t-18 46q0 32 24 56.5t56 24.5q26 0 43 -18t17 -46q0 -32 -23.5 -56.5t-54.5 -24.5z" />
    <glyph glyph-name="yacute" unicode="&#xfd;" horiz-adv-x="565" 
d="M22 -214q-22 0 -41.5 2.5t-37.5 7.5l24 117q10 -3 22 -4.5t27 -1.5q35 0 62.5 16t48.5 49l18 28l-90 521h143l54 -366l224 366h147l-368 -585q-50 -80 -104.5 -115t-128.5 -35zM279 608l117 130h154l-159 -130h-112z" />
    <glyph glyph-name="thorn" unicode="&#xfe;" horiz-adv-x="618" 
d="M-47 -209l194 909l140 30l-49 -234q56 32 119 32q66 0 118 -32t83 -86.5t31 -122.5q0 -62 -22.5 -115t-62 -93.5t-92 -63.5t-113.5 -23q-46 0 -86 15.5t-71 42.5l-55 -259h-134zM322 412q-32 0 -60 -10t-52 -30l-42 -203q20 -27 53 -43t73 -16q47 0 83.5 22t58.5 59.5
t22 83.5q0 39 -17.5 70t-48.5 49t-70 18z" />
    <glyph glyph-name="ydieresis" unicode="&#xff;" horiz-adv-x="565" 
d="M22 -214q-22 0 -41.5 2.5t-37.5 7.5l24 117q10 -3 22 -4.5t27 -1.5q35 0 62.5 16t48.5 49l18 28l-90 521h143l54 -366l224 366h147l-368 -585q-50 -80 -104.5 -115t-128.5 -35zM245 602q-27 0 -44.5 18t-17.5 46q0 33 23.5 57t56.5 24q25 0 42.5 -18t17.5 -46
q0 -32 -23.5 -56.5t-54.5 -24.5zM456 602q-26 0 -44 18t-18 46q0 32 24 56.5t56 24.5q26 0 43 -18t17 -46q0 -32 -23.5 -56.5t-54.5 -24.5z" />
    <glyph glyph-name="Amacron" unicode="&#x100;" horiz-adv-x="718" 
d="M-59 0l428 700h164l133 -700h-146l-32 184h-284l-107 -184h-156zM272 300h197l-45 258zM307 804l19 86h310l-20 -86h-309z" />
    <glyph glyph-name="amacron" unicode="&#x101;" horiz-adv-x="545" 
d="M186 -6q-81 0 -129 39.5t-48 105.5q0 54 26.5 92t75.5 59t117 21q37 0 73.5 -7t68.5 -20l6 27q11 53 -15.5 79.5t-90.5 26.5q-29 0 -63.5 -8t-83.5 -26l-33 103q58 23 110 33.5t99 10.5q79 0 130.5 -26t72.5 -74.5t6 -116.5l-66 -313h-132l6 32q-31 -19 -63 -28.5
t-67 -9.5zM232 91q28 0 54 7.5t49 21.5l17 76q-52 25 -114 25q-47 0 -74.5 -19t-27.5 -51q0 -28 25.5 -44t70.5 -16zM161 625l19 86h310l-20 -86h-309z" />
    <glyph glyph-name="Abreve" unicode="&#x102;" horiz-adv-x="718" 
d="M-59 0l428 700h164l133 -700h-146l-32 184h-284l-107 -184h-156zM272 300h197l-45 258zM468 779q-69 0 -110.5 38.5t-43.5 104.5l81 17q3 -41 22 -62t53 -21q63 0 102 76l83 -26q-28 -62 -76.5 -94.5t-110.5 -32.5z" />
    <glyph glyph-name="abreve" unicode="&#x103;" horiz-adv-x="545" 
d="M186 -6q-81 0 -129 39.5t-48 105.5q0 54 26.5 92t75.5 59t117 21q37 0 73.5 -7t68.5 -20l6 27q11 53 -15.5 79.5t-90.5 26.5q-29 0 -63.5 -8t-83.5 -26l-33 103q58 23 110 33.5t99 10.5q79 0 130.5 -26t72.5 -74.5t6 -116.5l-66 -313h-132l6 32q-31 -19 -63 -28.5
t-67 -9.5zM232 91q28 0 54 7.5t49 21.5l17 76q-52 25 -114 25q-47 0 -74.5 -19t-27.5 -51q0 -28 25.5 -44t70.5 -16zM322 600q-69 0 -110.5 38.5t-43.5 104.5l81 17q3 -41 22 -62t53 -21q63 0 102 76l83 -26q-28 -62 -76.5 -94.5t-110.5 -32.5z" />
    <glyph glyph-name="Aogonek" unicode="&#x104;" horiz-adv-x="718" 
d="M-59 0l428 700h164l133 -700q-56 -30 -83.5 -58t-27.5 -57q0 -17 11 -26t30 -9q22 0 40 11l6 -61q-18 -10 -40 -15.5t-43 -5.5q-40 0 -64 19.5t-24 53.5q0 40 29 77t88 71h-68l-32 184h-284l-107 -184h-156zM272 300h197l-45 258z" />
    <glyph glyph-name="aogonek" unicode="&#x105;" horiz-adv-x="545" 
d="M335 -221q-40 0 -64 19.5t-24 53.5q0 40 29 77t88 71h-54l6 32q-31 -19 -63 -28.5t-67 -9.5q-81 0 -129 39.5t-48 105.5q0 54 26.5 92t75.5 59t117 21q37 0 73.5 -7t68.5 -20l6 27q11 53 -15.5 79.5t-90.5 26.5q-29 0 -63.5 -8t-83.5 -26l-33 103q58 23 110 33.5t99 10.5
q79 0 130.5 -26t72.5 -74.5t6 -116.5l-66 -313q-56 -30 -84 -58t-28 -57q0 -17 11.5 -26t30.5 -9q22 0 40 11l6 -61q-18 -10 -40 -15.5t-43 -5.5zM232 91q28 0 54 7.5t49 21.5l17 76q-52 25 -114 25q-47 0 -74.5 -19t-27.5 -51q0 -28 25.5 -44t70.5 -16z" />
    <glyph glyph-name="Cacute" unicode="&#x106;" horiz-adv-x="708" 
d="M392 -12q-72 0 -133 25.5t-107.5 70.5t-72 105.5t-25.5 130.5q0 80 30.5 150.5t83.5 123.5t123.5 83.5t150.5 30.5q95 0 168.5 -36.5t118.5 -104.5l-110 -94q-30 50 -77.5 76t-107.5 26q-49 0 -91.5 -19t-74.5 -53t-50 -79t-18 -96q0 -59 27 -106t74 -74t107 -27
q52 0 101 21.5t89 62.5l78 -98q-55 -55 -131.5 -87t-152.5 -32zM398 787l117 130h154l-159 -130h-112z" />
    <glyph glyph-name="cacute" unicode="&#x107;" horiz-adv-x="520" 
d="M274 -10q-70 0 -126 31.5t-88.5 87t-32.5 125.5q0 61 22.5 115t62 94.5t92 63.5t111.5 23q66 0 122.5 -28t91.5 -77l-93 -84q-23 36 -54 53t-69 17q-31 0 -58.5 -13.5t-49 -37t-33 -54t-11.5 -65.5q0 -39 16.5 -69t45.5 -47t66 -17q32 0 61.5 13t58.5 39l68 -90
q-89 -80 -203 -80zM269 608l117 130h154l-159 -130h-112z" />
    <glyph glyph-name="Ccircumflex" unicode="&#x108;" horiz-adv-x="708" 
d="M392 -12q-72 0 -133 25.5t-107.5 70.5t-72 105.5t-25.5 130.5q0 80 30.5 150.5t83.5 123.5t123.5 83.5t150.5 30.5q95 0 168.5 -36.5t118.5 -104.5l-110 -94q-30 50 -77.5 76t-107.5 26q-49 0 -91.5 -19t-74.5 -53t-50 -79t-18 -96q0 -59 27 -106t74 -74t107 -27
q52 0 101 21.5t89 62.5l78 -98q-55 -55 -131.5 -87t-152.5 -32zM286 784l141 136h138l83 -136h-105l-56 74l-89 -74h-112z" />
    <glyph glyph-name="ccircumflex" unicode="&#x109;" horiz-adv-x="520" 
d="M274 -10q-70 0 -126 31.5t-88.5 87t-32.5 125.5q0 61 22.5 115t62 94.5t92 63.5t111.5 23q66 0 122.5 -28t91.5 -77l-93 -84q-23 36 -54 53t-69 17q-31 0 -58.5 -13.5t-49 -37t-33 -54t-11.5 -65.5q0 -39 16.5 -69t45.5 -47t66 -17q32 0 61.5 13t58.5 39l68 -90
q-89 -80 -203 -80zM156 605l141 136h138l83 -136h-105l-56 74l-89 -74h-112z" />
    <glyph glyph-name="Cdotaccent" unicode="&#x10a;" horiz-adv-x="708" 
d="M392 -12q-72 0 -133 25.5t-107.5 70.5t-72 105.5t-25.5 130.5q0 80 30.5 150.5t83.5 123.5t123.5 83.5t150.5 30.5q95 0 168.5 -36.5t118.5 -104.5l-110 -94q-30 50 -77.5 76t-107.5 26q-49 0 -91.5 -19t-74.5 -53t-50 -79t-18 -96q0 -59 27 -106t74 -74t107 -27
q52 0 101 21.5t89 62.5l78 -98q-55 -55 -131.5 -87t-152.5 -32zM469 781q-27 0 -45 18t-18 46q0 33 24 57t57 24q26 0 43.5 -18t17.5 -46q0 -32 -24 -56.5t-55 -24.5z" />
    <glyph glyph-name="cdotaccent" unicode="&#x10b;" horiz-adv-x="520" 
d="M274 -10q-70 0 -126 31.5t-88.5 87t-32.5 125.5q0 61 22.5 115t62 94.5t92 63.5t111.5 23q66 0 122.5 -28t91.5 -77l-93 -84q-23 36 -54 53t-69 17q-31 0 -58.5 -13.5t-49 -37t-33 -54t-11.5 -65.5q0 -39 16.5 -69t45.5 -47t66 -17q32 0 61.5 13t58.5 39l68 -90
q-89 -80 -203 -80zM340 602q-27 0 -45 18t-18 46q0 33 24 57t57 24q26 0 43.5 -18t17.5 -46q0 -32 -24 -56.5t-55 -24.5z" />
    <glyph glyph-name="Ccaron" unicode="&#x10c;" horiz-adv-x="708" 
d="M392 -12q-72 0 -133 25.5t-107.5 70.5t-72 105.5t-25.5 130.5q0 80 30.5 150.5t83.5 123.5t123.5 83.5t150.5 30.5q95 0 168.5 -36.5t118.5 -104.5l-110 -94q-30 50 -77.5 76t-107.5 26q-49 0 -91.5 -19t-74.5 -53t-50 -79t-18 -96q0 -59 27 -106t74 -74t107 -27
q52 0 101 21.5t89 62.5l78 -98q-55 -55 -131.5 -87t-152.5 -32zM400 785l-83 135h105l57 -73l87 73h113l-141 -135h-138z" />
    <glyph glyph-name="ccaron" unicode="&#x10d;" horiz-adv-x="520" 
d="M274 -10q-70 0 -126 31.5t-88.5 87t-32.5 125.5q0 61 22.5 115t62 94.5t92 63.5t111.5 23q66 0 122.5 -28t91.5 -77l-93 -84q-23 36 -54 53t-69 17q-31 0 -58.5 -13.5t-49 -37t-33 -54t-11.5 -65.5q0 -39 16.5 -69t45.5 -47t66 -17q32 0 61.5 13t58.5 39l68 -90
q-89 -80 -203 -80zM271 606l-83 135h105l57 -73l87 73h113l-141 -135h-138z" />
    <glyph glyph-name="Dcaron" unicode="&#x10e;" horiz-adv-x="723" 
d="M7 0l149 700h229q70 0 129 -23t103 -65t68 -99t24 -125q0 -79 -32 -149.5t-87.5 -124t-128.5 -84t-156 -30.5h-298zM176 129h141q51 0 95 19t77.5 53.5t52.5 79.5t19 97q0 57 -24.5 100.5t-68 68t-99.5 24.5h-99zM403 785l-83 135h105l57 -73l87 73h113l-141 -135h-138z
" />
    <glyph glyph-name="dcaron" unicode="&#x10f;" horiz-adv-x="767" 
d="M262 -7q-65 0 -117.5 31.5t-83.5 86.5t-31 123q0 61 22.5 114.5t62.5 93.5t93 63t112 23q46 0 86.5 -14t70.5 -41l48 227l141 30l-155 -730h-133l5 26q-57 -33 -121 -33zM298 109q32 0 59.5 10t50.5 30l44 206q-20 25 -54 40.5t-73 15.5q-45 0 -82 -22.5t-59 -59.5
t-22 -83q0 -39 17.5 -70.5t48.5 -49t70 -17.5zM694 501l52 201l118 22l-90 -223h-80z" />
    <glyph glyph-name="Dcroat" unicode="&#x110;" horiz-adv-x="747" 
d="M31 0l62 293h-77l24 115h78l62 292h229q70 0 129 -23t103 -65t68 -99t24 -125q0 -79 -32 -149.5t-88 -124t-128.5 -84t-155.5 -30.5h-298zM200 129h140q52 0 96 19t77.5 53.5t52.5 79.5t19 97q0 57 -25 100.5t-68 68t-100 24.5h-98l-35 -163h168l-24 -115h-169z" />
    <glyph glyph-name="dcroat" unicode="&#x111;" horiz-adv-x="617" 
d="M262 -7q-65 0 -117.5 31.5t-83.5 86.5t-31 123q0 61 22.5 114.5t62.5 93.5t93 63t112 23q46 0 86.5 -14t70.5 -41l23 106h-135l18 84h135l7 37l141 30l-15 -67h53l-18 -84h-53l-122 -579h-133l5 26q-57 -33 -121 -33zM298 109q32 0 59.5 10t50.5 30l44 206
q-20 25 -54 40.5t-73 15.5q-45 0 -82 -22.5t-59 -59.5t-22 -83q0 -39 17.5 -70.5t48.5 -49t70 -17.5z" />
    <glyph glyph-name="Emacron" unicode="&#x112;" horiz-adv-x="634" 
d="M7 0l149 700h527l-27 -126h-385l-35 -160h254l-26 -122h-253l-36 -166h390l-27 -126h-531zM279 804l19 86h310l-20 -86h-309z" />
    <glyph glyph-name="emacron" unicode="&#x113;" horiz-adv-x="576" 
d="M291 -10q-76 0 -135.5 31.5t-93.5 88t-34 127.5q0 60 22 113t61 93.5t90 63t109 22.5q69 0 122 -32.5t83 -88.5t30 -130q0 -11 -0.5 -24t-4.5 -39h-378q6 -33 25 -58.5t48.5 -39.5t66.5 -14q33 0 62 10t51 28l75 -87q-48 -34 -95 -49t-104 -15zM170 312h249q-6 31 -22 54
t-40 36t-54 13t-56.5 -13t-46 -36t-30.5 -54zM178 625l19 86h310l-20 -86h-309z" />
    <glyph glyph-name="Ebreve" unicode="&#x114;" horiz-adv-x="634" 
d="M7 0l149 700h527l-27 -126h-385l-35 -160h254l-26 -122h-253l-36 -166h390l-27 -126h-531zM440 779q-69 0 -110.5 38.5t-43.5 104.5l81 17q3 -41 22 -62t53 -21q63 0 102 76l83 -26q-28 -62 -76.5 -94.5t-110.5 -32.5z" />
    <glyph glyph-name="ebreve" unicode="&#x115;" horiz-adv-x="576" 
d="M291 -10q-76 0 -135.5 31.5t-93.5 88t-34 127.5q0 60 22 113t61 93.5t90 63t109 22.5q69 0 122 -32.5t83 -88.5t30 -130q0 -11 -0.5 -24t-4.5 -39h-378q6 -33 25 -58.5t48.5 -39.5t66.5 -14q33 0 62 10t51 28l75 -87q-48 -34 -95 -49t-104 -15zM170 312h249q-6 31 -22 54
t-40 36t-54 13t-56.5 -13t-46 -36t-30.5 -54zM339 600q-69 0 -110.5 38.5t-43.5 104.5l81 17q3 -41 22 -62t53 -21q63 0 102 76l83 -26q-28 -62 -76.5 -94.5t-110.5 -32.5z" />
    <glyph glyph-name="Edotaccent" unicode="&#x116;" horiz-adv-x="634" 
d="M7 0l149 700h527l-27 -126h-385l-35 -160h254l-26 -122h-253l-36 -166h390l-27 -126h-531zM433 781q-27 0 -45 18t-18 46q0 33 24 57t57 24q26 0 43.5 -18t17.5 -46q0 -32 -24 -56.5t-55 -24.5z" />
    <glyph glyph-name="edotaccent" unicode="&#x117;" horiz-adv-x="576" 
d="M291 -10q-76 0 -135.5 31.5t-93.5 88t-34 127.5q0 60 22 113t61 93.5t90 63t109 22.5q69 0 122 -32.5t83 -88.5t30 -130q0 -11 -0.5 -24t-4.5 -39h-378q6 -33 25 -58.5t48.5 -39.5t66.5 -14q33 0 62 10t51 28l75 -87q-48 -34 -95 -49t-104 -15zM170 312h249q-6 31 -22 54
t-40 36t-54 13t-56.5 -13t-46 -36t-30.5 -54zM332 602q-27 0 -45 18t-18 46q0 33 24 57t57 24q26 0 43.5 -18t17.5 -46q0 -32 -24 -56.5t-55 -24.5z" />
    <glyph glyph-name="Eogonek" unicode="&#x118;" horiz-adv-x="634" 
d="M430 -221q-40 0 -64 19.5t-24 53.5q0 40 29 77t88 71h-452l149 700h527l-27 -126h-385l-35 -160h254l-26 -122h-253l-36 -166h390l-27 -126q-57 -30 -84.5 -58t-27.5 -57q0 -17 11 -26t30 -9q22 0 41 11l5 -61q-18 -10 -39.5 -15.5t-43.5 -5.5z" />
    <glyph glyph-name="eogonek" unicode="&#x119;" horiz-adv-x="576" 
d="M271 -221q-40 0 -64 19.5t-24 53.5q0 38 25 72t75 66q-74 2 -131.5 34t-90.5 87.5t-33 125.5q0 60 22 113t61 93.5t90 63t109 22.5q69 0 122 -32.5t83 -88.5t30 -130q0 -11 -0.5 -24t-4.5 -39h-378q6 -33 25 -58.5t48.5 -39.5t66.5 -14q33 0 62 10t51 28l75 -87
q-29 -20 -56 -33.5t-57 -21.5q-56 -29 -83.5 -57t-27.5 -57q0 -17 11.5 -26t30.5 -9q22 0 40 11l6 -61q-18 -10 -40 -15.5t-43 -5.5zM170 312h249q-6 31 -22 54t-40 36t-54 13t-56.5 -13t-46 -36t-30.5 -54z" />
    <glyph glyph-name="Ecaron" unicode="&#x11a;" horiz-adv-x="634" 
d="M7 0l149 700h527l-27 -126h-385l-35 -160h254l-26 -122h-253l-36 -166h390l-27 -126h-531zM364 785l-83 135h105l57 -73l87 73h113l-141 -135h-138z" />
    <glyph glyph-name="ecaron" unicode="&#x11b;" horiz-adv-x="576" 
d="M291 -10q-76 0 -135.5 31.5t-93.5 88t-34 127.5q0 60 22 113t61 93.5t90 63t109 22.5q69 0 122 -32.5t83 -88.5t30 -130q0 -11 -0.5 -24t-4.5 -39h-378q6 -33 25 -58.5t48.5 -39.5t66.5 -14q33 0 62 10t51 28l75 -87q-48 -34 -95 -49t-104 -15zM170 312h249q-6 31 -22 54
t-40 36t-54 13t-56.5 -13t-46 -36t-30.5 -54zM263 606l-83 135h105l57 -73l87 73h113l-141 -135h-138z" />
    <glyph glyph-name="Gcircumflex" unicode="&#x11c;" horiz-adv-x="778" 
d="M383 -13q-71 0 -131.5 24t-105.5 68t-70 103.5t-25 128.5q0 81 31 153t86 127t126.5 86.5t152.5 31.5q90 0 165.5 -38.5t119.5 -105.5l-111 -93q-29 49 -78 76t-108 27q-49 0 -92 -19.5t-76 -54.5t-51.5 -81.5t-18.5 -99.5q0 -58 25.5 -103.5t71 -71.5t103.5 -26
q47 0 87.5 19t69.5 52.5t41 77.5h-204l26 125h353l-13 -69q-17 -98 -71 -174.5t-132 -119.5t-171 -43zM288 785l141 136h138l83 -136h-105l-56 74l-89 -74h-112z" />
    <glyph glyph-name="gcircumflex" unicode="&#x11d;" horiz-adv-x="619" 
d="M261 -213q-65 0 -130 19t-113 53l62 102q44 -29 89 -44.5t88 -15.5q98 0 117 92l7 35q-55 -31 -119 -31q-65 0 -117.5 31t-82.5 85.5t-30 122.5q0 61 22.5 114t62 93t92 62.5t111.5 22.5q46 0 86 -13.5t70 -40.5l10 47h134l-114 -543q-20 -93 -82.5 -142t-162.5 -49z
M298 111q61 0 109 39l44 207q-21 24 -54 39t-72 15q-45 0 -82 -22t-58 -58.5t-21 -82.5q0 -39 17 -70t47.5 -49t69.5 -18zM173 605l141 136h138l83 -136h-105l-56 74l-89 -74h-112z" />
    <glyph glyph-name="Gbreve" unicode="&#x11e;" horiz-adv-x="778" 
d="M383 -13q-71 0 -131.5 24t-105.5 68t-70 103.5t-25 128.5q0 81 31 153t86 127t126.5 86.5t152.5 31.5q90 0 165.5 -38.5t119.5 -105.5l-111 -93q-29 49 -78 76t-108 27q-49 0 -92 -19.5t-76 -54.5t-51.5 -81.5t-18.5 -99.5q0 -58 25.5 -103.5t71 -71.5t103.5 -26
q47 0 87.5 19t69.5 52.5t41 77.5h-204l26 125h353l-13 -69q-17 -98 -71 -174.5t-132 -119.5t-171 -43zM479 780q-69 0 -110.5 38.5t-43.5 104.5l81 17q3 -41 22 -62t53 -21q63 0 102 76l83 -26q-28 -62 -76.5 -94.5t-110.5 -32.5z" />
    <glyph glyph-name="gbreve" unicode="&#x11f;" horiz-adv-x="619" 
d="M261 -213q-65 0 -130 19t-113 53l62 102q44 -29 89 -44.5t88 -15.5q98 0 117 92l7 35q-55 -31 -119 -31q-65 0 -117.5 31t-82.5 85.5t-30 122.5q0 61 22.5 114t62 93t92 62.5t111.5 22.5q46 0 86 -13.5t70 -40.5l10 47h134l-114 -543q-20 -93 -82.5 -142t-162.5 -49z
M298 111q61 0 109 39l44 207q-21 24 -54 39t-72 15q-45 0 -82 -22t-58 -58.5t-21 -82.5q0 -39 17 -70t47.5 -49t69.5 -18zM364 600q-69 0 -110.5 38.5t-43.5 104.5l81 17q3 -41 22 -62t53 -21q63 0 102 76l83 -26q-28 -62 -76.5 -94.5t-110.5 -32.5z" />
    <glyph glyph-name="Gdotaccent" unicode="&#x120;" horiz-adv-x="778" 
d="M383 -13q-71 0 -131.5 24t-105.5 68t-70 103.5t-25 128.5q0 81 31 153t86 127t126.5 86.5t152.5 31.5q90 0 165.5 -38.5t119.5 -105.5l-111 -93q-29 49 -78 76t-108 27q-49 0 -92 -19.5t-76 -54.5t-51.5 -81.5t-18.5 -99.5q0 -58 25.5 -103.5t71 -71.5t103.5 -26
q47 0 87.5 19t69.5 52.5t41 77.5h-204l26 125h353l-13 -69q-17 -98 -71 -174.5t-132 -119.5t-171 -43zM472 782q-27 0 -45 18t-18 46q0 33 24 57t57 24q26 0 43.5 -18t17.5 -46q0 -32 -24 -56.5t-55 -24.5z" />
    <glyph glyph-name="gdotaccent" unicode="&#x121;" horiz-adv-x="619" 
d="M261 -213q-65 0 -130 19t-113 53l62 102q44 -29 89 -44.5t88 -15.5q98 0 117 92l7 35q-55 -31 -119 -31q-65 0 -117.5 31t-82.5 85.5t-30 122.5q0 61 22.5 114t62 93t92 62.5t111.5 22.5q46 0 86 -13.5t70 -40.5l10 47h134l-114 -543q-20 -93 -82.5 -142t-162.5 -49z
M298 111q61 0 109 39l44 207q-21 24 -54 39t-72 15q-45 0 -82 -22t-58 -58.5t-21 -82.5q0 -39 17 -70t47.5 -49t69.5 -18zM357 602q-27 0 -45 18t-18 46q0 33 24 57t57 24q26 0 43.5 -18t17.5 -46q0 -32 -24 -56.5t-55 -24.5z" />
    <glyph glyph-name="Gcommaaccent" unicode="&#x122;" horiz-adv-x="778" 
d="M383 -13q-71 0 -131.5 24t-105.5 68t-70 103.5t-25 128.5q0 81 31 153t86 127t126.5 86.5t152.5 31.5q90 0 165.5 -38.5t119.5 -105.5l-111 -93q-29 49 -78 76t-108 27q-49 0 -92 -19.5t-76 -54.5t-51.5 -81.5t-18.5 -99.5q0 -58 25.5 -103.5t71 -71.5t103.5 -26
q47 0 87.5 19t69.5 52.5t41 77.5h-204l26 125h353l-13 -69q-17 -98 -71 -174.5t-132 -119.5t-171 -43zM223 -286l94 205h127l-124 -205h-97z" />
    <glyph glyph-name="gcommaaccent" unicode="&#x123;" horiz-adv-x="619" 
d="M261 -213q-65 0 -130 19t-113 53l62 102q44 -29 89 -44.5t88 -15.5q98 0 117 92l7 35q-55 -31 -119 -31q-65 0 -117.5 31t-82.5 85.5t-30 122.5q0 61 22.5 114t62 93t92 62.5t111.5 22.5q46 0 86 -13.5t70 -40.5l10 47h134l-114 -543q-20 -93 -82.5 -142t-162.5 -49z
M298 111q61 0 109 39l44 207q-21 24 -54 39t-72 15q-45 0 -82 -22t-58 -58.5t-21 -82.5q0 -39 17 -70t47.5 -49t69.5 -18zM501 819l-94 -205h-127l124 205h97z" />
    <glyph glyph-name="Hcircumflex" unicode="&#x124;" horiz-adv-x="724" 
d="M7 0l149 700h142l-60 -282h316l60 282h141l-149 -700h-141l60 287h-316l-60 -287h-142zM290 784l141 136h138l83 -136h-105l-56 74l-89 -74h-112z" />
    <glyph glyph-name="hcircumflex" unicode="&#x125;" horiz-adv-x="582" 
d="M-2 0l149 700l140 30l-52 -247q64 46 141 46q62 0 104.5 -28.5t59.5 -77.5t4 -112l-66 -311h-135l64 298q10 52 -14 83.5t-74 31.5q-32 0 -59.5 -12t-49.5 -36l-78 -365h-134zM45 784l141 136h138l83 -136h-105l-56 74l-89 -74h-112z" />
    <glyph glyph-name="Hbar" unicode="&#x126;" horiz-adv-x="753" 
d="M21 0l106 498h-66l24 115h67l18 87h142l-19 -87h316l19 87h141l-18 -87h66l-24 -115h-67l-106 -498h-141l61 287h-316l-61 -287h-142zM252 418h316l17 80h-317z" />
    <glyph glyph-name="hbar" unicode="&#x127;" horiz-adv-x="581" 
d="M-2 0l123 579h-57l18 84h57l8 37l140 30l-14 -67h134l-17 -84h-135l-20 -96q64 46 141 46q62 0 104.5 -28.5t59.5 -77.5t4 -112l-66 -311h-135l64 298q10 52 -14 83.5t-74 31.5q-32 0 -59.5 -12t-49.5 -36l-78 -365h-134z" />
    <glyph glyph-name="Itilde" unicode="&#x128;" horiz-adv-x="266" 
d="M7 0l149 700h142l-149 -700h-142zM137 780l-78 27q50 113 122 113q31 0 57.5 -14.5t49 -29.5t41.5 -15q14 0 24.5 11.5t24.5 41.5l77 -26q-24 -58 -54 -86t-69 -28q-31 0 -57 14.5t-47.5 29.5t-42.5 15q-14 0 -25 -12.5t-23 -40.5z" />
    <glyph glyph-name="itilde" unicode="&#x129;" horiz-adv-x="240" 
d="M-2 0l110 521h134l-110 -521h-134zM85 601l-78 27q50 113 122 113q31 0 57.5 -14.5t49 -29.5t41.5 -15q14 0 24.5 11.5t24.5 41.5l77 -26q-24 -58 -54 -86t-69 -28q-31 0 -57 14.5t-47.5 29.5t-42.5 15q-14 0 -25 -12.5t-23 -40.5z" />
    <glyph glyph-name="Imacron" unicode="&#x12a;" horiz-adv-x="266" 
d="M7 0l149 700h142l-149 -700h-142zM91 804l19 86h310l-20 -86h-309z" />
    <glyph glyph-name="imacron" unicode="&#x12b;" horiz-adv-x="240" 
d="M-2 0l110 521h134l-110 -521h-134zM39 625l19 86h310l-20 -86h-309z" />
    <glyph glyph-name="Ibreve" unicode="&#x12c;" horiz-adv-x="266" 
d="M7 0l149 700h142l-149 -700h-142zM252 779q-69 0 -110.5 38.5t-43.5 104.5l81 17q3 -41 22 -62t53 -21q63 0 102 76l83 -26q-28 -62 -76.5 -94.5t-110.5 -32.5z" />
    <glyph glyph-name="ibreve" unicode="&#x12d;" horiz-adv-x="240" 
d="M-2 0l110 521h134l-110 -521h-134zM200 600q-69 0 -110.5 38.5t-43.5 104.5l81 17q3 -41 22 -62t53 -21q63 0 102 76l83 -26q-28 -62 -76.5 -94.5t-110.5 -32.5z" />
    <glyph glyph-name="Iogonek" unicode="&#x12e;" horiz-adv-x="266" 
d="M41 -221q-40 0 -64 19.5t-24 53.5q0 40 29 77t88 71h-63l149 700h142l-149 -700q-57 -30 -84.5 -58t-27.5 -57q0 -17 11 -26t30 -9q22 0 41 11l5 -61q-18 -10 -40 -15.5t-43 -5.5z" />
    <glyph glyph-name="iogonek" unicode="&#x12f;" horiz-adv-x="240" 
d="M196 583q-29 0 -48.5 20t-19.5 49q0 24 12 44t31.5 31.5t42.5 11.5q29 0 48.5 -19.5t19.5 -48.5q0 -24 -12 -43.5t-31.5 -32t-42.5 -12.5zM25 -221q-40 0 -64 19.5t-24 53.5q0 40 29 77t88 71h-56l110 521h134l-110 -521q-56 -30 -84 -58t-28 -57q0 -17 11.5 -26t30.5 -9
q22 0 40 11l6 -61q-18 -10 -40 -15.5t-43 -5.5z" />
    <glyph glyph-name="Idotaccent" unicode="&#x130;" horiz-adv-x="266" 
d="M7 0l149 700h142l-149 -700h-142zM245 781q-27 0 -45 18t-18 46q0 33 24 57t57 24q26 0 43.5 -18t17.5 -46q0 -32 -24 -56.5t-55 -24.5z" />
    <glyph glyph-name="dotlessi" unicode="&#x131;" horiz-adv-x="240" 
d="M-2 0l110 521h134l-110 -521h-134z" />
    <glyph glyph-name="IJ" unicode="&#x132;" horiz-adv-x="895" 
d="M7 0l149 700h142l-149 -700h-142zM541 -10q-109 0 -177.5 55.5t-83.5 158.5l132 46q18 -128 126 -128q62 0 106.5 40.5t59.5 110.5l90 427h144l-97 -451q-17 -80 -59 -138t-104 -89.5t-137 -31.5z" />
    <glyph glyph-name="ij" unicode="&#x133;" horiz-adv-x="480" 
d="M-2 0l110 521h134l-110 -521h-134zM196 583q-29 0 -48.5 20t-19.5 49q0 24 12 44t31.5 31.5t42.5 11.5q29 0 48.5 -19.5t19.5 -48.5q0 -24 -12 -43.5t-31.5 -32t-42.5 -12.5zM436 583q-29 0 -48.5 20t-19.5 49q0 24 12 44t31.5 31.5t42.5 11.5q29 0 48.5 -19.5
t19.5 -48.5q0 -24 -12 -43.5t-31.5 -32t-42.5 -12.5zM175 -215q-19 0 -43 4t-38 9l22 104q11 -3 22.5 -4.5t28.5 -1.5q25 0 39.5 12.5t19.5 37.5l122 575h135l-126 -589q-14 -71 -62 -109t-120 -38z" />
    <glyph glyph-name="Jcircumflex" unicode="&#x134;" horiz-adv-x="629" 
d="M275 -10q-109 0 -177.5 55.5t-83.5 158.5l132 46q18 -128 126 -128q62 0 106.5 40.5t59.5 110.5l90 427h144l-97 -451q-17 -80 -59 -138t-104 -89.5t-137 -31.5zM436 784l141 136h138l83 -136h-105l-56 74l-89 -74h-112z" />
    <glyph glyph-name="jcircumflex" unicode="&#x135;" horiz-adv-x="240" 
d="M-65 -215q-19 0 -43 4t-38 9l22 104q11 -3 22.5 -4.5t28.5 -1.5q25 0 39.5 12.5t19.5 37.5l122 575h135l-126 -589q-14 -71 -62 -109t-120 -38zM10 605l141 136h138l83 -136h-105l-56 74l-89 -74h-112z" />
    <glyph glyph-name="Kcommaaccent" unicode="&#x136;" horiz-adv-x="683" 
d="M7 0l149 700h142l-65 -302l358 302h185l-410 -338l266 -362h-179l-234 332l-70 -332h-142zM109 -286l94 205h127l-124 -205h-97z" />
    <glyph glyph-name="kcommaaccent" unicode="&#x137;" horiz-adv-x="557" 
d="M-2 0l149 700l140 30l-92 -433l256 224h167l-307 -260l209 -261h-163l-176 231l-49 -231h-134zM53 -286l94 205h127l-124 -205h-97z" />
    <glyph glyph-name="kgreenlandic" unicode="&#x138;" horiz-adv-x="557" 
d="M-2 0l111 521h133l-47 -225l258 225h166l-308 -261l206 -260h-162l-174 230l-49 -230h-134z" />
    <glyph glyph-name="Lacute" unicode="&#x139;" horiz-adv-x="616" 
d="M7 0l149 700h142l-122 -572h375l-27 -128h-517zM173 787l117 130h154l-159 -130h-112z" />
    <glyph glyph-name="lacute" unicode="&#x13a;" horiz-adv-x="240" 
d="M-2 0l149 700l140 30l-155 -730h-134zM160 787l117 130h154l-159 -130h-112z" />
    <glyph glyph-name="Lcommaaccent" unicode="&#x13b;" horiz-adv-x="616" 
d="M7 0l149 700h142l-122 -572h375l-27 -128h-517zM111 -286l94 205h127l-124 -205h-97z" />
    <glyph glyph-name="lcommaaccent" unicode="&#x13c;" horiz-adv-x="240" 
d="M-2 0l149 700l140 30l-155 -730h-134zM-112 -286l94 205h127l-124 -205h-97z" />
    <glyph glyph-name="Lcaron" unicode="&#x13d;" horiz-adv-x="616" 
d="M7 0l149 700h142l-122 -572h375l-27 -128h-517zM426 501l52 201l118 22l-90 -223h-80z" />
    <glyph glyph-name="lcaron" unicode="&#x13e;" horiz-adv-x="388" 
d="M-2 0l149 700l140 30l-155 -730h-134zM315 501l52 201l118 22l-90 -223h-80z" />
    <glyph glyph-name="Ldot" unicode="&#x13f;" horiz-adv-x="616" 
d="M7 0l149 700h142l-122 -572h375l-27 -128h-517zM456 296q-27 0 -45 18t-18 46q0 33 24 57t57 24q26 0 43.5 -18t17.5 -46q0 -32 -24 -56.5t-55 -24.5z" />
    <glyph glyph-name="ldot" unicode="&#x140;" horiz-adv-x="397" 
d="M-2 0l149 700l140 30l-155 -730h-134zM332 285q-27 0 -45 18t-18 46q0 33 24 57t57 24q26 0 43.5 -18t17.5 -46q0 -32 -24 -56.5t-55 -24.5z" />
    <glyph glyph-name="Lslash" unicode="&#x141;" horiz-adv-x="642" 
d="M32 0l44 208l-86 -49l25 123l88 49l78 369h142l-60 -281l204 116l-26 -123l-204 -116l-36 -168h375l-27 -128h-517z" />
    <glyph glyph-name="lslash" unicode="&#x142;" horiz-adv-x="283" 
d="M22 0l55 259l-79 -50l27 125l78 49l68 317l140 30l-54 -251l81 51l-27 -125l-80 -51l-75 -354h-134z" />
    <glyph glyph-name="Nacute" unicode="&#x143;" horiz-adv-x="734" 
d="M7 0l149 700h134l243 -465l98 465h134l-149 -700h-124l-249 481l-102 -481h-134zM407 787l117 130h154l-159 -130h-112z" />
    <glyph glyph-name="nacute" unicode="&#x144;" horiz-adv-x="582" 
d="M-2 0l110 521h134l-8 -38q65 46 142 46q62 0 104.5 -28.5t59.5 -77.5t4 -112l-66 -311h-135l64 298q10 52 -14 83.5t-74 31.5q-32 0 -59.5 -12t-50.5 -36l-77 -365h-134zM293 608l117 130h154l-159 -130h-112z" />
    <glyph glyph-name="Ncommaaccent" unicode="&#x145;" horiz-adv-x="734" 
d="M7 0l149 700h134l243 -465l98 465h134l-149 -700h-124l-249 481l-102 -481h-134zM135 -286l94 205h127l-124 -205h-97z" />
    <glyph glyph-name="ncommaaccent" unicode="&#x146;" horiz-adv-x="582" 
d="M-2 0l110 521h134l-8 -38q65 46 142 46q62 0 104.5 -28.5t59.5 -77.5t4 -112l-66 -311h-135l64 298q10 52 -14 83.5t-74 31.5q-32 0 -59.5 -12t-50.5 -36l-77 -365h-134zM60 -286l94 205h127l-124 -205h-97z" />
    <glyph glyph-name="Ncaron" unicode="&#x147;" horiz-adv-x="734" 
d="M7 0l149 700h134l243 -465l98 465h134l-149 -700h-124l-249 481l-102 -481h-134zM409 785l-83 135h105l57 -73l87 73h113l-141 -135h-138z" />
    <glyph glyph-name="ncaron" unicode="&#x148;" horiz-adv-x="582" 
d="M-2 0l110 521h134l-8 -38q65 46 142 46q62 0 104.5 -28.5t59.5 -77.5t4 -112l-66 -311h-135l64 298q10 52 -14 83.5t-74 31.5q-32 0 -59.5 -12t-50.5 -36l-77 -365h-134zM295 606l-83 135h105l57 -73l87 73h113l-141 -135h-138z" />
    <glyph glyph-name="Eng" unicode="&#x14a;" horiz-adv-x="734" 
d="M420 -212q-22 0 -45 4t-37 9l23 104q10 -2 22 -4t29 -2q25 0 40 12.5t20 37.5l13 63l-243 463l-101 -475h-134l149 700h134l243 -460l98 460h134l-163 -766q-15 -70 -62.5 -108t-119.5 -38z" />
    <glyph glyph-name="eng" unicode="&#x14b;" horiz-adv-x="581" 
d="M281 -215q-20 0 -44 4t-38 9l23 104q11 -3 22 -4.5t28 -1.5q25 0 39.5 12.5t20.5 37.5l75 352q10 52 -14 83.5t-74 31.5q-32 0 -59.5 -12t-50.5 -36l-77 -365h-134l110 521h134l-8 -38q65 46 142 46q62 0 104.5 -28t60 -77t3.5 -112l-81 -380q-15 -70 -62.5 -108.5
t-119.5 -38.5z" />
    <glyph glyph-name="Omacron" unicode="&#x14c;" horiz-adv-x="797" 
d="M392 -11q-72 0 -133.5 25t-107.5 69.5t-71.5 105t-25.5 131.5q0 81 30.5 151.5t84 124.5t124 84.5t150.5 30.5q73 0 134 -25t107 -69.5t71.5 -105t25.5 -131.5q0 -81 -30.5 -151.5t-84 -124.5t-124 -84.5t-150.5 -30.5zM401 122q49 0 91.5 19.5t74.5 53.5t50.5 79.5
t18.5 96.5q0 59 -26 106t-72 74t-104 27q-48 0 -90.5 -19.5t-75 -53.5t-50.5 -79.5t-18 -96.5q0 -59 25.5 -106t71.5 -74t104 -27zM313 804l19 86h310l-20 -86h-309z" />
    <glyph glyph-name="omacron" unicode="&#x14d;" horiz-adv-x="607" 
d="M286 -10q-73 0 -131 33t-91.5 90t-33.5 127q0 60 22.5 112.5t63 92.5t93.5 63t112 23q73 0 130.5 -33t91.5 -89.5t34 -127.5q0 -60 -23 -112.5t-63.5 -92.5t-92.5 -63t-112 -23zM292 109q32 0 59.5 13t48.5 35.5t33 53t12 63.5q0 41 -17 72t-46.5 48.5t-67.5 17.5
q-31 0 -58.5 -13t-49 -35.5t-33 -53t-11.5 -63.5q0 -40 16.5 -71.5t46 -49t67.5 -17.5zM193 625l19 86h310l-20 -86h-309z" />
    <glyph glyph-name="Obreve" unicode="&#x14e;" horiz-adv-x="797" 
d="M392 -11q-72 0 -133.5 25t-107.5 69.5t-71.5 105t-25.5 131.5q0 81 30.5 151.5t84 124.5t124 84.5t150.5 30.5q73 0 134 -25t107 -69.5t71.5 -105t25.5 -131.5q0 -81 -30.5 -151.5t-84 -124.5t-124 -84.5t-150.5 -30.5zM401 122q49 0 91.5 19.5t74.5 53.5t50.5 79.5
t18.5 96.5q0 59 -26 106t-72 74t-104 27q-48 0 -90.5 -19.5t-75 -53.5t-50.5 -79.5t-18 -96.5q0 -59 25.5 -106t71.5 -74t104 -27zM474 779q-69 0 -110.5 38.5t-43.5 104.5l81 17q3 -41 22 -62t53 -21q63 0 102 76l83 -26q-28 -62 -76.5 -94.5t-110.5 -32.5z" />
    <glyph glyph-name="obreve" unicode="&#x14f;" horiz-adv-x="607" 
d="M286 -10q-73 0 -131 33t-91.5 90t-33.5 127q0 60 22.5 112.5t63 92.5t93.5 63t112 23q73 0 130.5 -33t91.5 -89.5t34 -127.5q0 -60 -23 -112.5t-63.5 -92.5t-92.5 -63t-112 -23zM292 109q32 0 59.5 13t48.5 35.5t33 53t12 63.5q0 41 -17 72t-46.5 48.5t-67.5 17.5
q-31 0 -58.5 -13t-49 -35.5t-33 -53t-11.5 -63.5q0 -40 16.5 -71.5t46 -49t67.5 -17.5zM354 600q-69 0 -110.5 38.5t-43.5 104.5l81 17q3 -41 22 -62t53 -21q63 0 102 76l83 -26q-28 -62 -76.5 -94.5t-110.5 -32.5z" />
    <glyph glyph-name="Ohungarumlaut" unicode="&#x150;" horiz-adv-x="797" 
d="M392 -11q-72 0 -133.5 25t-107.5 69.5t-71.5 105t-25.5 131.5q0 81 30.5 151.5t84 124.5t124 84.5t150.5 30.5q73 0 134 -25t107 -69.5t71.5 -105t25.5 -131.5q0 -81 -30.5 -151.5t-84 -124.5t-124 -84.5t-150.5 -30.5zM401 122q49 0 91.5 19.5t74.5 53.5t50.5 79.5
t18.5 96.5q0 59 -26 106t-72 74t-104 27q-48 0 -90.5 -19.5t-75 -53.5t-50.5 -79.5t-18 -96.5q0 -59 25.5 -106t71.5 -74t104 -27zM430 916h133l-156 -127h-104zM632 916h136l-166 -127h-97z" />
    <glyph glyph-name="ohungarumlaut" unicode="&#x151;" horiz-adv-x="607" 
d="M286 -10q-73 0 -131 33t-91.5 90t-33.5 127q0 60 22.5 112.5t63 92.5t93.5 63t112 23q73 0 130.5 -33t91.5 -89.5t34 -127.5q0 -60 -23 -112.5t-63.5 -92.5t-92.5 -63t-112 -23zM292 109q32 0 59.5 13t48.5 35.5t33 53t12 63.5q0 41 -17 72t-46.5 48.5t-67.5 17.5
q-31 0 -58.5 -13t-49 -35.5t-33 -53t-11.5 -63.5q0 -40 16.5 -71.5t46 -49t67.5 -17.5zM310 737h133l-156 -127h-104zM512 737h136l-166 -127h-97z" />
    <glyph glyph-name="OE" unicode="&#x152;" horiz-adv-x="1094" 
d="M387 0q-71 0 -132 24t-105.5 67.5t-70 102t-25.5 126.5q0 78 30.5 147t84 121t123 82t148.5 30h706l-26 -126h-419q29 -31 46.5 -72.5t20.5 -87.5h193l-26 -122h-175q-12 -48 -36.5 -90.5t-58.5 -75.5h359l-26 -126h-611zM397 133q47 0 88 18.5t72.5 51.5t49 76.5
t17.5 92.5q0 56 -25 100t-69 69.5t-100 25.5q-47 0 -89 -19t-73 -52t-49 -76t-18 -91q0 -57 25.5 -101t70 -69.5t100.5 -25.5z" />
    <glyph glyph-name="oe" unicode="&#x153;" horiz-adv-x="994" 
d="M286 -10q-73 0 -131 33t-91.5 90t-33.5 127q0 60 22.5 112.5t63 92.5t93.5 63t112 23q64 0 117 -27.5t85 -74.5q37 46 91 73t114 27q69 0 122 -32.5t83.5 -88.5t30.5 -130q0 -11 -1 -24t-5 -39h-378q6 -33 25 -58.5t48.5 -39.5t66.5 -14q33 0 62 10t51 28l75 -87
q-48 -34 -95.5 -49t-102.5 -15q-45 0 -84.5 12t-71 35t-54.5 55q-39 -47 -94.5 -74.5t-119.5 -27.5zM588 312h249q-6 31 -22 54t-40 36t-54 13t-56 -13t-46 -36t-31 -54zM292 109q32 0 59.5 13t48.5 35.5t33 53t12 63.5q0 41 -17 72t-46.5 48.5t-67.5 17.5q-31 0 -58.5 -13
t-49 -35.5t-33 -53t-11.5 -63.5q0 -40 16.5 -71.5t46 -49t67.5 -17.5z" />
    <glyph glyph-name="Racute" unicode="&#x154;" horiz-adv-x="666" 
d="M7 0l149 700h312q65 0 113 -24.5t74.5 -68.5t26.5 -102q0 -54 -23 -100.5t-63.5 -79t-95.5 -46.5l105 -279h-150l-92 268h-158l-56 -268h-142zM231 387h188q35 0 62 13.5t42 37.5t15 54q0 38 -25.5 60.5t-69.5 22.5h-172zM366 787l117 130h154l-159 -130h-112z" />
    <glyph glyph-name="racute" unicode="&#x155;" horiz-adv-x="399" 
d="M-3 0l111 521h134l-11 -52q29 30 64 46t74 16q43 0 65 -14l-25 -120q-10 7 -32 12.5t-42 5.5q-78 0 -131 -71l-72 -344h-135zM224 608l117 130h154l-159 -130h-112z" />
    <glyph glyph-name="Rcommaaccent" unicode="&#x156;" horiz-adv-x="666" 
d="M7 0l149 700h312q65 0 113 -24.5t74.5 -68.5t26.5 -102q0 -54 -23 -100.5t-63.5 -79t-95.5 -46.5l105 -279h-150l-92 268h-158l-56 -268h-142zM231 387h188q35 0 62 13.5t42 37.5t15 54q0 38 -25.5 60.5t-69.5 22.5h-172zM110 -286l94 205h127l-124 -205h-97z" />
    <glyph glyph-name="rcommaaccent" unicode="&#x157;" horiz-adv-x="399" 
d="M-3 0l111 521h134l-11 -52q29 30 64 46t74 16q43 0 65 -14l-25 -120q-10 7 -32 12.5t-42 5.5q-78 0 -131 -71l-72 -344h-135zM-112 -286l94 205h127l-124 -205h-97z" />
    <glyph glyph-name="Rcaron" unicode="&#x158;" horiz-adv-x="666" 
d="M7 0l149 700h312q65 0 113 -24.5t74.5 -68.5t26.5 -102q0 -54 -23 -100.5t-63.5 -79t-95.5 -46.5l105 -279h-150l-92 268h-158l-56 -268h-142zM231 387h188q35 0 62 13.5t42 37.5t15 54q0 38 -25.5 60.5t-69.5 22.5h-172zM368 785l-83 135h105l57 -73l87 73h113
l-141 -135h-138z" />
    <glyph glyph-name="rcaron" unicode="&#x159;" horiz-adv-x="399" 
d="M-3 0l111 521h134l-11 -52q29 30 64 46t74 16q43 0 65 -14l-25 -120q-10 7 -32 12.5t-42 5.5q-78 0 -131 -71l-72 -344h-135zM226 606l-83 135h105l57 -73l87 73h113l-141 -135h-138z" />
    <glyph glyph-name="Sacute" unicode="&#x15a;" horiz-adv-x="619" 
d="M307 -10q-95 0 -177 36.5t-142 105.5l95 98q54 -60 112 -89.5t124 -29.5q40 0 70 11t46.5 32t16.5 48q0 30 -23 48.5t-78 32.5l-131 34q-77 21 -116 65.5t-39 110.5q0 67 32.5 115.5t92.5 75t143 26.5q84 0 162.5 -31.5t136.5 -87.5l-89 -102q-52 50 -107 75t-116 25
q-54 0 -86.5 -21.5t-32.5 -58.5q0 -27 21 -44.5t68 -30.5l125 -30q89 -21 133.5 -67t44.5 -114q0 -70 -35.5 -122.5t-99.5 -81.5t-151 -29zM294 787l117 130h154l-159 -130h-112z" />
    <glyph glyph-name="sacute" unicode="&#x15b;" horiz-adv-x="484" 
d="M228 -11q-72 0 -138 24t-109 65l77 87q42 -36 84.5 -54t86.5 -18q41 0 66.5 16t25.5 41q0 18 -14 29t-43 18l-96 21q-64 14 -97.5 50t-33.5 91q0 53 25 90.5t71.5 58.5t109.5 21t121 -20.5t104 -59.5l-75 -83q-39 30 -79.5 45.5t-79.5 15.5q-36 0 -57 -14t-21 -38
q0 -19 14.5 -30.5t47.5 -18.5l95 -21q66 -14 101 -50t35 -89q0 -50 -29 -90t-79 -63.5t-113 -23.5zM203 608l117 130h154l-159 -130h-112z" />
    <glyph glyph-name="Scircumflex" unicode="&#x15c;" horiz-adv-x="619" 
d="M307 -10q-95 0 -177 36.5t-142 105.5l95 98q54 -60 112 -89.5t124 -29.5q40 0 70 11t46.5 32t16.5 48q0 30 -23 48.5t-78 32.5l-131 34q-77 21 -116 65.5t-39 110.5q0 67 32.5 115.5t92.5 75t143 26.5q84 0 162.5 -31.5t136.5 -87.5l-89 -102q-52 50 -107 75t-116 25
q-54 0 -86.5 -21.5t-32.5 -58.5q0 -27 21 -44.5t68 -30.5l125 -30q89 -21 133.5 -67t44.5 -114q0 -70 -35.5 -122.5t-99.5 -81.5t-151 -29zM181 784l141 136h138l83 -136h-105l-56 74l-89 -74h-112z" />
    <glyph glyph-name="scircumflex" unicode="&#x15d;" horiz-adv-x="484" 
d="M228 -11q-72 0 -138 24t-109 65l77 87q42 -36 84.5 -54t86.5 -18q41 0 66.5 16t25.5 41q0 18 -14 29t-43 18l-96 21q-64 14 -97.5 50t-33.5 91q0 53 25 90.5t71.5 58.5t109.5 21t121 -20.5t104 -59.5l-75 -83q-39 30 -79.5 45.5t-79.5 15.5q-36 0 -57 -14t-21 -38
q0 -19 14.5 -30.5t47.5 -18.5l95 -21q66 -14 101 -50t35 -89q0 -50 -29 -90t-79 -63.5t-113 -23.5zM91 605l141 136h138l83 -136h-105l-56 74l-89 -74h-112z" />
    <glyph glyph-name="Scedilla" unicode="&#x15e;" horiz-adv-x="619" 
d="M243 -235q-39 0 -69.5 12.5t-54.5 38.5l50 46q31 -33 77 -33q25 0 40.5 11t15.5 29q0 16 -13.5 26t-35.5 10h-39l44 87q-80 9 -149 44.5t-121 95.5l95 98q54 -60 112 -89.5t124 -29.5q40 0 70 11t46.5 32t16.5 48q0 30 -23 48.5t-78 32.5l-131 34q-77 21 -116 65.5
t-39 110.5q0 67 32.5 115.5t92.5 75t143 26.5q84 0 162.5 -31.5t136.5 -87.5l-89 -102q-52 50 -107 75t-116 25q-54 0 -86.5 -21.5t-32.5 -58.5q0 -27 21 -44.5t68 -30.5l125 -30q89 -21 133.5 -67t44.5 -114q0 -69 -33 -120t-94 -80.5t-143 -32.5l-19 -37q36 -7 56 -27
t20 -53q0 -30 -18 -54.5t-49.5 -39t-69.5 -14.5z" />
    <glyph glyph-name="scedilla" unicode="&#x15f;" horiz-adv-x="484" 
d="M162 -235q-39 0 -69.5 12.5t-54.5 38.5l50 46q31 -33 77 -33q25 0 40 11t15 29q0 16 -13 26t-35 10h-39l43 88q-57 7 -108 29.5t-87 55.5l77 87q42 -36 84.5 -54t86.5 -18q41 0 66.5 16t25.5 41q0 18 -14 29t-43 18l-96 21q-64 14 -97.5 50t-33.5 91q0 53 25 90.5
t71.5 58.5t109.5 21t121 -20.5t104 -59.5l-75 -83q-39 30 -79.5 45.5t-79.5 15.5q-36 0 -57 -14t-21 -38q0 -19 14.5 -30.5t47.5 -18.5l95 -21q66 -14 101 -50t35 -89q0 -48 -27 -87.5t-74 -63t-107 -26.5l-18 -36q36 -7 56 -27t20 -53q0 -30 -18.5 -54.5t-49.5 -39
t-69 -14.5z" />
    <glyph glyph-name="Scaron" unicode="&#x160;" horiz-adv-x="619" 
d="M307 -10q-95 0 -177 36.5t-142 105.5l95 98q54 -60 112 -89.5t124 -29.5q40 0 70 11t46.5 32t16.5 48q0 30 -23 48.5t-78 32.5l-131 34q-77 21 -116 65.5t-39 110.5q0 67 32.5 115.5t92.5 75t143 26.5q84 0 162.5 -31.5t136.5 -87.5l-89 -102q-52 50 -107 75t-116 25
q-54 0 -86.5 -21.5t-32.5 -58.5q0 -27 21 -44.5t68 -30.5l125 -30q89 -21 133.5 -67t44.5 -114q0 -70 -35.5 -122.5t-99.5 -81.5t-151 -29zM296 785l-83 135h105l57 -73l87 73h113l-141 -135h-138z" />
    <glyph glyph-name="scaron" unicode="&#x161;" horiz-adv-x="484" 
d="M228 -11q-72 0 -138 24t-109 65l77 87q42 -36 84.5 -54t86.5 -18q41 0 66.5 16t25.5 41q0 18 -14 29t-43 18l-96 21q-64 14 -97.5 50t-33.5 91q0 53 25 90.5t71.5 58.5t109.5 21t121 -20.5t104 -59.5l-75 -83q-39 30 -79.5 45.5t-79.5 15.5q-36 0 -57 -14t-21 -38
q0 -19 14.5 -30.5t47.5 -18.5l95 -21q66 -14 101 -50t35 -89q0 -50 -29 -90t-79 -63.5t-113 -23.5zM205 606l-83 135h105l57 -73l87 73h113l-141 -135h-138z" />
    <glyph glyph-name="Tcedilla" unicode="&#x162;" horiz-adv-x="639" 
d="M211 -235q-39 0 -69.5 12.5t-54.5 38.5l50 46q31 -33 77 -33q25 0 40 11t15 29q0 16 -13 26t-35 10h-39l47 95h-36l122 572h-232l28 128h604l-28 -128h-230l-122 -572h-39l-24 -47q36 -7 56 -27t20 -53q0 -30 -18.5 -54.5t-49.5 -39t-69 -14.5z" />
    <glyph glyph-name="tcedilla" unicode="&#x163;" horiz-adv-x="416" 
d="M174 -235q-39 0 -69 12.5t-54 38.5l50 46q31 -33 77 -33q25 0 40 11t15 29q0 16 -13 26t-36 10h-39l47 94q-57 12 -81 52t-10 104l53 252h-105l24 114h105l28 133l141 31l-35 -164h145l-24 -114h-145l-50 -229q-7 -38 8 -54.5t58 -16.5q16 0 31 2t33 6l-24 -111
q-16 -4 -40.5 -7t-46.5 -4l-22 -40q37 -7 57 -27t20 -53q0 -30 -18.5 -54.5t-49.5 -39t-70 -14.5z" />
    <glyph glyph-name="Tcaron" unicode="&#x164;" horiz-adv-x="639" 
d="M193 0l122 572h-232l28 128h604l-28 -128h-230l-122 -572h-142zM362 785l-83 135h105l57 -73l87 73h113l-141 -135h-138z" />
    <glyph glyph-name="tcaron" unicode="&#x165;" horiz-adv-x="423" 
d="M249 -7q-88 0 -126.5 42t-21.5 120l53 252h-105l24 114h105l28 133l141 31l-35 -164h145l-24 -114h-145l-50 -229q-7 -38 8 -54.5t58 -16.5q16 0 31 2t33 6l-24 -111q-18 -4 -45 -7.5t-50 -3.5zM390 588l52 199l117 22l-89 -221h-80z" />
    <glyph glyph-name="Tbar" unicode="&#x166;" horiz-adv-x="639" 
d="M193 0l59 280h-137l24 115h138l38 177h-232l28 128h604l-28 -128h-230l-38 -177h138l-24 -115h-138l-60 -280h-142z" />
    <glyph glyph-name="tbar" unicode="&#x167;" horiz-adv-x="425" 
d="M249 -7q-88 0 -126.5 42t-21.5 120l15 74h-104l20 99h105l17 79h-105l24 114h105l28 133l141 31l-35 -164h145l-24 -114h-145l-17 -79h144l-20 -99h-146l-11 -51q-7 -38 8 -54.5t58 -16.5q16 0 31 2t33 6l-24 -111q-18 -4 -45 -7.5t-50 -3.5z" />
    <glyph glyph-name="Utilde" unicode="&#x168;" horiz-adv-x="710" 
d="M329 -10q-99 0 -166 42.5t-93 119t-4 176.5l79 372h142l-82 -386q-12 -57 0.5 -100t47 -66.5t86.5 -23.5q68 0 118.5 45.5t66.5 121.5l87 409h141l-90 -422q-19 -91 -65 -155t-114 -98.5t-154 -34.5zM352 780l-78 27q50 113 122 113q31 0 57.5 -14.5t49 -29.5t41.5 -15
q14 0 24.5 11.5t24.5 41.5l77 -26q-24 -58 -54 -86t-69 -28q-31 0 -57 14.5t-47.5 29.5t-42.5 15q-14 0 -25 -12.5t-23 -40.5z" />
    <glyph glyph-name="utilde" unicode="&#x169;" horiz-adv-x="582" 
d="M205 -8q-61 0 -103.5 28.5t-59.5 77.5t-4 112l66 311h134l-63 -298q-11 -52 13.5 -83.5t74.5 -31.5q32 0 59.5 12.5t49.5 35.5l78 365h134l-111 -521h-134l8 38q-65 -46 -142 -46zM246 601l-78 27q50 113 122 113q31 0 57.5 -14.5t49 -29.5t41.5 -15q14 0 24.5 11.5
t24.5 41.5l77 -26q-24 -58 -54 -86t-69 -28q-31 0 -57 14.5t-47.5 29.5t-42.5 15q-14 0 -25 -12.5t-23 -40.5z" />
    <glyph glyph-name="Umacron" unicode="&#x16a;" horiz-adv-x="710" 
d="M329 -10q-99 0 -166 42.5t-93 119t-4 176.5l79 372h142l-82 -386q-12 -57 0.5 -100t47 -66.5t86.5 -23.5q68 0 118.5 45.5t66.5 121.5l87 409h141l-90 -422q-19 -91 -65 -155t-114 -98.5t-154 -34.5zM306 804l19 86h310l-20 -86h-309z" />
    <glyph glyph-name="umacron" unicode="&#x16b;" horiz-adv-x="582" 
d="M205 -8q-61 0 -103.5 28.5t-59.5 77.5t-4 112l66 311h134l-63 -298q-11 -52 13.5 -83.5t74.5 -31.5q32 0 59.5 12.5t49.5 35.5l78 365h134l-111 -521h-134l8 38q-65 -46 -142 -46zM200 625l19 86h310l-20 -86h-309z" />
    <glyph glyph-name="Ubreve" unicode="&#x16c;" horiz-adv-x="710" 
d="M329 -10q-99 0 -166 42.5t-93 119t-4 176.5l79 372h142l-82 -386q-12 -57 0.5 -100t47 -66.5t86.5 -23.5q68 0 118.5 45.5t66.5 121.5l87 409h141l-90 -422q-19 -91 -65 -155t-114 -98.5t-154 -34.5zM467 779q-69 0 -110.5 38.5t-43.5 104.5l81 17q3 -41 22 -62t53 -21
q63 0 102 76l83 -26q-28 -62 -76.5 -94.5t-110.5 -32.5z" />
    <glyph glyph-name="ubreve" unicode="&#x16d;" horiz-adv-x="582" 
d="M205 -8q-61 0 -103.5 28.5t-59.5 77.5t-4 112l66 311h134l-63 -298q-11 -52 13.5 -83.5t74.5 -31.5q32 0 59.5 12.5t49.5 35.5l78 365h134l-111 -521h-134l8 38q-65 -46 -142 -46zM361 600q-69 0 -110.5 38.5t-43.5 104.5l81 17q3 -41 22 -62t53 -21q63 0 102 76l83 -26
q-28 -62 -76.5 -94.5t-110.5 -32.5z" />
    <glyph glyph-name="Uring" unicode="&#x16e;" horiz-adv-x="710" 
d="M329 -10q-99 0 -166 42.5t-93 119t-4 176.5l79 372h142l-82 -386q-12 -57 0.5 -100t47 -66.5t86.5 -23.5q68 0 118.5 45.5t66.5 121.5l87 409h141l-90 -422q-19 -91 -65 -155t-114 -98.5t-154 -34.5zM464 765q-48 0 -79 30t-31 76q0 35 18.5 65.5t48.5 49t64 18.5
q49 0 80 -30t31 -76q0 -35 -18.5 -65.5t-48.5 -49t-65 -18.5zM468 822q28 0 48 20.5t20 49.5q0 24 -15 39.5t-39 15.5q-28 0 -48 -20.5t-20 -49.5q0 -24 15.5 -39.5t38.5 -15.5z" />
    <glyph glyph-name="uring" unicode="&#x16f;" horiz-adv-x="582" 
d="M205 -8q-61 0 -103.5 28.5t-59.5 77.5t-4 112l66 311h134l-63 -298q-11 -52 13.5 -83.5t74.5 -31.5q32 0 59.5 12.5t49.5 35.5l78 365h134l-111 -521h-134l8 38q-65 -46 -142 -46zM358 586q-48 0 -79 30t-31 76q0 35 18.5 65.5t48.5 49t64 18.5q49 0 80 -30t31 -76
q0 -35 -18.5 -65.5t-48.5 -49t-65 -18.5zM362 643q28 0 48 20.5t20 49.5q0 24 -15 39.5t-39 15.5q-28 0 -48 -20.5t-20 -49.5q0 -24 15.5 -39.5t38.5 -15.5z" />
    <glyph glyph-name="Uhungarumlaut" unicode="&#x170;" horiz-adv-x="710" 
d="M329 -10q-99 0 -166 42.5t-93 119t-4 176.5l79 372h142l-82 -386q-12 -57 0.5 -100t47 -66.5t86.5 -23.5q68 0 118.5 45.5t66.5 121.5l87 409h141l-90 -422q-19 -91 -65 -155t-114 -98.5t-154 -34.5zM423 916h133l-156 -127h-104zM625 916h136l-166 -127h-97z" />
    <glyph glyph-name="uhungarumlaut" unicode="&#x171;" horiz-adv-x="582" 
d="M205 -8q-61 0 -103.5 28.5t-59.5 77.5t-4 112l66 311h134l-63 -298q-11 -52 13.5 -83.5t74.5 -31.5q32 0 59.5 12.5t49.5 35.5l78 365h134l-111 -521h-134l8 38q-65 -46 -142 -46zM317 737h133l-156 -127h-104zM519 737h136l-166 -127h-97z" />
    <glyph glyph-name="Uogonek" unicode="&#x172;" horiz-adv-x="710" 
d="M307 -221q-40 0 -64 19.5t-24 53.5q0 37 25.5 72t75.5 66q-97 3 -161 46t-89 118.5t-4 173.5l79 372h142l-82 -386q-12 -57 0.5 -100t47 -66.5t86.5 -23.5q68 0 118.5 45.5t66.5 121.5l87 409h141l-90 -422q-24 -112 -88.5 -184t-159.5 -94q-48 -25 -80 -53.5t-32 -61.5
q0 -17 11.5 -26t30.5 -9q22 0 40 11l6 -61q-18 -10 -40 -15.5t-43 -5.5z" />
    <glyph glyph-name="uogonek" unicode="&#x173;" horiz-adv-x="582" 
d="M366 -221q-40 0 -64 19.5t-24 53.5q0 40 29 77t88 71h-56l8 38q-65 -46 -142 -46q-61 0 -103.5 28.5t-59.5 77.5t-4 112l66 311h134l-63 -298q-11 -52 13.5 -83.5t74.5 -31.5q32 0 59.5 12.5t49.5 35.5l78 365h134l-111 -521q-56 -30 -83.5 -58t-27.5 -57q0 -17 11 -26
t30 -9q22 0 40 11l6 -61q-18 -10 -40 -15.5t-43 -5.5z" />
    <glyph glyph-name="Wcircumflex" unicode="&#x174;" horiz-adv-x="926" 
d="M123 0l-3 700h140l-7 -473l234 473h134l34 -472l193 472h146l-300 -700h-150l-33 489l-239 -489h-149zM388 784l141 136h138l83 -136h-105l-56 74l-89 -74h-112z" />
    <glyph glyph-name="wcircumflex" unicode="&#x175;" horiz-adv-x="756" 
d="M96 0l-31 521h125l13 -336l172 336h113l30 -336l156 336h128l-251 -521h-129l-28 334l-170 -334h-128zM266 605l141 136h138l83 -136h-105l-56 74l-89 -74h-112z" />
    <glyph glyph-name="Ycircumflex" unicode="&#x176;" horiz-adv-x="691" 
d="M219 0l56 269l-188 431h151l130 -304l256 304h167l-373 -434l-57 -266h-142zM266 784l141 136h138l83 -136h-105l-56 74l-89 -74h-112z" />
    <glyph glyph-name="ycircumflex" unicode="&#x177;" horiz-adv-x="565" 
d="M22 -214q-22 0 -41.5 2.5t-37.5 7.5l24 117q10 -3 22 -4.5t27 -1.5q35 0 62.5 16t48.5 49l18 28l-90 521h143l54 -366l224 366h147l-368 -585q-50 -80 -104.5 -115t-128.5 -35zM166 605l141 136h138l83 -136h-105l-56 74l-89 -74h-112z" />
    <glyph glyph-name="Ydieresis" unicode="&#x178;" horiz-adv-x="691" 
d="M219 0l56 269l-188 431h151l130 -304l256 304h167l-373 -434l-57 -266h-142zM345 781q-27 0 -44.5 18t-17.5 46q0 33 23.5 57t56.5 24q25 0 42.5 -18t17.5 -46q0 -32 -23.5 -56.5t-54.5 -24.5zM556 781q-26 0 -44 18t-18 46q0 32 24 56.5t56 24.5q26 0 43 -18t17 -46
q0 -32 -23.5 -56.5t-54.5 -24.5z" />
    <glyph glyph-name="Zacute" unicode="&#x179;" horiz-adv-x="604" 
d="M-34 0l21 99l469 475h-365l27 126h560l-22 -99l-470 -475h374l-27 -126h-567zM323 787l117 130h154l-159 -130h-112z" />
    <glyph glyph-name="zacute" unicode="&#x17a;" horiz-adv-x="489" 
d="M-29 0l21 97l313 309h-246l24 115h427l-20 -97l-315 -309h256l-25 -115h-435zM234 608l117 130h154l-159 -130h-112z" />
    <glyph glyph-name="Zdotaccent" unicode="&#x17b;" horiz-adv-x="604" 
d="M-34 0l21 99l469 475h-365l27 126h560l-22 -99l-470 -475h374l-27 -126h-567zM394 781q-27 0 -45 18t-18 46q0 33 24 57t57 24q26 0 43.5 -18t17.5 -46q0 -32 -24 -56.5t-55 -24.5z" />
    <glyph glyph-name="zdotaccent" unicode="&#x17c;" horiz-adv-x="489" 
d="M-29 0l21 97l313 309h-246l24 115h427l-20 -97l-315 -309h256l-25 -115h-435zM305 602q-27 0 -45 18t-18 46q0 33 24 57t57 24q26 0 43.5 -18t17.5 -46q0 -32 -24 -56.5t-55 -24.5z" />
    <glyph glyph-name="Zcaron" unicode="&#x17d;" horiz-adv-x="604" 
d="M-34 0l21 99l469 475h-365l27 126h560l-22 -99l-470 -475h374l-27 -126h-567zM325 785l-83 135h105l57 -73l87 73h113l-141 -135h-138z" />
    <glyph glyph-name="zcaron" unicode="&#x17e;" horiz-adv-x="489" 
d="M-29 0l21 97l313 309h-246l24 115h427l-20 -97l-315 -309h256l-25 -115h-435zM236 606l-83 135h105l57 -73l87 73h113l-141 -135h-138z" />
    <glyph glyph-name="Scommaaccent" unicode="&#x218;" horiz-adv-x="619" 
d="M307 -10q-95 0 -177 36.5t-142 105.5l95 98q54 -60 112 -89.5t124 -29.5q40 0 70 11t46.5 32t16.5 48q0 30 -23 48.5t-78 32.5l-131 34q-77 21 -116 65.5t-39 110.5q0 67 32.5 115.5t92.5 75t143 26.5q84 0 162.5 -31.5t136.5 -87.5l-89 -102q-52 50 -107 75t-116 25
q-54 0 -86.5 -21.5t-32.5 -58.5q0 -27 21 -44.5t68 -30.5l125 -30q89 -21 133.5 -67t44.5 -114q0 -70 -35.5 -122.5t-99.5 -81.5t-151 -29zM120 -286l94 205h127l-124 -205h-97z" />
    <glyph glyph-name="scommaaccent" unicode="&#x219;" horiz-adv-x="484" 
d="M228 -11q-72 0 -138 24t-109 65l77 87q42 -36 84.5 -54t86.5 -18q41 0 66.5 16t25.5 41q0 18 -14 29t-43 18l-96 21q-64 14 -97.5 50t-33.5 91q0 53 25 90.5t71.5 58.5t109.5 21t121 -20.5t104 -59.5l-75 -83q-39 30 -79.5 45.5t-79.5 15.5q-36 0 -57 -14t-21 -38
q0 -19 14.5 -30.5t47.5 -18.5l95 -21q66 -14 101 -50t35 -89q0 -50 -29 -90t-79 -63.5t-113 -23.5zM39 -286l94 205h127l-124 -205h-97z" />
    <glyph glyph-name="uni021A" unicode="&#x21a;" horiz-adv-x="639" 
d="M193 0l122 572h-232l28 128h604l-28 -128h-230l-122 -572h-142zM88 -286l94 205h127l-124 -205h-97z" />
    <glyph glyph-name="uni021B" unicode="&#x21b;" horiz-adv-x="416" 
d="M249 -7q-88 0 -126.5 42t-21.5 120l53 252h-105l24 114h105l28 133l141 31l-35 -164h145l-24 -114h-145l-50 -229q-7 -38 8 -54.5t58 -16.5q16 0 31 2t33 6l-24 -111q-18 -4 -45 -7.5t-50 -3.5zM52 -286l94 205h127l-124 -205h-97z" />
    <glyph glyph-name="dotlessj" unicode="&#x237;" horiz-adv-x="240" 
d="M-65 -215q-19 0 -43 4t-38 9l22 104q11 -3 22.5 -4.5t28.5 -1.5q25 0 39.5 12.5t19.5 37.5l122 575h135l-126 -589q-14 -71 -62 -109t-120 -38z" />
    <glyph glyph-name="uni02BB" unicode="&#x2bb;" horiz-adv-x="250" 
d="M333 741l-123 -263h-139l161 263h101z" />
    <glyph glyph-name="uni02BC" unicode="&#x2bc;" horiz-adv-x="250" 
d="M79 478l123 263h139l-160 -263h-102z" />
    <glyph glyph-name="circumflex" unicode="&#x2c6;" 
d="M194 605l141 136h138l83 -136h-105l-56 74l-89 -74h-112z" />
    <glyph glyph-name="caron" unicode="&#x2c7;" 
d="M308 606l-83 135h105l57 -73l87 73h113l-141 -135h-138z" />
    <glyph glyph-name="breve" unicode="&#x2d8;" 
d="M384 600q-69 0 -110.5 38.5t-43.5 104.5l81 17q3 -41 22 -62t53 -21q63 0 102 76l83 -26q-28 -62 -76.5 -94.5t-110.5 -32.5z" />
    <glyph glyph-name="dotaccent" unicode="&#x2d9;" 
d="M377 602q-27 0 -45 18t-18 46q0 33 24 57t57 24q26 0 43.5 -18t17.5 -46q0 -32 -24 -56.5t-55 -24.5z" />
    <glyph glyph-name="ring" unicode="&#x2da;" 
d="M381 586q-48 0 -79 30t-31 76q0 35 18.5 65.5t48.5 49t64 18.5q49 0 80 -30t31 -76q0 -35 -18.5 -65.5t-48.5 -49t-65 -18.5zM385 643q28 0 48 20.5t20 49.5q0 24 -15 39.5t-39 15.5q-28 0 -48 -20.5t-20 -49.5q0 -24 15.5 -39.5t38.5 -15.5z" />
    <glyph glyph-name="ogonek" unicode="&#x2db;" 
d="M190 -221q-40 0 -64 19.5t-24 53.5q0 47 39 89t118 80l39 -21q-57 -30 -84.5 -58t-27.5 -57q0 -17 11 -26t30 -9q22 0 41 11l5 -61q-18 -10 -40 -15.5t-43 -5.5z" />
    <glyph glyph-name="tilde" unicode="&#x2dc;" 
d="M269 601l-78 27q50 113 122 113q31 0 57.5 -14.5t49 -29.5t41.5 -15q14 0 24.5 11.5t24.5 41.5l77 -26q-24 -58 -54 -86t-69 -28q-31 0 -57 14.5t-47.5 29.5t-42.5 15q-14 0 -25 -12.5t-23 -40.5z" />
    <glyph glyph-name="hungarumlaut" unicode="&#x2dd;" 
d="M340 737h133l-156 -127h-104zM542 737h136l-166 -127h-97z" />
    <glyph glyph-name="uni0327" unicode="&#x327;" horiz-adv-x="0" 
d="M200 -235q-39 0 -69.5 12.5t-54.5 38.5l50 46q31 -33 77 -33q25 0 40 11t15 29q0 16 -13 26t-35 10h-39l47 95h67l-24 -47q36 -7 56 -27t20 -53q0 -30 -18.5 -54.5t-49.5 -39t-69 -14.5z" />
    <glyph glyph-name="uni0328" unicode="&#x328;" horiz-adv-x="0" 
d="M190 -221q-40 0 -64 19.5t-24 53.5q0 47 39 89t118 80l39 -21q-57 -30 -84.5 -58t-27.5 -57q0 -17 11 -26t30 -9q22 0 41 11l5 -61q-18 -10 -40 -15.5t-43 -5.5z" />
    <glyph glyph-name="Wgrave" unicode="&#x1e80;" horiz-adv-x="926" 
d="M123 0l-3 700h140l-7 -473l234 473h134l34 -472l193 472h146l-300 -700h-150l-33 489l-239 -489h-149zM525 787l-131 130h153l87 -130h-109z" />
    <glyph glyph-name="wgrave" unicode="&#x1e81;" horiz-adv-x="756" 
d="M96 0l-31 521h125l13 -336l172 336h113l30 -336l156 336h128l-251 -521h-129l-28 334l-170 -334h-128zM403 608l-131 130h153l87 -130h-109z" />
    <glyph glyph-name="Wacute" unicode="&#x1e82;" horiz-adv-x="926" 
d="M123 0l-3 700h140l-7 -473l234 473h134l34 -472l193 472h146l-300 -700h-150l-33 489l-239 -489h-149zM501 787l117 130h154l-159 -130h-112z" />
    <glyph glyph-name="wacute" unicode="&#x1e83;" horiz-adv-x="756" 
d="M96 0l-31 521h125l13 -336l172 336h113l30 -336l156 336h128l-251 -521h-129l-28 334l-170 -334h-128zM379 608l117 130h154l-159 -130h-112z" />
    <glyph glyph-name="Wdieresis" unicode="&#x1e84;" horiz-adv-x="926" 
d="M123 0l-3 700h140l-7 -473l234 473h134l34 -472l193 472h146l-300 -700h-150l-33 489l-239 -489h-149zM467 781q-27 0 -44.5 18t-17.5 46q0 33 23.5 57t56.5 24q25 0 42.5 -18t17.5 -46q0 -32 -23.5 -56.5t-54.5 -24.5zM678 781q-26 0 -44 18t-18 46q0 32 24 56.5
t56 24.5q26 0 43 -18t17 -46q0 -32 -23.5 -56.5t-54.5 -24.5z" />
    <glyph glyph-name="wdieresis" unicode="&#x1e85;" horiz-adv-x="756" 
d="M96 0l-31 521h125l13 -336l172 336h113l30 -336l156 336h128l-251 -521h-129l-28 334l-170 -334h-128zM345 602q-27 0 -44.5 18t-17.5 46q0 33 23.5 57t56.5 24q25 0 42.5 -18t17.5 -46q0 -32 -23.5 -56.5t-54.5 -24.5zM556 602q-26 0 -44 18t-18 46q0 32 24 56.5
t56 24.5q26 0 43 -18t17 -46q0 -32 -23.5 -56.5t-54.5 -24.5z" />
    <glyph glyph-name="Ygrave" unicode="&#x1ef2;" horiz-adv-x="691" 
d="M219 0l56 269l-188 431h151l130 -304l256 304h167l-373 -434l-57 -266h-142zM403 787l-131 130h153l87 -130h-109z" />
    <glyph glyph-name="ygrave" unicode="&#x1ef3;" horiz-adv-x="565" 
d="M22 -214q-22 0 -41.5 2.5t-37.5 7.5l24 117q10 -3 22 -4.5t27 -1.5q35 0 62.5 16t48.5 49l18 28l-90 521h143l54 -366l224 366h147l-368 -585q-50 -80 -104.5 -115t-128.5 -35zM303 608l-131 130h153l87 -130h-109z" />
    <glyph glyph-name="enspace" unicode="&#x2002;" horiz-adv-x="500" 
 />
    <glyph glyph-name="emspace" unicode="&#x2003;" horiz-adv-x="1000" 
 />
    <glyph glyph-name="thinspace" unicode="&#x2009;" horiz-adv-x="175" 
 />
    <glyph glyph-name="hairspace" unicode="&#x200a;" horiz-adv-x="100" 
 />
    <glyph glyph-name="zerowidthspace" unicode="&#x200b;" horiz-adv-x="0" 
 />
    <glyph glyph-name="endash" unicode="&#x2013;" horiz-adv-x="547" 
d="M57 343h468l-24 -116h-468z" />
    <glyph glyph-name="emdash" unicode="&#x2014;" horiz-adv-x="694" 
d="M57 343h615l-24 -116h-615z" />
    <glyph glyph-name="uni2015" unicode="&#x2015;" horiz-adv-x="939" 
d="M57 343h860l-24 -116h-860z" />
    <glyph glyph-name="quoteleft" unicode="&#x2018;" horiz-adv-x="250" 
d="M333 741l-123 -263h-139l161 263h101z" />
    <glyph glyph-name="quoteright" unicode="&#x2019;" horiz-adv-x="250" 
d="M79 478l123 263h139l-160 -263h-102z" />
    <glyph glyph-name="quotesinglbase" unicode="&#x201a;" horiz-adv-x="250" 
d="M-82 -151l123 263h139l-160 -263h-102z" />
    <glyph glyph-name="quotedblleft" unicode="&#x201c;" horiz-adv-x="440" 
d="M332 741l-123 -263h-140l161 263h102zM524 741l-124 -263h-139l161 263h102z" />
    <glyph glyph-name="quotedblright" unicode="&#x201d;" horiz-adv-x="442" 
d="M271 478l123 263h139l-160 -263h-102zM79 478l123 263h139l-160 -263h-102z" />
    <glyph glyph-name="quotedblbase" unicode="&#x201e;" horiz-adv-x="442" 
d="M110 -151l123 263h139l-160 -263h-102zM-82 -151l123 263h139l-160 -263h-102z" />
    <glyph glyph-name="dagger" unicode="&#x2020;" horiz-adv-x="440" 
d="M112 0l88 413h-120l23 106h119l39 181h108l-39 -181h119l-23 -106h-118l-88 -413h-108z" />
    <glyph glyph-name="daggerdbl" unicode="&#x2021;" horiz-adv-x="440" 
d="M112 0l38 181h-119l22 106h119l28 126h-120l23 106h119l39 181h108l-39 -181h119l-23 -106h-118l-27 -126h118l-22 -106h-119l-38 -181h-108z" />
    <glyph glyph-name="bullet" unicode="&#x2022;" horiz-adv-x="348" 
d="M176 217q-43 0 -72.5 29t-29.5 71q0 36 17.5 65.5t47 47.5t65.5 18q43 0 72 -29t29 -73q0 -34 -18 -63.5t-47.5 -47.5t-63.5 -18z" />
    <glyph glyph-name="ellipsis" unicode="&#x2026;" horiz-adv-x="721" 
d="M76 -10q-30 0 -50.5 20.5t-20.5 50.5q0 24 12.5 44.5t33 33.5t44.5 13q31 0 50.5 -20.5t19.5 -50.5q0 -24 -12.5 -44.5t-32.5 -33.5t-44 -13zM311 -10q-30 0 -50.5 20.5t-20.5 50.5q0 24 12.5 44.5t33 33.5t44.5 13q31 0 50.5 -20.5t19.5 -50.5q0 -24 -12.5 -44.5
t-32.5 -33.5t-44 -13zM547 -10q-30 0 -50.5 20.5t-20.5 50.5q0 24 12.5 44.5t33 33.5t44.5 13q31 0 50.5 -20.5t19.5 -50.5q0 -24 -12.5 -44.5t-32.5 -33.5t-44 -13z" />
    <glyph glyph-name="perthousand" unicode="&#x2030;" horiz-adv-x="1156" 
d="M209 345q-62 0 -99 38.5t-37 102.5q0 61 25 110.5t67 79.5t94 30q63 0 99.5 -38.5t36.5 -102.5q0 -61 -25 -111t-66.5 -79.5t-94.5 -29.5zM217 418q28 0 49.5 19t34.5 51t13 71q0 35 -17 54.5t-47 19.5q-26 0 -47.5 -19t-34.5 -51t-13 -71q0 -35 16.5 -54.5t45.5 -19.5z
M98 0l536 700h98l-539 -700h-95zM579 -5q-62 0 -99 38t-37 103q0 61 25 110.5t67 79.5t94 30q63 0 99.5 -38.5t36.5 -102.5q0 -61 -25 -110.5t-66.5 -79.5t-94.5 -30zM587 68q28 0 49.5 19t34.5 51t13 71q0 35 -17 54.5t-47 19.5q-26 0 -47.5 -19t-34.5 -51t-13 -71
q0 -35 16.5 -54.5t45.5 -19.5zM932 -5q-62 0 -99 38t-37 103q0 61 25 110.5t67 79.5t94 30q63 0 99.5 -38.5t36.5 -102.5q0 -61 -25 -110.5t-66.5 -79.5t-94.5 -30zM940 68q28 0 49.5 19t34.5 51t13 71q0 35 -17 54.5t-47 19.5q-26 0 -47.5 -19t-34.5 -51t-13 -71
q0 -35 16.5 -54.5t45.5 -19.5z" />
    <glyph glyph-name="uni2032" unicode="&#x2032;" horiz-adv-x="250" 
d="M79 478l123 263h139l-160 -263h-102z" />
    <glyph glyph-name="uni2033" unicode="&#x2033;" horiz-adv-x="442" 
d="M271 478l123 263h139l-160 -263h-102zM79 478l123 263h139l-160 -263h-102z" />
    <glyph glyph-name="guilsinglleft" unicode="&#x2039;" horiz-adv-x="422" 
d="M451 521l-290 -262l177 -259h-137l-183 260l294 261h139z" />
    <glyph glyph-name="guilsinglright" unicode="&#x203a;" horiz-adv-x="431" 
d="M-20 0l290 262l-177 259h137l183 -260l-293 -261h-140z" />
    <glyph glyph-name="fraction" unicode="&#x2044;" horiz-adv-x="566" 
d="M-28 0l536 700h98l-539 -700h-95z" />
    <glyph glyph-name="uni2070" unicode="&#x2070;" horiz-adv-x="356" 
d="M209 345q-62 0 -99 38.5t-37 102.5q0 61 25 110.5t67 79.5t94 30q63 0 99.5 -38.5t36.5 -102.5q0 -61 -25 -111t-66.5 -79.5t-94.5 -29.5zM217 418q28 0 49.5 19t34.5 51t13 71q0 35 -17 54.5t-47 19.5q-26 0 -47.5 -19t-34.5 -51t-13 -71q0 -35 16.5 -54.5t45.5 -19.5z
" />
    <glyph glyph-name="uni2074" unicode="&#x2074;" horiz-adv-x="350" 
d="M232 350l17 77h-193l14 68l223 205h97l-44 -204h43l-15 -69h-42l-16 -77h-84zM164 496h100l24 115z" />
    <glyph glyph-name="uni2075" unicode="&#x2075;" horiz-adv-x="316" 
d="M190 346q-43 0 -79 15t-59 42l59 53q20 -22 39.5 -31t43.5 -9q27 0 45 14t18 34t-18 32t-46 12q-11 0 -24 -2t-24 -6l-51 21l44 179h233l-15 -71h-164l-16 -61q12 3 23 4.5t22 1.5q53 0 87 -27.5t34 -69.5q0 -37 -20 -67t-54 -47t-78 -17z" />
    <glyph glyph-name="uni2076" unicode="&#x2076;" horiz-adv-x="333" 
d="M212 345q-63 0 -100.5 38.5t-37.5 104.5q0 59 27.5 108.5t74 78.5t101.5 29q33 0 62.5 -12t49.5 -34l-57 -54q-25 28 -69 28q-35 0 -63 -28t-39 -71q18 15 41.5 24t48.5 9q45 0 74.5 -26t29.5 -68q0 -34 -19.5 -63.5t-52 -46.5t-71.5 -17zM217 416q24 0 40.5 13.5
t16.5 32.5q0 18 -13.5 29t-34.5 11q-36 0 -69 -27q3 -28 19 -43.5t41 -15.5z" />
    <glyph glyph-name="uni2077" unicode="&#x2077;" horiz-adv-x="314" 
d="M76 350l206 277h-186l16 73h284l-13 -62l-202 -288h-105z" />
    <glyph glyph-name="uni2078" unicode="&#x2078;" horiz-adv-x="330" 
d="M197 344q-60 0 -97 26t-37 68q0 32 20 57.5t51 37.5q-29 23 -29 60q0 31 19.5 56.5t52 40.5t71.5 15q54 0 88 -26t34 -66q0 -28 -17 -52t-44 -38q18 -10 27.5 -27.5t9.5 -37.5q0 -32 -20 -57.5t-53.5 -41t-75.5 -15.5zM233 558q21 0 37.5 13t16.5 31q0 15 -13.5 25
t-33.5 10q-22 0 -38 -13t-16 -31q0 -16 13.5 -25.5t33.5 -9.5zM203 414q27 0 44 12.5t17 31.5q0 17 -15.5 27.5t-39.5 10.5q-26 0 -44 -13t-18 -32q0 -16 15.5 -26.5t40.5 -10.5z" />
    <glyph glyph-name="uni2079" unicode="&#x2079;" horiz-adv-x="333" 
d="M233 704q63 0 100.5 -38t37.5 -105q0 -59 -27.5 -108.5t-73.5 -78.5t-102 -29q-33 0 -62.5 12t-49.5 34l57 54q25 -28 69 -28q35 0 63 28t39 71q-19 -15 -42.5 -24t-47.5 -9q-45 0 -74.5 26.5t-29.5 67.5q0 35 19.5 64t52 46t71.5 17zM228 633q-24 0 -40.5 -13.5
t-16.5 -32.5q0 -17 13.5 -28.5t34.5 -11.5q36 0 69 27q-2 28 -18.5 43.5t-41.5 15.5z" />
    <glyph glyph-name="uni2080" unicode="&#x2080;" horiz-adv-x="356" 
d="M135 -5q-62 0 -99 38t-37 103q0 61 25 110.5t67 79.5t94 30q63 0 99.5 -38.5t36.5 -102.5q0 -61 -25 -110.5t-66.5 -79.5t-94.5 -30zM143 68q28 0 49.5 19t34.5 51t13 71q0 35 -17 54.5t-47 19.5q-26 0 -47.5 -19t-34.5 -51t-13 -71q0 -35 16.5 -54.5t45.5 -19.5z" />
    <glyph glyph-name="uni2081" unicode="&#x2081;" horiz-adv-x="191" 
d="M33 0l57 265l-79 -29l16 72l111 42h52l-75 -350h-82z" />
    <glyph glyph-name="uni2082" unicode="&#x2082;" horiz-adv-x="301" 
d="M-28 0l12 58l162 120q25 17 36.5 33t11.5 32q0 18 -14.5 29t-38.5 11q-20 0 -41.5 -8.5t-48.5 -29.5l-33 60q33 25 68.5 37.5t68.5 12.5q55 0 89 -27t34 -69q0 -34 -19 -64t-60 -60l-88 -65h131l-14 -70h-256z" />
    <glyph glyph-name="uni2083" unicode="&#x2083;" horiz-adv-x="322" 
d="M117 -5q-48 0 -85 17.5t-56 49.5l63 48q15 -23 35 -32.5t49 -9.5q26 0 43 10.5t17 26.5q0 15 -12 23.5t-35 8.5h-33l14 68h24q27 0 45.5 12t18.5 29q0 15 -14.5 25.5t-35.5 10.5q-44 0 -85 -35l-44 56q30 25 66.5 38.5t74.5 13.5q55 0 89.5 -26t34.5 -69q0 -29 -18.5 -53
t-47.5 -38q19 -10 29.5 -25.5t10.5 -36.5q0 -31 -19.5 -56.5t-53 -40.5t-75.5 -15z" />
    <glyph glyph-name="uni2084" unicode="&#x2084;" horiz-adv-x="350" 
d="M158 0l17 77h-193l14 68l223 205h97l-44 -204h43l-15 -69h-42l-16 -77h-84zM90 146h100l24 115z" />
    <glyph glyph-name="uni2085" unicode="&#x2085;" horiz-adv-x="316" 
d="M116 -4q-43 0 -79 15t-59 42l59 53q20 -22 39.5 -31t43.5 -9q27 0 45 14t18 34t-18 32t-46 12q-11 0 -24 -2t-24 -6l-51 21l44 179h233l-15 -71h-164l-16 -61q12 3 23 4.5t22 1.5q53 0 87 -27.5t34 -69.5q0 -37 -20 -67t-54 -47t-78 -17z" />
    <glyph glyph-name="uni2086" unicode="&#x2086;" horiz-adv-x="333" 
d="M138 -5q-63 0 -100.5 38.5t-37.5 104.5q0 59 27.5 108.5t74 78.5t101.5 29q33 0 62.5 -12t49.5 -34l-57 -54q-25 28 -69 28q-35 0 -63 -28t-39 -71q18 15 41.5 24t48.5 9q45 0 74.5 -26t29.5 -68q0 -34 -19.5 -63.5t-52 -46.5t-71.5 -17zM143 66q24 0 40.5 13.5
t16.5 32.5q0 18 -13.5 29t-34.5 11q-36 0 -69 -27q3 -28 19 -43.5t41 -15.5z" />
    <glyph glyph-name="uni2087" unicode="&#x2087;" horiz-adv-x="314" 
d="M2 0l206 277h-186l16 73h284l-13 -62l-202 -288h-105z" />
    <glyph glyph-name="uni2088" unicode="&#x2088;" horiz-adv-x="330" 
d="M123 -6q-60 0 -97 26t-37 68q0 32 20 57.5t51 37.5q-29 23 -29 60q0 31 19.5 56.5t52 40.5t71.5 15q54 0 88 -26t34 -66q0 -28 -17 -52t-44 -38q18 -10 27.5 -27.5t9.5 -37.5q0 -32 -20 -57.5t-53.5 -41t-75.5 -15.5zM159 208q21 0 37.5 13t16.5 31q0 15 -13.5 25
t-33.5 10q-22 0 -38 -13t-16 -31q0 -16 13.5 -25.5t33.5 -9.5zM129 64q27 0 44 12.5t17 31.5q0 17 -15.5 27.5t-39.5 10.5q-26 0 -44 -13t-18 -32q0 -16 15.5 -26.5t40.5 -10.5z" />
    <glyph glyph-name="uni2089" unicode="&#x2089;" horiz-adv-x="333" 
d="M159 354q63 0 100.5 -38t37.5 -105q0 -59 -27.5 -108.5t-73.5 -78.5t-102 -29q-33 0 -62.5 12t-49.5 34l57 54q25 -28 69 -28q35 0 63 28t39 71q-19 -15 -42.5 -24t-47.5 -9q-45 0 -74.5 26.5t-29.5 67.5q0 35 19.5 64t52 46t71.5 17zM154 283q-24 0 -40.5 -13.5
t-16.5 -32.5q0 -17 13.5 -28.5t34.5 -11.5q36 0 69 27q-2 28 -18.5 43.5t-41.5 15.5z" />
    <glyph glyph-name="Euro" unicode="&#x20ac;" horiz-adv-x="774" 
d="M431 -10q-86 0 -152.5 32t-106.5 90.5t-48 136.5h-92l15 70h75q1 17 3.5 32t5.5 30h-71l15 71h77q30 77 86 135t130 90.5t160 32.5q98 0 168.5 -37.5t104.5 -108.5l-102 -64q-24 46 -73 72.5t-111 26.5q-49 0 -93.5 -18.5t-79 -51.5t-58.5 -77h261l-42 -71h-246
q-4 -15 -6.5 -30t-3.5 -32h222l-43 -70h-175q9 -46 34.5 -79t66 -50.5t92.5 -17.5q54 0 103 19.5t84 53.5l76 -73q-55 -55 -125.5 -83.5t-150.5 -28.5z" />
    <glyph glyph-name="trademark" unicode="&#x2122;" horiz-adv-x="675" 
d="M354 421l60 279h82l41 -148l103 148h85l-60 -279h-64l43 193l-129 -175l-53 180l-41 -198h-67zM151 421l47 220h-91l12 59h252l-12 -59h-91l-48 -220h-69z" />
    <glyph glyph-name="uni2191" unicode="&#x2191;" horiz-adv-x="615" 
d="M243 0v514l-144 -179l-80 69l289 346l287 -345l-82 -72l-142 179v-512h-128z" />
    <glyph glyph-name="uni2193" unicode="&#x2193;" horiz-adv-x="615" 
d="M371 700v-514l144 179l80 -69l-288 -346l-288 345l82 72l142 -179v512h128z" />
    <glyph glyph-name="minus" unicode="&#x2212;" 
d="M96 304l22 106h434l-22 -106h-434z" />
    <glyph glyph-name="uni2215" unicode="&#x2215;" horiz-adv-x="566" 
d="M-28 0l536 700h98l-539 -700h-95z" />
    <glyph glyph-name="notequal" unicode="&#x2260;" 
d="M54 93l93 111h-73l22 105h138l72 85h-191l22 106h256l94 112h100l-93 -112h77l-22 -106h-141l-72 -85h194l-22 -105h-259l-92 -111h-103z" />
    <glyph glyph-name="fi" unicode="&#xfb01;" horiz-adv-x="662" 
d="M76 0l86 407h-113l24 114h113l14 64q18 81 71 124t137 43q25 0 52.5 -4t44.5 -12l-23 -114q-17 6 -34 9t-36 3q-34 0 -53.5 -15t-26.5 -47l-11 -51h138l-24 -114h-138l-87 -407h-134zM420 0l110 521h134l-110 -521h-134zM618 583q-29 0 -48.5 20t-19.5 49q0 24 12 44
t31.5 31.5t42.5 11.5q29 0 48.5 -19.5t19.5 -48.5q0 -24 -12 -43.5t-31.5 -32t-42.5 -12.5z" />
    <glyph glyph-name="fl" unicode="&#xfb02;" horiz-adv-x="662" 
d="M76 0l86 407h-113l24 114h113l14 64q18 81 71 124t137 43q25 0 52.5 -4t44.5 -12l-23 -114q-17 6 -34 9t-36 3q-34 0 -53.5 -15t-26.5 -47l-11 -51h138l-24 -114h-138l-87 -407h-134zM420 0l149 700l140 30l-155 -730h-134z" />
    <glyph glyph-name="uniFEFF" unicode="&#xfeff;" horiz-adv-x="0" 
 />
    <glyph glyph-name="uniFFFD" unicode="&#xfffd;" horiz-adv-x="514" 
d="M60 -100v850h394v-850h-394z" />
    <glyph glyph-name="NULL" horiz-adv-x="201" 
 />
    <glyph glyph-name="CR" horiz-adv-x="201" 
 />
    <glyph glyph-name="idotaccent" horiz-adv-x="241" 
d="M-2 0l110 521h134l-110 -521h-134zM196 583q-29 0 -48.5 20t-19.5 49q0 24 12 44t31.5 31.5t42.5 11.5q29 0 48.5 -19.5t19.5 -48.5q0 -24 -12 -43.5t-31.5 -32t-42.5 -12.5z" />
    <glyph glyph-name="a.school" horiz-adv-x="619" 
d="M262 -7q-65 0 -117.5 31.5t-83.5 86.5t-31 123q0 61 22.5 114.5t62.5 93.5t93 63t112 23q47 0 87 -14t70 -42l11 49h133l-110 -521h-133l5 26q-57 -33 -121 -33zM298 109q32 0 59.5 10t50.5 30l44 206q-20 25 -54 40.5t-73 15.5q-45 0 -82 -22.5t-59 -59.5t-22 -83
q0 -39 17.5 -70.5t48.5 -49t70 -17.5z" />
    <glyph glyph-name="aacute.school" horiz-adv-x="619" 
d="M262 -7q-65 0 -117.5 31.5t-83.5 86.5t-31 123q0 61 22.5 114.5t62.5 93.5t93 63t112 23q47 0 87 -14t70 -42l11 49h133l-110 -521h-133l5 26q-57 -33 -121 -33zM298 109q32 0 59.5 10t50.5 30l44 206q-20 25 -54 40.5t-73 15.5q-45 0 -82 -22.5t-59 -59.5t-22 -83
q0 -39 17.5 -70.5t48.5 -49t70 -17.5zM281 608l117 130h154l-159 -130h-112z" />
    <glyph glyph-name="abreve.school" horiz-adv-x="619" 
d="M262 -7q-65 0 -117.5 31.5t-83.5 86.5t-31 123q0 61 22.5 114.5t62.5 93.5t93 63t112 23q47 0 87 -14t70 -42l11 49h133l-110 -521h-133l5 26q-57 -33 -121 -33zM298 109q32 0 59.5 10t50.5 30l44 206q-20 25 -54 40.5t-73 15.5q-45 0 -82 -22.5t-59 -59.5t-22 -83
q0 -39 17.5 -70.5t48.5 -49t70 -17.5zM359 600q-69 0 -110.5 38.5t-43.5 104.5l81 17q3 -41 22 -62t53 -21q63 0 102 76l83 -26q-28 -62 -76.5 -94.5t-110.5 -32.5z" />
    <glyph glyph-name="acircumflex.school" horiz-adv-x="619" 
d="M262 -7q-65 0 -117.5 31.5t-83.5 86.5t-31 123q0 61 22.5 114.5t62.5 93.5t93 63t112 23q47 0 87 -14t70 -42l11 49h133l-110 -521h-133l5 26q-57 -33 -121 -33zM298 109q32 0 59.5 10t50.5 30l44 206q-20 25 -54 40.5t-73 15.5q-45 0 -82 -22.5t-59 -59.5t-22 -83
q0 -39 17.5 -70.5t48.5 -49t70 -17.5zM169 605l141 136h138l83 -136h-105l-56 74l-89 -74h-112z" />
    <glyph glyph-name="adieresis.school" horiz-adv-x="619" 
d="M262 -7q-65 0 -117.5 31.5t-83.5 86.5t-31 123q0 61 22.5 114.5t62.5 93.5t93 63t112 23q47 0 87 -14t70 -42l11 49h133l-110 -521h-133l5 26q-57 -33 -121 -33zM298 109q32 0 59.5 10t50.5 30l44 206q-20 25 -54 40.5t-73 15.5q-45 0 -82 -22.5t-59 -59.5t-22 -83
q0 -39 17.5 -70.5t48.5 -49t70 -17.5zM247 602q-27 0 -44.5 18t-17.5 46q0 33 23.5 57t56.5 24q25 0 42.5 -18t17.5 -46q0 -32 -23.5 -56.5t-54.5 -24.5zM458 602q-26 0 -44 18t-18 46q0 32 24 56.5t56 24.5q26 0 43 -18t17 -46q0 -32 -23.5 -56.5t-54.5 -24.5z" />
    <glyph glyph-name="agrave.school" horiz-adv-x="619" 
d="M262 -7q-65 0 -117.5 31.5t-83.5 86.5t-31 123q0 61 22.5 114.5t62.5 93.5t93 63t112 23q47 0 87 -14t70 -42l11 49h133l-110 -521h-133l5 26q-57 -33 -121 -33zM298 109q32 0 59.5 10t50.5 30l44 206q-20 25 -54 40.5t-73 15.5q-45 0 -82 -22.5t-59 -59.5t-22 -83
q0 -39 17.5 -70.5t48.5 -49t70 -17.5zM305 608l-131 130h153l87 -130h-109z" />
    <glyph glyph-name="amacron.school" horiz-adv-x="619" 
d="M262 -7q-65 0 -117.5 31.5t-83.5 86.5t-31 123q0 61 22.5 114.5t62.5 93.5t93 63t112 23q47 0 87 -14t70 -42l11 49h133l-110 -521h-133l5 26q-57 -33 -121 -33zM298 109q32 0 59.5 10t50.5 30l44 206q-20 25 -54 40.5t-73 15.5q-45 0 -82 -22.5t-59 -59.5t-22 -83
q0 -39 17.5 -70.5t48.5 -49t70 -17.5zM198 625l19 86h310l-20 -86h-309z" />
    <glyph glyph-name="aogonek.school" horiz-adv-x="619" 
d="M403 -221q-40 0 -64 19.5t-24 53.5q0 40 29 77t88 71h-54l5 26q-57 -33 -121 -33q-65 0 -117.5 31.5t-83.5 86.5t-31 123q0 61 22.5 114.5t62.5 93.5t93 63t112 23q46 0 86.5 -14t70.5 -42l11 49h133l-110 -521q-57 -30 -84.5 -58t-27.5 -57q0 -17 11 -26t30 -9
q22 0 41 11l5 -61q-18 -10 -39.5 -15.5t-43.5 -5.5zM298 109q64 0 110 40l44 206q-20 25 -54 40.5t-73 15.5q-45 0 -82 -22.5t-59 -59.5t-22 -83q0 -39 17.5 -70.5t48.5 -49t70 -17.5z" />
    <glyph glyph-name="aring.school" horiz-adv-x="619" 
d="M262 -7q-65 0 -117.5 31.5t-83.5 86.5t-31 123q0 61 22.5 114.5t62.5 93.5t93 63t112 23q47 0 87 -14t70 -42l11 49h133l-110 -521h-133l5 26q-57 -33 -121 -33zM298 109q32 0 59.5 10t50.5 30l44 206q-20 25 -54 40.5t-73 15.5q-45 0 -82 -22.5t-59 -59.5t-22 -83
q0 -39 17.5 -70.5t48.5 -49t70 -17.5zM357 586q-48 0 -79 30t-31 76q0 35 18.5 65.5t48.5 49t64 18.5q49 0 80 -30t31 -76q0 -35 -18.5 -65.5t-48.5 -49t-65 -18.5zM361 643q28 0 48 20.5t20 49.5q0 24 -15 39.5t-39 15.5q-28 0 -48 -20.5t-20 -49.5q0 -24 15.5 -39.5
t38.5 -15.5z" />
    <glyph glyph-name="atilde.school" horiz-adv-x="619" 
d="M262 -7q-65 0 -117.5 31.5t-83.5 86.5t-31 123q0 61 22.5 114.5t62.5 93.5t93 63t112 23q47 0 87 -14t70 -42l11 49h133l-110 -521h-133l5 26q-57 -33 -121 -33zM298 109q32 0 59.5 10t50.5 30l44 206q-20 25 -54 40.5t-73 15.5q-45 0 -82 -22.5t-59 -59.5t-22 -83
q0 -39 17.5 -70.5t48.5 -49t70 -17.5zM244 601l-78 27q50 113 122 113q31 0 57.5 -14.5t49 -29.5t41.5 -15q14 0 24.5 11.5t24.5 41.5l77 -26q-24 -58 -54 -86t-69 -28q-31 0 -57 14.5t-47.5 29.5t-42.5 15q-14 0 -25 -12.5t-23 -40.5z" />
    <glyph glyph-name="g.alt" horiz-adv-x="588" 
d="M229 -215q-130 0 -206 32.5t-76 88.5q0 40 31.5 69.5t84.5 41.5q-21 22 -21 54q0 39 27 69.5t70 43.5q-33 24 -52.5 58.5t-19.5 75.5q0 59 33 106.5t89 76.5t124 29q48 0 89.5 -15t70.5 -42q29 34 62 51.5t68 17.5q12 0 21.5 -1.5t17.5 -5.5l-20 -102q-8 3 -21.5 4
t-27.5 1q-36 0 -64 -13q19 -33 19 -74q0 -58 -32.5 -105.5t-88 -75t-124.5 -27.5q-40 0 -75 10q-20 -4 -31.5 -13.5t-11.5 -24.5q0 -25 49 -31l169 -16q64 -7 99.5 -35.5t35.5 -73.5q0 -52 -36.5 -91.5t-101 -61t-151.5 -21.5zM288 240q31 0 57 14.5t42 38t16 51.5
q0 24 -12.5 43.5t-34 30.5t-48.5 11q-32 0 -58.5 -14t-42 -37.5t-15.5 -53.5q0 -24 12.5 -43t34 -30t49.5 -11zM238 -131q63 0 101 15.5t38 40.5q0 11 -10 19t-28 10l-148 14q-16 2 -30 4.5t-27 5.5q-28 -5 -45.5 -19t-17.5 -32q0 -27 44 -42.5t123 -15.5z" />
    <glyph glyph-name="gbreve.alt" horiz-adv-x="588" 
d="M229 -215q-130 0 -206 32.5t-76 88.5q0 40 31.5 69.5t84.5 41.5q-21 22 -21 54q0 39 27 69.5t70 43.5q-33 24 -52.5 58.5t-19.5 75.5q0 59 33 106.5t89 76.5t124 29q48 0 89.5 -15t70.5 -42q29 34 62 51.5t68 17.5q12 0 21.5 -1.5t17.5 -5.5l-20 -102q-8 3 -21.5 4
t-27.5 1q-36 0 -64 -13q19 -33 19 -74q0 -58 -32.5 -105.5t-88 -75t-124.5 -27.5q-40 0 -75 10q-20 -4 -31.5 -13.5t-11.5 -24.5q0 -25 49 -31l169 -16q64 -7 99.5 -35.5t35.5 -73.5q0 -52 -36.5 -91.5t-101 -61t-151.5 -21.5zM288 240q31 0 57 14.5t42 38t16 51.5
q0 24 -12.5 43.5t-34 30.5t-48.5 11q-32 0 -58.5 -14t-42 -37.5t-15.5 -53.5q0 -24 12.5 -43t34 -30t49.5 -11zM238 -131q63 0 101 15.5t38 40.5q0 11 -10 19t-28 10l-148 14q-16 2 -30 4.5t-27 5.5q-28 -5 -45.5 -19t-17.5 -32q0 -27 44 -42.5t123 -15.5zM345 600
q-69 0 -110.5 38.5t-43.5 104.5l81 17q3 -41 22 -62t53 -21q63 0 102 76l83 -26q-28 -62 -76.5 -94.5t-110.5 -32.5z" />
    <glyph glyph-name="gcircumflex.alt" horiz-adv-x="588" 
d="M229 -215q-130 0 -206 32.5t-76 88.5q0 40 31.5 69.5t84.5 41.5q-21 22 -21 54q0 39 27 69.5t70 43.5q-33 24 -52.5 58.5t-19.5 75.5q0 59 33 106.5t89 76.5t124 29q48 0 89.5 -15t70.5 -42q29 34 62 51.5t68 17.5q12 0 21.5 -1.5t17.5 -5.5l-20 -102q-8 3 -21.5 4
t-27.5 1q-36 0 -64 -13q19 -33 19 -74q0 -58 -32.5 -105.5t-88 -75t-124.5 -27.5q-40 0 -75 10q-20 -4 -31.5 -13.5t-11.5 -24.5q0 -25 49 -31l169 -16q64 -7 99.5 -35.5t35.5 -73.5q0 -52 -36.5 -91.5t-101 -61t-151.5 -21.5zM288 240q31 0 57 14.5t42 38t16 51.5
q0 24 -12.5 43.5t-34 30.5t-48.5 11q-32 0 -58.5 -14t-42 -37.5t-15.5 -53.5q0 -24 12.5 -43t34 -30t49.5 -11zM238 -131q63 0 101 15.5t38 40.5q0 11 -10 19t-28 10l-148 14q-16 2 -30 4.5t-27 5.5q-28 -5 -45.5 -19t-17.5 -32q0 -27 44 -42.5t123 -15.5zM155 605l141 136
h138l83 -136h-105l-56 74l-89 -74h-112z" />
    <glyph glyph-name="gcommaaccent.alt" horiz-adv-x="588" 
d="M508 816l-94 -204h-127l124 204h97zM229 -215q-130 0 -206 32.5t-76 88.5q0 40 31.5 69.5t84.5 41.5q-21 22 -21 54q0 39 27 69.5t70 43.5q-33 24 -52.5 58.5t-19.5 75.5q0 59 33 106.5t89 76.5t124 29q48 0 89.5 -15t70.5 -42q29 34 62 51.5t68 17.5q12 0 21.5 -1.5
t17.5 -5.5l-20 -102q-8 3 -21.5 4t-27.5 1q-36 0 -64 -13q19 -33 19 -74q0 -58 -32.5 -105.5t-88 -75t-124.5 -27.5q-40 0 -75 10q-20 -4 -31.5 -13.5t-11.5 -24.5q0 -25 49 -31l169 -16q64 -7 99.5 -35.5t35.5 -73.5q0 -52 -36.5 -91.5t-101 -61t-151.5 -21.5zM288 240
q31 0 57 14.5t42 38t16 51.5q0 24 -12.5 43.5t-34 30.5t-48.5 11q-32 0 -58.5 -14t-42 -37.5t-15.5 -53.5q0 -24 12.5 -43t34 -30t49.5 -11zM238 -131q63 0 101 15.5t38 40.5q0 11 -10 19t-28 10l-148 14q-16 2 -30 4.5t-27 5.5q-28 -5 -45.5 -19t-17.5 -32q0 -27 44 -42.5
t123 -15.5z" />
    <glyph glyph-name="gdotaccent.alt" horiz-adv-x="588" 
d="M229 -215q-130 0 -206 32.5t-76 88.5q0 40 31.5 69.5t84.5 41.5q-21 22 -21 54q0 39 27 69.5t70 43.5q-33 24 -52.5 58.5t-19.5 75.5q0 59 33 106.5t89 76.5t124 29q48 0 89.5 -15t70.5 -42q29 34 62 51.5t68 17.5q12 0 21.5 -1.5t17.5 -5.5l-20 -102q-8 3 -21.5 4
t-27.5 1q-36 0 -64 -13q19 -33 19 -74q0 -58 -32.5 -105.5t-88 -75t-124.5 -27.5q-40 0 -75 10q-20 -4 -31.5 -13.5t-11.5 -24.5q0 -25 49 -31l169 -16q64 -7 99.5 -35.5t35.5 -73.5q0 -52 -36.5 -91.5t-101 -61t-151.5 -21.5zM288 240q31 0 57 14.5t42 38t16 51.5
q0 24 -12.5 43.5t-34 30.5t-48.5 11q-32 0 -58.5 -14t-42 -37.5t-15.5 -53.5q0 -24 12.5 -43t34 -30t49.5 -11zM238 -131q63 0 101 15.5t38 40.5q0 11 -10 19t-28 10l-148 14q-16 2 -30 4.5t-27 5.5q-28 -5 -45.5 -19t-17.5 -32q0 -27 44 -42.5t123 -15.5zM338 602
q-27 0 -45 18t-18 46q0 33 24 57t57 24q26 0 43.5 -18t17.5 -46q0 -32 -24 -56.5t-55 -24.5z" />
    <glyph glyph-name="caronSlovak" 
d="M292 501l52 201l118 22l-90 -223h-80z" />
    <glyph glyph-name="commaaccent" 
d="M84 -286l94 205h127l-124 -205h-97z" />
    <glyph glyph-name="exclamdown.cap" horiz-adv-x="236" 
d="M221 492l-87 -492h-137l121 492h103zM208 711q31 0 51.5 -20t20.5 -51q0 -24 -12.5 -44.5t-33 -33t-45.5 -12.5q-29 0 -49 20.5t-20 50.5q0 24 12 44.5t32.5 33t43.5 12.5z" />
    <glyph glyph-name="questiondown.cap" horiz-adv-x="474" 
d="M371 488q-7 -47 -20.5 -80.5t-36 -57.5t-58.5 -45l-61 -37q-35 -20 -53.5 -43.5t-18.5 -47.5q0 -33 27 -52t72 -19q43 0 81 21t64 56l97 -51q-45 -65 -114 -103t-146 -38q-63 0 -111.5 21t-76 58.5t-27.5 86.5q0 60 36.5 107.5t118.5 94.5l38 22q35 19 52 43t24 64h113z
M352 711q30 0 50.5 -20.5t20.5 -50.5q0 -24 -12 -44.5t-32.5 -33.5t-45.5 -13q-30 0 -50 21t-20 50q0 25 12.5 45t32.5 33t44 13z" />
    <glyph glyph-name="periodcentered.cap" horiz-adv-x="250" 
d="M135 270q-30 0 -50.5 20.5t-20.5 49.5q0 25 12.5 45.5t33 33t44.5 12.5q31 0 50.5 -20t19.5 -51q0 -23 -12.5 -44t-32.5 -33.5t-44 -12.5z" />
    <glyph glyph-name="hyphen.cap" horiz-adv-x="458" 
d="M61 408h370l-24 -116h-370z" />
    <glyph glyph-name="endash.cap" horiz-adv-x="558" 
d="M61 408h468l-24 -116h-468z" />
    <glyph glyph-name="emdash.cap" horiz-adv-x="708" 
d="M62 408h615l-24 -116h-615z" />
    <glyph glyph-name="uni2015.cap" horiz-adv-x="958" 
d="M62 408h860l-24 -116h-860z" />
    <glyph glyph-name="at.cap" horiz-adv-x="773" 
d="M428 -13q-80 0 -147.5 26t-117.5 73.5t-77.5 111.5t-27.5 140q0 80 27.5 148.5t77.5 119.5t118 79t148 28q72 0 133.5 -23.5t107.5 -65t71.5 -96.5t25.5 -119q0 -68 -24 -120t-67 -81.5t-100 -29.5q-74 0 -103 41q-47 -41 -105 -41q-41 0 -74 21t-52 56.5t-19 78.5
q0 52 23.5 93t64 66t90.5 25q26 0 50 -9t42 -24l4 20h96l-44 -206q-5 -25 6 -38.5t36 -13.5q31 0 54.5 20t36.5 55t13 80q0 72 -35 128.5t-96 89t-138 32.5q-63 0 -117 -23.5t-94.5 -65t-63.5 -98t-23 -121.5q0 -86 38 -151.5t106 -102.5t156 -37q91 0 164 36l27 -58
q-48 -22 -94 -33t-97 -11zM391 257q36 0 64 25q-1 14 3 31l18 89q-12 17 -30 25.5t-42 8.5t-44 -12.5t-32.5 -34t-12.5 -47.5q0 -37 21.5 -61t54.5 -24z" />
    <glyph glyph-name="zero.tab" 
d="M277 -10q-67 0 -117.5 33t-78.5 94t-28 147q0 94 24.5 175t67.5 142t100 95t122 34q68 0 118 -33t78 -94t28 -147q0 -94 -24.5 -175t-67.5 -142t-100 -95t-122 -34zM185 219l238 352q-25 24 -60 24q-38 0 -71 -25.5t-58.5 -70.5t-39.5 -104.5t-14 -128.5q0 -30 5 -47z
M281 105q38 0 71 25.5t58.5 70.5t39.5 105t14 128q0 30 -5 46l-237 -352q24 -23 59 -23z" />
    <glyph glyph-name="one.tab" 
d="M30 0l24 112h177l96 445l-193 -74l25 122l246 95h82l-126 -588h181l-24 -112h-488z" />
    <glyph glyph-name="two.tab" 
d="M12 0l19 93l352 306q41 35 57.5 61.5t16.5 55.5q0 36 -28.5 57.5t-73.5 21.5q-41 0 -84 -18t-96 -57l-57 95q58 47 122.5 71t128.5 24q65 0 113.5 -22.5t75.5 -62t27 -92.5q0 -37 -11.5 -70t-37.5 -65t-69 -68l-256 -220l310 1l-24 -111h-485z" />
    <glyph glyph-name="three.tab" 
d="M276 -10q-83 0 -153.5 36.5t-111.5 98.5l96 74q38 -50 79.5 -72t93.5 -22q42 0 74 13.5t50 38t18 54.5q0 39 -28.5 62t-80.5 23h-66l23 109h67q37 0 66 13t45.5 36.5t16.5 52.5q0 38 -30 63t-82 25q-45 0 -88 -16.5t-85 -50.5l-65 91q49 43 113.5 67t132.5 24
q72 0 125 -23.5t82.5 -65t29.5 -93.5q0 -67 -43.5 -116.5t-118.5 -67.5q55 -17 84 -53.5t29 -87.5q0 -60 -36 -108.5t-97.5 -76.5t-139.5 -28z" />
    <glyph glyph-name="four.tab" 
d="M326 0l35 166h-361l22 107l437 427h143l-90 -423h81l-24 -111h-81l-35 -166h-127zM172 277h213l57 264z" />
    <glyph glyph-name="five.tab" 
d="M263 -10q-80 0 -145.5 29.5t-110.5 84.5l92 84q39 -45 80.5 -65t92.5 -20q41 0 73.5 16.5t51.5 45.5t19 65q0 49 -38 79.5t-98 30.5q-24 0 -50.5 -6.5t-56.5 -20.5l-90 36l89 351h438l-25 -112h-319l-45 -170q32 12 58 17t52 5q65 0 113.5 -24t76 -67t27.5 -100
q0 -73 -37.5 -131.5t-102.5 -93t-145 -34.5z" />
    <glyph glyph-name="six.tab" 
d="M303 -11q-75 0 -132.5 34.5t-90 98.5t-32.5 152q0 95 28.5 174.5t79 138.5t117.5 91.5t144 32.5q63 0 116.5 -21t93.5 -59l-79 -94q-33 30 -67.5 44.5t-71.5 14.5q-56 0 -104.5 -32.5t-82 -90.5t-44.5 -135q38 46 86 70.5t100 24.5q61 0 107.5 -25t73.5 -68t27 -99
q0 -53 -21.5 -99t-58.5 -80t-85.5 -53.5t-103.5 -19.5zM314 102q37 0 67 16.5t47.5 45t17.5 64.5q0 30 -15 53.5t-42 37t-62 13.5q-42 0 -81.5 -15.5t-72.5 -47.5q2 -52 19.5 -89.5t49 -57.5t72.5 -20z" />
    <glyph glyph-name="seven.tab" 
d="M56 0l432 585h-381l26 115h524l-22 -98l-418 -602h-161z" />
    <glyph glyph-name="eight.tab" 
d="M276 -11q-74 0 -130.5 24t-88 67t-31.5 97q0 46 22.5 85t61 67.5t88.5 40.5q-40 20 -62 53t-22 73q0 62 35 110.5t94 76.5t130 28q67 0 117 -23.5t78 -64t28 -91.5q0 -41 -19 -76t-53 -62t-78 -40q47 -20 76.5 -58t29.5 -86q0 -63 -37.5 -113t-99.5 -79t-139 -29z
M347 408q33 0 60 14t43.5 38.5t16.5 53.5q0 25 -12.5 46t-36.5 32.5t-57 11.5t-60.5 -14.5t-44.5 -39t-17 -54.5q0 -25 14 -45t38 -31.5t56 -11.5zM286 98q40 0 70.5 14.5t48.5 40.5t18 58q0 29 -16 51t-44 35.5t-67 13.5t-70 -15t-49.5 -40t-18.5 -57q0 -29 16 -51.5
t44.5 -36t67.5 -13.5z" />
    <glyph glyph-name="nine.tab" 
d="M336 711q75 0 132.5 -34.5t90 -98.5t32.5 -152q0 -95 -28.5 -174.5t-79 -138.5t-117.5 -91.5t-144 -32.5q-63 0 -116.5 21t-93.5 59l79 94q33 -30 67.5 -44.5t71.5 -14.5q56 0 104.5 32.5t82 90.5t44.5 135q-38 -46 -86 -70.5t-100 -24.5q-61 0 -107.5 25t-73.5 68
t-27 99q0 53 21.5 99t58.5 80t85.5 53.5t103.5 19.5zM325 598q-37 0 -67 -16.5t-47.5 -45t-17.5 -64.5q0 -30 15 -53.5t42 -37t62 -13.5q42 0 81.5 15.5t72.5 47.5q-2 52 -19.5 89.5t-49 57.5t-72.5 20z" />
    <glyph glyph-name="gravecomb" horiz-adv-x="0" 
d="M330 608l-131 130h153l87 -130h-109z" />
    <glyph glyph-name="acutecomb" horiz-adv-x="0" 
d="M306 608l117 130h154l-159 -130h-112z" />
    <glyph glyph-name="uni0302" horiz-adv-x="0" 
d="M194 605l141 136h138l83 -136h-105l-56 74l-89 -74h-112z" />
    <glyph glyph-name="tildecomb" horiz-adv-x="0" 
d="M269 601l-78 27q50 113 122 113q31 0 57.5 -14.5t49 -29.5t41.5 -15q14 0 24.5 11.5t24.5 41.5l77 -26q-24 -58 -54 -86t-69 -28q-31 0 -57 14.5t-47.5 29.5t-42.5 15q-14 0 -25 -12.5t-23 -40.5z" />
    <glyph glyph-name="uni0304" horiz-adv-x="0" 
d="M223 625l19 86h310l-20 -86h-309z" />
    <glyph glyph-name="uni0306" horiz-adv-x="0" 
d="M384 600q-69 0 -110.5 38.5t-43.5 104.5l81 17q3 -41 22 -62t53 -21q63 0 102 76l83 -26q-28 -62 -76.5 -94.5t-110.5 -32.5z" />
    <glyph glyph-name="uni0307" horiz-adv-x="0" 
d="M377 602q-27 0 -45 18t-18 46q0 33 24 57t57 24q26 0 43.5 -18t17.5 -46q0 -32 -24 -56.5t-55 -24.5z" />
    <glyph glyph-name="uni0308" horiz-adv-x="0" 
d="M272 602q-27 0 -44.5 18t-17.5 46q0 33 23.5 57t56.5 24q25 0 42.5 -18t17.5 -46q0 -32 -23.5 -56.5t-54.5 -24.5zM483 602q-26 0 -44 18t-18 46q0 32 24 56.5t56 24.5q26 0 43 -18t17 -46q0 -32 -23.5 -56.5t-54.5 -24.5z" />
    <glyph glyph-name="uni030A" horiz-adv-x="0" 
d="M381 586q-48 0 -79 30t-31 76q0 35 18.5 65.5t48.5 49t64 18.5q49 0 80 -30t31 -76q0 -35 -18.5 -65.5t-48.5 -49t-65 -18.5zM385 643q28 0 48 20.5t20 49.5q0 24 -15 39.5t-39 15.5q-28 0 -48 -20.5t-20 -49.5q0 -24 15.5 -39.5t38.5 -15.5z" />
    <glyph glyph-name="uni030B" horiz-adv-x="0" 
d="M340 737h133l-156 -127h-104zM542 737h136l-166 -127h-97z" />
    <glyph glyph-name="uni030C" horiz-adv-x="0" 
d="M308 606l-83 135h105l57 -73l87 73h113l-141 -135h-138z" />
    <glyph glyph-name="uni0326" horiz-adv-x="0" 
d="M84 -286l94 205h127l-124 -205h-97z" />
    </font>
</defs>
</svg>
