<?xml version="1.0" standalone="no"?>
<!DOCTYPE svg PUBLIC "-//W3C//DTD SVG 1.1//EN" "http://www.w3.org/Graphics/SVG/1.1/DTD/svg11.dtd" >
<svg xmlns="http://www.w3.org/2000/svg" xmlns:xlink="http://www.w3.org/1999/xlink" version="1.1">
<metadata>
Created by FontForge 20170731 at Thu Jul 28 13:14:01 2022
 By Aleksey,,,
Copyright 2021 The Red Hat Project Authors (https://github.com/RedHatOfficial/RedHatFont)
</metadata>
<defs>
<font id="RedHatDisplay-Bold" horiz-adv-x="600" >
  <font-face 
    font-family="Red Hat Display"
    font-weight="700"
    font-stretch="normal"
    units-per-em="1000"
    panose-1="2 1 3 3 4 2 1 6 3 3"
    ascent="800"
    descent="-200"
    x-height="521"
    cap-height="700"
    bbox="-72 -286 1126 1005"
    underline-thickness="100"
    underline-position="-350"
    unicode-range="U+0020-FFFD"
  />
<missing-glyph horiz-adv-x="514" 
d="M60 -100v850h394v-850h-394z" />
    <glyph glyph-name=".notdef" horiz-adv-x="514" 
d="M60 -100v850h394v-850h-394z" />
    <glyph glyph-name=".null" horiz-adv-x="0" 
 />
    <glyph glyph-name="nonmarkingreturn" horiz-adv-x="333" 
 />
    <glyph glyph-name="space" unicode=" " horiz-adv-x="201" 
 />
    <glyph glyph-name="exclam" unicode="!" horiz-adv-x="241" 
d="M68 210l-17 495h139l-17 -495h-105zM120 -10q-33 0 -57 24t-24 57q0 34 24 58t57 24q34 0 58 -24t24 -58q0 -33 -24 -57t-58 -24z" />
    <glyph glyph-name="quotedbl" unicode="&#x22;" horiz-adv-x="435" 
d="M76 425l-17 280h133l-16 -280h-100zM261 425l-17 280h133l-16 -280h-100z" />
    <glyph glyph-name="numbersign" unicode="#" horiz-adv-x="738" 
d="M70 0l56 194h-97v98h125l33 116h-108v98h136l55 194h123l-55 -194h151l56 194h122l-55 -194h97v-98h-125l-33 -116h108v-98h-136l-56 -194h-122l56 194h-152l-56 -194h-123zM277 292h151l34 116h-152z" />
    <glyph glyph-name="dollar" unicode="$" horiz-adv-x="601" 
d="M257 -66v86q-73 6 -137.5 33.5t-113.5 73.5l71 97q79 -75 180 -91v161l-54 11q-98 18 -140 60t-42 120q0 60 28.5 104t82 69t125.5 27v83h67v-86q61 -6 121 -26t111 -53l-58 -105q-47 28 -90 45t-84 24v-159l53 -9q105 -20 151.5 -61.5t46.5 -115.5q0 -59 -30.5 -103.5
t-86.5 -70.5t-134 -30v-84h-67zM257 416v156q-49 -2 -79.5 -22t-30.5 -54q0 -24 9.5 -39.5t30.5 -24.5t57 -15zM324 128q54 4 86.5 25.5t32.5 56.5q0 23 -8.5 37t-31.5 23t-65 15l-14 3v-160z" />
    <glyph glyph-name="percent" unicode="%" horiz-adv-x="793" 
d="M182 345q-73 0 -116.5 49.5t-43.5 131.5q0 80 44 130t116 50q71 0 115 -50t44 -130q0 -82 -43.5 -131.5t-115.5 -49.5zM182 418q36 0 56.5 28.5t20.5 79.5q0 49 -21 78t-56 29q-36 0 -56.5 -29t-21.5 -78q1 -51 21 -79.5t57 -28.5zM143 0l396 700h102l-396 -700h-102z
M612 -5q-73 0 -116.5 49.5t-43.5 131.5q0 80 44 130t116 50q71 0 115 -50t44 -130q0 -82 -43.5 -131.5t-115.5 -49.5zM612 68q36 0 56.5 28.5t20.5 79.5q0 49 -21 78t-56 29q-36 0 -56.5 -29t-21.5 -78q1 -51 21 -79.5t57 -28.5z" />
    <glyph glyph-name="ampersand" unicode="&#x26;" horiz-adv-x="684" 
d="M271 -11q-73 0 -128.5 25t-86.5 70.5t-31 104.5q0 42 13 75t42.5 61t79.5 57q-32 41 -45 76.5t-13 76.5q0 50 25 90t69.5 63t100.5 23q55 0 97.5 -21.5t67.5 -58.5t25 -85q0 -46 -24.5 -83.5t-74.5 -68.5l-51 -31q30 -31 64 -64.5t70 -66.5q18 33 31.5 73t23.5 85
l118 -19q-15 -66 -36 -120t-49 -96q26 -22 49.5 -40.5t50.5 -38.5l-82 -97q-23 19 -48.5 38.5t-50.5 40.5q-42 -34 -94.5 -51.5t-112.5 -17.5zM271 441l41 24q27 17 39 35.5t12 41.5q0 29 -20 48.5t-49 19.5q-30 0 -49.5 -20.5t-19.5 -52.5q0 -22 10 -43t36 -53zM281 97
q31 0 59 9t51 28q-45 41 -86.5 83t-78.5 84q-28 -16 -44.5 -31.5t-23.5 -32.5t-7 -38q0 -47 35 -74.5t95 -27.5z" />
    <glyph glyph-name="quotesingle" unicode="'" horiz-adv-x="251" 
d="M76 425l-17 280h133l-16 -280h-100z" />
    <glyph glyph-name="parenleft" unicode="(" horiz-adv-x="412" 
d="M312 -219q-125 74 -192 194t-67 273t67 273t192 193l76 -85q-101 -63 -154.5 -160.5t-53.5 -220.5q0 -124 53.5 -221.5t154.5 -159.5z" />
    <glyph glyph-name="parenright" unicode=")" horiz-adv-x="412" 
d="M100 714q125 -74 192 -194t67 -273t-67 -273t-192 -193l-76 85q101 63 154.5 160.5t53.5 220.5q0 124 -53.5 221.5t-154.5 159.5z" />
    <glyph glyph-name="asterisk" unicode="*" horiz-adv-x="475" 
d="M194 316l2 116l-105 -65l-48 75l113 66l-113 67l49 74l104 -66l-2 117h89l-2 -116l104 65l49 -74l-113 -67l113 -66l-50 -75l-103 64l2 -115h-89z" />
    <glyph glyph-name="plus" unicode="+" 
d="M247 129v176h-164v103h164v176h106v-176h164v-103h-164v-176h-106z" />
    <glyph glyph-name="comma" unicode="," horiz-adv-x="250" 
d="M3 -151l68 263h142l-107 -263h-103z" />
    <glyph glyph-name="hyphen" unicode="-" horiz-adv-x="458" 
d="M41 227v116h376v-116h-376z" />
    <glyph glyph-name="period" unicode="." horiz-adv-x="250" 
d="M125 -10q-33 0 -57 24t-24 57q0 34 24 58t57 24t57 -24t24 -58q0 -33 -24 -57t-57 -24z" />
    <glyph glyph-name="slash" unicode="/" horiz-adv-x="512" 
d="M-57 -208l407 908h132l-407 -908h-132z" />
    <glyph glyph-name="zero" unicode="0" horiz-adv-x="685" 
d="M342 -11q-91 0 -160.5 45.5t-108 127t-38.5 188.5q0 108 38.5 189t108 126.5t160.5 45.5q92 0 161.5 -45.5t108 -126.5t38.5 -189q0 -107 -38.5 -188.5t-108 -127t-161.5 -45.5zM342 108q54 0 93 29t60.5 84t21.5 129q0 75 -21.5 129.5t-60.5 83.5t-93 29q-53 0 -92 -29
t-60.5 -83.5t-21.5 -129.5q0 -74 21.5 -129t60.5 -84t92 -29z" />
    <glyph glyph-name="one" unicode="1" horiz-adv-x="349" 
d="M158 0v561l-137 -57v120l187 76h87v-700h-137z" />
    <glyph glyph-name="two" unicode="2" horiz-adv-x="573" 
d="M49 0v94l292 296q21 22 33.5 41t18 37.5t5.5 37.5q0 39 -32.5 65t-82.5 26q-48 0 -89 -19.5t-90 -66.5l-74 90q59 55 123 82.5t134 27.5q71 0 125 -25t84 -69t30 -103q0 -34 -9.5 -64t-30.5 -60.5t-56 -65.5l-212 -213l319 1v-112h-488z" />
    <glyph glyph-name="three" unicode="3" horiz-adv-x="616" 
d="M299 -11q-81 0 -150.5 28.5t-116.5 80.5l88 82q40 -43 79.5 -59.5t97.5 -16.5q42 0 73.5 12.5t49 35.5t17.5 53q0 28 -14 48t-38 31.5t-57 11.5h-88v108h76q47 0 74 24.5t27 67.5q0 28 -16 50.5t-43.5 35.5t-62.5 13q-52 0 -89.5 -18t-78.5 -64l-89 82q49 55 117.5 85.5
t144.5 30.5q73 0 129 -25.5t88 -70.5t32 -103q0 -56 -37 -99.5t-96 -60.5q70 -14 111.5 -56t41.5 -101t-35 -106t-95.5 -73.5t-139.5 -26.5z" />
    <glyph glyph-name="four" unicode="4" horiz-adv-x="673" 
d="M422 0v164h-395v110l374 426h158v-421h86v-115h-86v-164h-137zM186 279h236v267z" />
    <glyph glyph-name="five" unicode="5" horiz-adv-x="603" 
d="M285 -11q-145 0 -251 94l78 91q45 -38 87 -55t92 -17q41 0 71 15t47.5 42t17.5 63q0 51 -39.5 84t-102.5 33q-31 0 -62 -9t-64 -27l-93 28l16 369h441v-112h-326l-8 -177q37 18 70.5 24t66.5 6q71 0 123.5 -26.5t81.5 -74.5t29 -112q0 -71 -34.5 -125t-96.5 -84t-144 -30
z" />
    <glyph glyph-name="six" unicode="6" horiz-adv-x="636" 
d="M341 -11q-89 0 -156 44t-104.5 121.5t-37.5 180.5q0 113 41.5 197.5t116 131.5t174.5 47q55 0 109 -18t90 -50l-74 -94q-29 23 -62 34t-73 11q-61 0 -104 -31t-65.5 -88.5t-23.5 -140.5q35 48 84 74.5t103 26.5q69 0 122 -27.5t83 -76t30 -110.5q0 -66 -33 -118.5
t-90 -83t-130 -30.5zM337 332q-46 0 -86.5 -19t-71.5 -54q10 -48 31.5 -83.5t53.5 -54.5t71 -19q37 0 66.5 15t46.5 41.5t17 59.5q0 34 -16 59.5t-44.5 40t-67.5 14.5z" />
    <glyph glyph-name="seven" unicode="7" 
d="M105 0l314 585h-392v115h533v-98l-299 -602h-156z" />
    <glyph glyph-name="eight" unicode="8" horiz-adv-x="633" 
d="M314 -11q-78 0 -138 26.5t-94 73t-34 106.5q0 39 17.5 72.5t50 58t73.5 36.5q-53 19 -86 60t-33 92q0 56 32 100.5t87.5 70.5t124.5 26q70 0 125 -26t87 -70.5t32 -100.5q0 -51 -33 -92t-86 -60q63 -19 102 -63.5t39 -103.5q0 -60 -33.5 -106.5t-94 -73t-138.5 -26.5z
M314 408q33 0 59.5 12.5t41.5 34.5t15 50t-15 50.5t-41.5 35t-59.5 12.5t-59.5 -12.5t-41.5 -34.5t-15 -51q0 -28 15 -50t41.5 -34.5t59.5 -12.5zM314 98q40 0 70 13.5t47 38t17 54.5q0 31 -17 55t-47 38t-70 14q-39 0 -69.5 -14t-47.5 -38t-17 -55q0 -30 17 -54.5t47.5 -38
t69.5 -13.5z" />
    <glyph glyph-name="nine" unicode="9" horiz-adv-x="636" 
d="M295 711q89 0 156.5 -43.5t105 -121.5t37.5 -181q0 -112 -41.5 -197t-116.5 -132t-175 -47q-54 0 -108.5 18.5t-90.5 49.5l74 95q29 -23 62.5 -34t72.5 -11q62 0 104.5 30.5t65 89t23.5 140.5q-35 -48 -83.5 -74.5t-103.5 -26.5q-68 0 -121 27t-83 75.5t-30 110.5
q0 67 32.5 119t90 82.5t129.5 30.5zM299 368q46 0 86.5 19.5t71.5 53.5q-9 48 -31 83.5t-53.5 55t-71.5 19.5q-37 0 -66.5 -15t-46.5 -41.5t-17 -60.5q0 -33 16.5 -59t45.5 -40.5t66 -14.5z" />
    <glyph glyph-name="colon" unicode=":" horiz-adv-x="250" 
d="M125 -10q-33 0 -57 24t-24 57q0 34 24 58t57 24t57 -24t24 -58q0 -33 -24 -57t-57 -24zM125 368q-33 0 -57 24t-24 57q0 34 24 58t57 24t57 -24t24 -58q0 -33 -24 -57t-57 -24z" />
    <glyph glyph-name="semicolon" unicode=";" horiz-adv-x="250" 
d="M137 368q-33 0 -57 24t-24 57q0 34 24 58t57 24t57 -24t24 -58q0 -33 -24 -57t-57 -24zM-3 -151l68 263h142l-107 -263h-103z" />
    <glyph glyph-name="less" unicode="&#x3c;" 
d="M419 60l-343 288l345 287l69 -79l-253 -207l253 -207z" />
    <glyph glyph-name="equal" unicode="=" 
d="M83 206v103h434v-103h-434zM83 397v103h434v-103h-434z" />
    <glyph glyph-name="greater" unicode="&#x3e;" 
d="M181 636l343 -288l-345 -287l-69 79l253 207l-253 207z" />
    <glyph glyph-name="question" unicode="?" horiz-adv-x="526" 
d="M179 213q-2 46 4 78t24 57.5t49 48.5l52 37q31 23 44.5 42.5t13.5 40.5q0 23 -14 40.5t-38 28t-55 10.5q-45 0 -83 -23t-58 -62l-110 46q22 48 60 82t88.5 53t107.5 19q68 0 121 -24.5t84 -66.5t31 -96q0 -36 -11.5 -64.5t-38.5 -55.5t-74 -59l-27 -19q-32 -21 -44.5 -47
t-10.5 -66h-115zM237 -10q-33 0 -57 24t-24 57q0 34 24 58t57 24t57 -24t24 -58q0 -33 -24 -57t-57 -24z" />
    <glyph glyph-name="at" unicode="@" horiz-adv-x="787" 
d="M411 -144q-81 0 -149 26t-118 73.5t-77.5 111.5t-27.5 140q0 80 28 148.5t78 119.5t118 79t148 28q72 0 133.5 -23.5t107.5 -65t72 -96.5t26 -119q0 -68 -24.5 -120t-67.5 -81.5t-100 -29.5q-74 0 -104 41q-22 -20 -49 -30.5t-55 -10.5q-41 0 -74.5 21t-52.5 56.5
t-19 78.5q0 52 24 93t64 66t91 25q53 0 91 -32l4 19h97l-43 -206q-5 -25 6 -38.5t35 -13.5q30 0 54 20t37 55t13 80q0 72 -35.5 128t-96 89t-137.5 33q-62 0 -116.5 -23.5t-95 -65t-63 -98t-22.5 -121.5q0 -86 38 -151t105.5 -102t155.5 -37q91 0 164 35l26 -58
q-47 -22 -93.5 -33t-95.5 -11zM373 127q36 0 63 25q1 7 1.5 14t2.5 16l17 89q-12 17 -29.5 25.5t-41.5 8.5q-23 0 -43.5 -12.5t-32.5 -34t-12 -47.5q0 -37 21 -60.5t54 -23.5z" />
    <glyph glyph-name="A" unicode="A" horiz-adv-x="732" 
d="M-4 0l288 700h167l285 -700h-157l-71 184h-289l-72 -184h-151zM264 300h200l-100 258z" />
    <glyph glyph-name="B" unicode="B" horiz-adv-x="691" 
d="M63 0v700h329q71 0 124 -24t83 -67.5t30 -100.5q0 -46 -23.5 -84.5t-63.5 -62.5q51 -24 81 -65t30 -93q0 -60 -30.5 -106t-86 -71.5t-128.5 -25.5h-345zM208 414h175q47 0 74.5 22.5t27.5 60.5t-27.5 60.5t-74.5 22.5h-175v-166zM208 120h189q50 0 80 24.5t30 65.5
q0 42 -30 66.5t-80 24.5h-189v-181z" />
    <glyph glyph-name="C" unicode="C" horiz-adv-x="718" 
d="M408 -10q-78 0 -146 27.5t-118.5 76.5t-79 114.5t-28.5 141.5q0 77 28.5 142.5t79.5 114.5t118.5 76.5t145.5 27.5q58 0 112 -16t100.5 -45t79.5 -70l-98 -97q-38 47 -87.5 71t-106.5 24q-47 0 -88 -17.5t-71 -48t-47 -72t-17 -90.5q0 -48 17 -89.5t48 -72t72.5 -47.5
t90.5 -17q55 0 103 23t85 66l95 -94q-33 -40 -79 -69t-99.5 -44.5t-109.5 -15.5z" />
    <glyph glyph-name="D" unicode="D" horiz-adv-x="738" 
d="M208 129h122q47 0 87.5 16.5t71 46.5t47 70t16.5 87t-17 87.5t-47 70.5t-70.5 47t-87.5 17h-122v-442zM63 0v700h269q79 0 146 -26.5t117 -74.5t78.5 -112t28.5 -138q0 -75 -28 -138t-78.5 -110.5t-117.5 -74t-146 -26.5h-269z" />
    <glyph glyph-name="E" unicode="E" horiz-adv-x="645" 
d="M63 0v700h538v-126h-393v-160h259v-122h-259v-166h397v-126h-542z" />
    <glyph glyph-name="F" unicode="F" horiz-adv-x="639" 
d="M63 0v700h541v-126h-396v-165h263v-122h-263v-287h-145z" />
    <glyph glyph-name="G" unicode="G" horiz-adv-x="794" 
d="M407 -11q-78 0 -145 27.5t-118 77t-79.5 115t-28.5 141.5t28.5 141.5t78.5 115t117.5 77t144.5 27.5q87 0 164 -34.5t127 -96.5l-101 -93q-36 45 -85 68t-105 23q-47 0 -87 -17.5t-70 -48t-46.5 -72t-16.5 -90.5t17 -91t47.5 -72.5t71 -48t88.5 -17.5q50 0 90 18.5
t67.5 52t36.5 75.5h-207v126h362v-44q0 -78 -26.5 -143.5t-73.5 -114t-111 -75.5t-140 -27z" />
    <glyph glyph-name="H" unicode="H" horiz-adv-x="739" 
d="M63 0v700h145v-282h322v282h145v-700h-145v287h-322v-287h-145z" />
    <glyph glyph-name="I" unicode="I" horiz-adv-x="272" 
d="M63 0v700h145v-700h-145z" />
    <glyph glyph-name="J" unicode="J" horiz-adv-x="641" 
d="M300 -10q-105 0 -178 53t-105 152l134 51q22 -64 58.5 -94t90.5 -30q65 0 104.5 42t39.5 112v424h145v-428q0 -85 -36 -148.5t-101 -98.5t-152 -35z" />
    <glyph glyph-name="K" unicode="K" horiz-adv-x="697" 
d="M63 0v700h145v-313l306 313h177l-340 -333l356 -367h-194l-305 325v-325h-145z" />
    <glyph glyph-name="L" unicode="L" horiz-adv-x="628" 
d="M63 0v700h145v-572h383v-128h-528z" />
    <glyph glyph-name="M" unicode="M" horiz-adv-x="882" 
d="M63 0v700h186l192 -378l192 378h186v-700h-137v515l-243 -465l-242 467v-517h-134z" />
    <glyph glyph-name="N" unicode="N" horiz-adv-x="749" 
d="M63 0v700h138l348 -452v452h136v-700h-128l-357 468v-468h-137z" />
    <glyph glyph-name="O" unicode="O" horiz-adv-x="813" 
d="M406 -11q-78 0 -145 27.5t-117.5 77t-79 115t-28.5 141.5t28.5 141.5t79 115t117.5 77t145 27.5t145.5 -27.5t118 -77t78.5 -115t28 -141.5t-28 -141.5t-78.5 -115t-118 -77t-145.5 -27.5zM406 122q48 0 88 17.5t70 48t47 72.5t17 90q0 49 -17 90.5t-47 72t-70 48
t-88 17.5q-47 0 -87 -17.5t-70 -48t-47 -72t-17 -89.5q0 -49 17 -91t47 -72.5t70 -48t87 -17.5z" />
    <glyph glyph-name="P" unicode="P" horiz-adv-x="681" 
d="M63 0v700h351q69 0 121.5 -28t82.5 -77.5t30 -114.5q0 -62 -30 -111t-83 -77t-121 -28h-206v-264h-145zM208 384h190q47 0 75.5 26t28.5 69q0 44 -28.5 70t-75.5 26h-190v-191z" />
    <glyph glyph-name="Q" unicode="Q" horiz-adv-x="813" 
d="M613 -34l-47 58q-36 -16 -76 -25.5t-84 -9.5q-78 0 -145 27.5t-117.5 77t-79 115t-28.5 141.5t28.5 141.5t79 115t117.5 77t145 27.5t145.5 -27.5t118 -77t78.5 -115t28 -141.5q0 -75 -28.5 -140.5t-77.5 -114.5l70 -87zM406 122q20 0 37.5 3.5t33.5 10.5l-75 94l126 42
l52 -64q23 29 35.5 65t12.5 77q0 49 -17 90.5t-47 72t-70 48t-88 17.5q-47 0 -87.5 -17.5t-70 -48t-46.5 -72t-17 -90.5q0 -48 17 -90t46.5 -72.5t70 -48t87.5 -17.5z" />
    <glyph glyph-name="R" unicode="R" horiz-adv-x="679" 
d="M63 0v700h342q71 0 125.5 -27.5t85 -76.5t30.5 -113q0 -67 -37 -118t-99 -76l155 -289h-162l-137 268h-158v-268h-145zM208 387h184q49 0 78.5 26t29.5 68t-29.5 68t-78.5 26h-184v-188z" />
    <glyph glyph-name="S" unicode="S" horiz-adv-x="631" 
d="M313 -10q-85 0 -166 31.5t-144 89.5l83 104q61 -54 117.5 -78t119.5 -24q44 0 76 10.5t49.5 30.5t17.5 47q0 36 -26 55.5t-89 30.5l-139 24q-89 15 -135.5 63t-46.5 124q0 65 33.5 113t95 73.5t146.5 25.5q77 0 153.5 -26t135.5 -72l-78 -108q-110 84 -221 84
q-39 0 -68 -10t-44.5 -27.5t-15.5 -41.5q0 -32 23 -49.5t77 -26.5l132 -22q105 -17 157 -66.5t52 -130.5q0 -68 -36 -118.5t-102.5 -78t-156.5 -27.5z" />
    <glyph glyph-name="T" unicode="T" horiz-adv-x="652" 
d="M254 0v572h-236v128h616v-128h-235v-572h-145z" />
    <glyph glyph-name="U" unicode="U" horiz-adv-x="725" 
d="M362 -10q-95 0 -164.5 38t-107.5 108.5t-38 165.5v398h145v-398q0 -54 20.5 -94.5t58 -62t87.5 -21.5t87 21.5t57.5 62t20.5 94.5v398h144v-398q0 -94 -38 -164.5t-107.5 -109t-164.5 -38.5z" />
    <glyph glyph-name="V" unicode="V" horiz-adv-x="732" 
d="M280 0l-284 700h157l214 -551l219 551h150l-288 -700h-168z" />
    <glyph glyph-name="W" unicode="W" horiz-adv-x="944" 
d="M181 0l-155 700h149l95 -474l136 474h137l136 -473l95 473h144l-154 -700h-153l-138 488l-140 -488h-152z" />
    <glyph glyph-name="X" unicode="X" horiz-adv-x="700" 
d="M-3 0l267 362l-253 338h173l166 -230l165 230h167l-249 -338l270 -362h-173l-183 254l-183 -254h-167z" />
    <glyph glyph-name="Y" unicode="Y" horiz-adv-x="706" 
d="M280 0v268l-286 432h167l196 -304l197 304h158l-287 -433v-267h-145z" />
    <glyph glyph-name="Z" unicode="Z" horiz-adv-x="617" 
d="M21 0v99l386 475h-383v126h572v-99l-386 -475h390v-126h-579z" />
    <glyph glyph-name="bracketleft" unicode="[" horiz-adv-x="393" 
d="M56 -213v913h299v-107h-169v-699h169v-107h-299z" />
    <glyph glyph-name="backslash" unicode="\" horiz-adv-x="520" 
d="M439 -208l-408 908h138l408 -908h-138z" />
    <glyph glyph-name="bracketright" unicode="]" horiz-adv-x="393" 
d="M337 700v-913h-299v107h169v699h-169v107h299z" />
    <glyph glyph-name="asciicircum" unicode="^" horiz-adv-x="582" 
d="M57 350l178 350h112l178 -350h-109l-125 249l-125 -249h-109z" />
    <glyph glyph-name="underscore" unicode="_" horiz-adv-x="494" 
d="M-1 -176v96h496v-96h-496z" />
    <glyph glyph-name="grave" unicode="`" 
d="M273 608l-135 130h158l88 -130h-111z" />
    <glyph glyph-name="a" unicode="a" horiz-adv-x="555" 
d="M220 -9q-56 0 -99 20.5t-67 56.5t-24 83q0 75 56.5 116.5t155.5 41.5q68 0 128 -21v38q0 45 -28 68t-82 23q-33 0 -71 -10.5t-88 -32.5l-50 101q62 28 118.5 42t113.5 14q105 0 163.5 -50.5t58.5 -142.5v-338h-135v37q-32 -24 -69 -35t-81 -11zM160 154q0 -30 26 -47.5
t69 -17.5q34 0 63 8.5t52 25.5v76q-25 10 -52 15t-58 5q-47 0 -73.5 -17.5t-26.5 -47.5z" />
    <glyph glyph-name="b" unicode="b" horiz-adv-x="631" 
d="M54 0v700l137 23v-244q62 49 146 49q74 0 134 -36t95.5 -96.5t35.5 -135.5t-36 -135.5t-97 -96t-136 -35.5q-39 0 -76 11t-68 32v-36h-135zM315 109q43 0 77.5 20t54.5 54t20 77t-20 77.5t-54.5 54t-77.5 19.5q-38 0 -69.5 -12.5t-54.5 -37.5v-203q22 -23 54.5 -36
t69.5 -13z" />
    <glyph glyph-name="c" unicode="c" horiz-adv-x="532" 
d="M303 -10q-77 0 -139 35.5t-98 97t-36 137.5q0 77 36 138t98 97t139 36q62 0 118.5 -24t97.5 -69l-84 -89q-29 32 -60.5 47.5t-68.5 15.5q-40 0 -71.5 -20t-50 -54t-18.5 -78q0 -42 18.5 -76.5t51.5 -54t73 -19.5q35 0 65.5 14.5t58.5 43.5l82 -86q-40 -43 -96 -67.5
t-116 -24.5z" />
    <glyph glyph-name="d" unicode="d" horiz-adv-x="631" 
d="M295 -7q-74 0 -134 36t-95.5 96.5t-35.5 135.5t35.5 135.5t96.5 96t137 35.5q39 0 75 -10.5t67 -30.5v213l137 23v-723h-135v43q-64 -50 -148 -50zM317 110q38 0 69.5 12.5t54.5 37.5v203q-23 23 -55 36t-69 13q-43 0 -77.5 -19.5t-54.5 -54t-20 -77.5t20 -77t54.5 -54
t77.5 -20z" />
    <glyph glyph-name="e" unicode="e" horiz-adv-x="586" 
d="M309 -10q-78 0 -141.5 36t-100.5 97t-37 137t35.5 137t96.5 97t136 36t133 -37t91.5 -100t33.5 -143v-36h-386q9 -31 29.5 -56t51 -39t65.5 -14t64.5 11t50.5 31l90 -82q-48 -39 -98.5 -57t-113.5 -18zM168 312h253q-7 31 -25.5 54.5t-44 37t-56.5 13.5q-32 0 -58 -13
t-43.5 -36.5t-25.5 -55.5z" />
    <glyph glyph-name="f" unicode="f" horiz-adv-x="431" 
d="M134 0v407h-116v114h116v50q0 88 51 134.5t147 46.5q21 0 43 -2t38 -7v-115q-19 4 -33 6t-31 2q-39 0 -58.5 -16.5t-19.5 -51.5v-47h142v-114h-142v-407h-137z" />
    <glyph glyph-name="g" unicode="g" horiz-adv-x="627" 
d="M316 -214q-60 0 -116 12.5t-101 35.5l48 106q43 -21 84 -31t82 -10q61 0 92.5 26t31.5 78v41q-64 -47 -143 -47q-74 0 -133.5 35.5t-95 96.5t-35.5 135t35.5 134t96.5 95.5t136 35.5q38 0 74 -11t67 -31v34h135v-520q0 -103 -66.5 -159t-191.5 -56zM315 113q38 0 69 12.5
t53 35.5v204q-22 22 -53.5 34.5t-67.5 12.5q-43 0 -77 -19.5t-54 -53t-20 -75.5q0 -43 19.5 -77t54 -54t76.5 -20z" />
    <glyph glyph-name="h" unicode="h" horiz-adv-x="593" 
d="M54 0v700l137 30v-252q59 53 146 53q61 0 107.5 -26.5t72.5 -73t26 -108.5v-323h-137v303q0 51 -29 80.5t-79 29.5q-35 0 -62 -13.5t-45 -38.5v-361h-137z" />
    <glyph glyph-name="i" unicode="i" horiz-adv-x="244" 
d="M54 0v521h137v-521h-137zM122 583q-32 0 -55 23t-23 55q0 33 23 55.5t55 22.5q33 0 55.5 -22.5t22.5 -55.5q0 -32 -22.5 -55t-55.5 -23z" />
    <glyph glyph-name="j" unicode="j" horiz-adv-x="244" 
d="M122 583q-32 0 -55 23t-23 55q0 33 23 55.5t55 22.5q33 0 55.5 -22.5t22.5 -55.5q0 -32 -22.5 -55t-55.5 -23zM22 -214q-19 0 -39 2.5t-32 6.5v105q18 -4 44 -4q30 0 44.5 12.5t14.5 40.5v572h137v-580q0 -74 -44 -114.5t-125 -40.5z" />
    <glyph glyph-name="k" unicode="k" horiz-adv-x="568" 
d="M54 0v700l137 23v-421l225 219h155l-246 -239l261 -282h-175l-220 238v-238h-137z" />
    <glyph glyph-name="l" unicode="l" horiz-adv-x="244" 
d="M54 0v700l137 23v-723h-137z" />
    <glyph glyph-name="m" unicode="m" horiz-adv-x="905" 
d="M54 0v521h137v-40q56 50 136 50q51 0 91 -20.5t66 -57.5q32 38 75.5 58t96.5 20q59 0 103.5 -26.5t70 -73t25.5 -108.5v-323h-136v303q0 51 -27 80.5t-72 29.5q-31 0 -56.5 -13t-43.5 -39l2 -18t1 -20v-323h-137v303q0 51 -26.5 80.5t-71.5 29.5q-31 0 -55.5 -12
t-41.5 -36v-365h-137z" />
    <glyph glyph-name="n" unicode="n" horiz-adv-x="593" 
d="M54 0v521h137v-43q59 53 146 53q61 0 107.5 -26.5t72.5 -73t26 -108.5v-323h-137v303q0 51 -29 80.5t-79 29.5q-35 0 -62 -13.5t-45 -38.5v-361h-137z" />
    <glyph glyph-name="o" unicode="o" horiz-adv-x="616" 
d="M308 -10q-78 0 -141 36t-100 97t-37 137t36.5 137.5t100 97.5t141.5 36t141.5 -36t100 -97.5t36.5 -137.5t-36.5 -137t-99.5 -97t-142 -36zM308 109q41 0 73.5 20t52 54.5t19.5 76.5q0 43 -19.5 77t-52 54.5t-73.5 20.5q-40 0 -73 -20.5t-52 -54.5t-19 -77
q0 -42 19 -76.5t52 -54.5t73 -20z" />
    <glyph glyph-name="p" unicode="p" horiz-adv-x="631" 
d="M54 -204v725h135v-43q64 50 148 50q74 0 134 -36t95.5 -96.5t35.5 -135.5t-36 -135.5t-97 -96t-136 -35.5q-39 0 -75 10.5t-67 30.5v-238h-137zM315 109q43 0 77.5 20t54.5 54t20 77t-20 77.5t-54.5 54t-77.5 19.5q-38 0 -69.5 -12.5t-54.5 -37.5v-203q22 -23 54.5 -36
t69.5 -13z" />
    <glyph glyph-name="q" unicode="q" horiz-adv-x="631" 
d="M441 -204v245q-63 -48 -146 -48q-74 0 -134 36t-95.5 96.5t-35.5 135.5t35.5 135.5t96.5 96t137 35.5q40 0 76.5 -11t67.5 -31v35h135v-725h-137zM317 110q38 0 69.5 12.5t54.5 37.5v203q-23 23 -55 36t-69 13q-43 0 -77.5 -19.5t-54.5 -54t-20 -77.5t20 -77t54.5 -54
t77.5 -20z" />
    <glyph glyph-name="r" unicode="r" horiz-adv-x="408" 
d="M54 0v521h137v-58q25 34 60 52t79 18q38 -1 57 -12v-120q-15 7 -33 10.5t-37 3.5q-40 0 -73 -20t-53 -57v-338h-137z" />
    <glyph glyph-name="s" unicode="s" horiz-adv-x="491" 
d="M249 -10q-72 0 -133 18.5t-106 53.5l68 91q45 -30 86.5 -45t82.5 -15q46 0 73.5 15.5t27.5 40.5q0 20 -15.5 32t-49.5 17l-100 15q-78 12 -118 50.5t-40 101.5q0 51 26.5 87.5t75 57t115.5 20.5q57 0 111.5 -16t102.5 -49l-66 -89q-43 27 -82 39t-79 12q-37 0 -59.5 -14
t-22.5 -37q0 -21 16 -33t55 -17l99 -15q78 -11 119 -49.5t41 -99.5q0 -50 -30 -88.5t-81 -61t-117 -22.5z" />
    <glyph glyph-name="t" unicode="t" horiz-adv-x="424" 
d="M301 -8q-87 0 -131.5 39.5t-44.5 115.5v260h-107v114h107v133l137 31v-164h149v-114h-149v-232q0 -36 16 -51.5t56 -15.5q20 0 36.5 2.5t36.5 9.5v-113q-21 -7 -52.5 -11t-53.5 -4z" />
    <glyph glyph-name="u" unicode="u" horiz-adv-x="593" 
d="M256 -10q-60 0 -106.5 26.5t-73 73.5t-26.5 108v323h137v-303q0 -50 29.5 -80t79.5 -30q34 0 61.5 13.5t45.5 38.5v361h137v-521h-137v42q-60 -52 -147 -52z" />
    <glyph glyph-name="v" unicode="v" horiz-adv-x="580" 
d="M223 0l-223 521h149l143 -347l142 347h146l-224 -521h-133z" />
    <glyph glyph-name="w" unicode="w" horiz-adv-x="772" 
d="M153 0l-143 521h130l86 -336l104 336h115l103 -337l86 337h128l-144 -521h-131l-101 333l-101 -333h-132z" />
    <glyph glyph-name="x" unicode="x" horiz-adv-x="555" 
d="M-2 0l200 265l-195 256h159l115 -155l114 155h154l-192 -254l204 -267h-160l-123 166l-123 -166h-153z" />
    <glyph glyph-name="y" unicode="y" horiz-adv-x="577" 
d="M105 -215q-18 0 -34.5 1.5t-27.5 3.5v118q20 -4 48 -4q75 0 104 71l8 20l-203 526h151l130 -355l147 355h148l-240 -563q-27 -63 -59 -101t-73.5 -55t-98.5 -17z" />
    <glyph glyph-name="z" unicode="z" horiz-adv-x="499" 
d="M27 0v97l262 309h-260v115h435v-97l-262 -309h269v-115h-444z" />
    <glyph glyph-name="braceleft" unicode="{" horiz-adv-x="429" 
d="M290 -218q-67 0 -110 27t-56 74t8 107l34 91q18 49 -0.5 81.5t-66.5 32.5h-83v102h83q48 0 66.5 32.5t0.5 81.5l-34 91q-21 60 -8 107t56 74t110 27q26 0 50 -4t49 -13l-20 -98q-15 5 -30.5 8t-32.5 3q-39 -1 -54 -29t0 -70l37 -100q20 -57 -8 -102t-90 -59
q62 -14 90 -59t8 -102l-37 -100q-15 -42 0 -70t54 -29q17 0 32.5 3t30.5 8l20 -98q-25 -9 -49 -13t-50 -4z" />
    <glyph glyph-name="bar" unicode="|" horiz-adv-x="333" 
d="M105 -208v908h123v-908h-123z" />
    <glyph glyph-name="braceright" unicode="}" horiz-adv-x="429" 
d="M139 711q67 0 110 -27t56 -74t-8 -107l-34 -91q-18 -49 0.5 -81.5t66.5 -32.5h83v-102h-83q-48 0 -66.5 -32.5t-0.5 -81.5l34 -91q21 -60 8 -107t-56 -74t-110 -27q-26 0 -50 4t-49 13l20 98q15 -5 30.5 -8t32.5 -3q39 1 54 29t0 70l-37 100q-20 57 8 102t90 59
q-62 14 -90 59t-8 102l37 100q15 42 0 70t-54 29q-17 0 -32.5 -3t-30.5 -8l-20 98q25 9 49 13t50 4z" />
    <glyph glyph-name="asciitilde" unicode="~" horiz-adv-x="594" 
d="M123 285l-92 11q9 82 45.5 126t94.5 44q22 0 45.5 -6t47.5 -19l85 -42q21 -10 35 -14.5t24 -4.5q53 0 63 79l92 -11q-9 -82 -46 -126t-95 -44q-21 0 -45 6t-48 19l-85 42q-23 11 -35.5 15t-23.5 4q-54 0 -62 -79z" />
    <glyph glyph-name="uni00A0" unicode="&#xa0;" horiz-adv-x="201" 
 />
    <glyph glyph-name="exclamdown" unicode="&#xa1;" horiz-adv-x="241" 
d="M173 287l17 -495h-139l17 495h105zM121 507q33 0 57 -24t24 -57q0 -34 -24 -58t-57 -24q-34 0 -58 24t-24 58q0 33 24 57t58 24z" />
    <glyph glyph-name="cent" unicode="&#xa2;" horiz-adv-x="532" 
d="M272 -112v104q-68 7 -123.5 44t-87 95.5t-31.5 128.5q0 72 31.5 130t87 95t123.5 45v90h62v-91q54 -6 102 -29t83 -62l-84 -89q-23 26 -48 41t-53 19v-297q27 4 52 18.5t47 37.5l82 -86q-35 -37 -82 -60.5t-99 -29.5v-104h-62zM166 260q0 -36 13.5 -66.5t37.5 -50.5
t55 -28v292q-31 -7 -55 -28.5t-37.5 -51.5t-13.5 -67z" />
    <glyph glyph-name="sterling" unicode="&#xa3;" horiz-adv-x="648" 
d="M471 -26q-17 0 -35 2.5t-38 6.5l-178 43q-10 2 -20 3t-18 1q-30 0 -51 -15.5t-38 -50.5l-103 65q28 51 64.5 78t83.5 32q18 16 18 43q0 2 -0.5 6t-2.5 13.5t-5.5 29.5t-10.5 55h-97v89h80q-6 31 -9 50.5t-4 32.5t-1 22q0 70 29.5 121.5t84 80t128.5 28.5q99 0 163 -45.5
t90 -136.5l-113 -36q-17 52 -50 79t-85 27q-58 0 -89 -31.5t-31 -86.5q0 -7 1 -17t5 -30t10 -58h189v-89h-170q3 -20 5 -33.5t3.5 -21.5t2 -13.5t0.5 -9.5q0 -51 -29 -80l164 -39q11 -3 21 -4t19 -1q56 0 86 59l100 -60q-60 -109 -169 -109z" />
    <glyph glyph-name="uni00A4" unicode="&#xa4;" horiz-adv-x="686" 
d="M94 45l-67 66l95 96q-23 32 -36.5 72t-13.5 84q0 45 13.5 84.5t36.5 71.5l-95 98l66 66l98 -98q32 22 71 33.5t81 11.5q43 0 82 -12t71 -34l98 98l65 -65l-96 -97q24 -32 37.5 -72t13.5 -85q0 -44 -13.5 -84.5t-37.5 -72.5l97 -96l-65 -66l-99 98q-32 -22 -71 -34
t-82 -12q-42 0 -81.5 12t-71.5 34zM343 211q40 0 73 20.5t52.5 55t19.5 76.5q0 43 -19.5 77t-52.5 54.5t-73 20.5t-72.5 -20.5t-52 -54.5t-19.5 -77q0 -42 19.5 -76.5t52 -55t72.5 -20.5z" />
    <glyph glyph-name="yen" unicode="&#xa5;" horiz-adv-x="710" 
d="M286 0v131h-180v73h180v60h-180v73h139l-243 363h167l194 -304l187 304h159l-236 -363h131v-73h-173v-60h173v-73h-173v-131h-145z" />
    <glyph glyph-name="uni00A6" unicode="&#xa6;" horiz-adv-x="337" 
d="M105 288v412h127v-412h-127zM105 -208v412h127v-412h-127z" />
    <glyph glyph-name="section" unicode="&#xa7;" horiz-adv-x="579" 
d="M279 -54q-53 0 -104 14.5t-97 41.5l53 82q85 -50 150 -49q34 0 54 15t20 40q0 20 -13.5 33.5t-45.5 24.5l-106 35q-84 28 -118 61.5t-34 90.5q0 46 26 80.5t70 51.5q-34 34 -34 87q0 71 55 113.5t146 42.5q51 0 102 -14.5t98 -41.5l-52 -82q-84 49 -150 49
q-35 0 -55 -14.5t-20 -41.5q0 -19 14 -32.5t46 -24.5l104 -35q85 -28 119 -61.5t34 -91.5q0 -46 -25.5 -80.5t-70.5 -52.5q33 -33 33 -87q0 -69 -54.5 -111.5t-144.5 -42.5zM357 239q32 5 51 22t19 44q0 23 -16 39.5t-53 28.5l-118 37q-5 2 -9 3.5t-9 2.5
q-33 -4 -51.5 -21.5t-18.5 -44.5q0 -23 16 -38.5t52 -28.5l119 -38q4 -1 9 -2.5t9 -3.5z" />
    <glyph glyph-name="dieresis" unicode="&#xa8;" 
d="M188 605q-30 0 -51 20t-21 52q0 31 21 51.5t51 20.5q31 0 51.5 -20.5t20.5 -51.5q0 -32 -20.5 -52t-51.5 -20zM412 605q-30 0 -51 20t-21 52q0 31 21 51.5t51 20.5q31 0 51.5 -20.5t20.5 -51.5q0 -32 -20.5 -52t-51.5 -20z" />
    <glyph glyph-name="copyright" unicode="&#xa9;" horiz-adv-x="789" 
d="M402 161q-55 0 -99 25.5t-69.5 68.5t-25.5 96q0 54 25.5 97t69.5 68t99 25q45 0 85.5 -17.5t68.5 -49.5l-67 -69q-19 23 -39.5 32.5t-44.5 9.5q-25 0 -45 -12.5t-32 -34t-12 -49.5q0 -27 12 -48.5t32.5 -34t45.5 -12.5q24 0 44 10t37 30l66 -68q-29 -32 -68.5 -49.5
t-82.5 -17.5zM394 -11q-75 0 -140 27.5t-114 77t-76.5 115t-27.5 141.5t27.5 141.5t76.5 115t114 77t140 27.5t140.5 -27.5t114 -77t76 -115t27.5 -141.5t-27.5 -141.5t-76 -115t-113.5 -77t-141 -27.5zM394 55q60 0 112.5 22.5t92 63.5t62 94.5t22.5 114.5t-22.5 114.5
t-62 94.5t-92 63.5t-112.5 22.5t-112 -22.5t-91.5 -63.5t-61.5 -94.5t-22 -114.5t22.5 -114.5t61.5 -94.5t91 -63.5t112 -22.5z" />
    <glyph glyph-name="ordfeminine" unicode="&#xaa;" horiz-adv-x="438" 
d="M172 304q-63 0 -103 33.5t-40 87.5q0 55 42.5 86.5t118.5 31.5q25 0 48 -3.5t46 -10.5v26q0 65 -81 65q-23 0 -52 -7.5t-67 -23.5l-39 80q47 21 90.5 31.5t86.5 10.5q80 0 124 -38.5t44 -108.5v-253h-106v26q-48 -33 -112 -33zM201 381q24 0 45 6t38 18v54
q-19 8 -38.5 11t-41.5 3q-34 0 -53 -12.5t-19 -33.5t18.5 -33.5t50.5 -12.5z" />
    <glyph glyph-name="guillemotleft" unicode="&#xab;" horiz-adv-x="679" 
d="M261 0l-242 261l242 260h140l-236 -259l239 -262h-143zM508 0l-242 261l242 260h140l-236 -259l239 -262h-143z" />
    <glyph glyph-name="uni00AC" unicode="&#xac;" horiz-adv-x="594" 
d="M431 0v240h-372v103h478v-343h-106z" />
    <glyph glyph-name="uni00AD" unicode="&#xad;" horiz-adv-x="466" 
d="M41 227v116h376v-116h-376z" />
    <glyph glyph-name="registered" unicode="&#xae;" horiz-adv-x="487" 
d="M243 306q-56 0 -102.5 27.5t-74 74.5t-27.5 105t27.5 104.5t74 74t102.5 27.5q58 0 104 -27.5t73.5 -74.5t27.5 -104q0 -58 -27.5 -105t-73.5 -74.5t-104 -27.5zM243 351q46 0 81 20.5t55.5 57.5t20.5 84t-20.5 83.5t-55.5 57.5t-81 21q-45 0 -80.5 -21t-55.5 -57.5
t-20 -83.5t20 -83.5t55.5 -57.5t80.5 -21zM171 420v188h85q30 0 47 -16t17 -43q0 -17 -8.5 -31t-24.5 -22l44 -76h-52l-35 66h-26v-66h-47zM247 571h-29v-51h28q27 0 27 26q0 12 -6.5 18.5t-19.5 6.5z" />
    <glyph glyph-name="macron" unicode="&#xaf;" 
d="M140 625v86h320v-86h-320z" />
    <glyph glyph-name="degree" unicode="&#xb0;" horiz-adv-x="403" 
d="M201 414q-42 0 -77 20.5t-54.5 54.5t-19.5 74t19.5 74t54.5 54t77 20q44 0 78 -20t54 -54t20 -74t-20 -74t-54 -54.5t-78 -20.5zM201 486q33 0 55.5 23t22.5 54q0 32 -22.5 54t-55.5 22q-32 0 -55 -22t-23 -54q0 -31 23 -54t55 -23z" />
    <glyph glyph-name="plusminus" unicode="&#xb1;" 
d="M83 -1v102h434v-102h-434zM248 199v158h-165v102h165v157h104v-157h165v-102h-165v-158h-104z" />
    <glyph glyph-name="twosuperior" unicode="&#xb2;" horiz-adv-x="307" 
d="M27 350v60l141 121q17 16 26 29.5t9 27.5q0 20 -15.5 32.5t-39.5 12.5q-25 0 -46 -10t-47 -33l-47 56q32 28 68.5 43t74.5 16q59 -1 96.5 -31.5t37.5 -80.5q0 -30 -15.5 -56t-49.5 -55l-70 -62h138v-70h-261z" />
    <glyph glyph-name="threesuperior" unicode="&#xb3;" horiz-adv-x="329" 
d="M159 345q-43 0 -81.5 15t-62.5 42l57 52q21 -21 39 -29t47 -8t45.5 11t16.5 28q0 14 -14.5 22.5t-40.5 8.5h-33v67h24q25 0 40 11.5t15 29.5q0 17 -15 27t-38 10q-26 0 -43.5 -8.5t-39.5 -31.5l-57 52q26 28 64 45t79 17q60 0 98 -28t37 -73q1 -25 -12 -46t-36 -35
q27 -10 42.5 -29.5t15.5 -45.5q0 -46 -41.5 -75t-105.5 -29z" />
    <glyph glyph-name="acute" unicode="&#xb4;" 
d="M219 608l90 130h156l-135 -130h-111z" />
    <glyph glyph-name="uni00B5" unicode="&#xb5;" horiz-adv-x="615" 
d="M63 -204v725h137v-311q0 -49 29 -79t78 -30q35 0 62 15.5t46 46.5v358h137v-521h-137v85q-29 -45 -67 -69.5t-87 -24.5q-17 0 -32.5 3.5t-28.5 10.5v-209h-137z" />
    <glyph glyph-name="paragraph" unicode="&#xb6;" horiz-adv-x="700" 
d="M314 0v253h-38q-73 0 -129.5 28t-88 77.5t-31.5 114.5q0 69 31.5 120t87.5 79t130 28h360v-700h-114v253h-96v-253h-112zM426 361h96v228h-96v-228zM271 361h43v228h-43q-55 0 -88.5 -31t-33.5 -82q0 -52 33.5 -83.5t88.5 -31.5z" />
    <glyph glyph-name="periodcentered" unicode="&#xb7;" horiz-adv-x="250" 
d="M125 205q-33 0 -57 23.5t-24 57.5q0 33 24 57t57 24t57 -24t24 -57q0 -34 -24 -57.5t-57 -23.5z" />
    <glyph glyph-name="cedilla" unicode="&#xb8;" 
d="M305 -236q-75 0 -125 45l45 48q37 -29 78 -29q26 0 40.5 10.5t14.5 27.5t-15 27t-40 10h-42l28 97h67l-14 -46q44 -3 69.5 -27t25.5 -62q0 -43 -38 -72t-94 -29z" />
    <glyph glyph-name="onesuperior" unicode="&#xb9;" horiz-adv-x="195" 
d="M89 350v265l-73 -29v72l105 42h53v-350h-85z" />
    <glyph glyph-name="ordmasculine" unicode="&#xba;" horiz-adv-x="483" 
d="M241 301q-58 0 -106 27.5t-76 74t-28 103.5q0 58 28 104.5t76 73.5t107 27q58 0 105.5 -27t76 -73.5t28.5 -104.5q0 -57 -28.5 -103.5t-76 -74t-106.5 -27.5zM241 396q29 0 53 14.5t37.5 39.5t13.5 56q0 32 -13.5 56.5t-37.5 39.5t-53 15t-52.5 -15t-37.5 -40t-14 -56
t14 -56t37.5 -39.5t52.5 -14.5z" />
    <glyph glyph-name="guillemotright" unicode="&#xbb;" horiz-adv-x="679" 
d="M418 521l242 -261l-242 -260h-140l236 259l-239 262h143zM170 521l242 -261l-242 -260h-140l236 259l-239 262h143z" />
    <glyph glyph-name="onequarter" unicode="&#xbc;" horiz-adv-x="665" 
d="M527 0v77h-197v68l183 205h98v-204h44v-69h-44v-77h-84zM425 146h102v113zM89 350v265l-73 -29v72l105 42h53v-350h-85zM53 0l396 700h102l-396 -700h-102z" />
    <glyph glyph-name="onehalf" unicode="&#xbd;" horiz-adv-x="693" 
d="M89 350v265l-73 -29v72l105 42h53v-350h-85zM53 0l396 700h102l-396 -700h-102zM413 0v60l141 121q17 16 26 29.5t9 27.5q0 20 -15.5 32.5t-39.5 12.5q-25 0 -46 -10t-47 -33l-47 56q32 28 68.5 43t74.5 16q59 -1 96.5 -31.5t37.5 -80.5q0 -30 -15.5 -56t-49.5 -55
l-70 -62h138v-70h-261z" />
    <glyph glyph-name="threequarters" unicode="&#xbe;" horiz-adv-x="759" 
d="M620 0v77h-197v68l183 205h98v-204h44v-69h-44v-77h-84zM518 146h102v113zM159 345q-43 0 -81.5 15t-62.5 42l57 52q21 -21 39 -29t47 -8t45.5 11t16.5 28q0 14 -14.5 22.5t-40.5 8.5h-33v67h24q25 0 40 11.5t15 29.5q0 17 -15 27t-38 10q-26 0 -43.5 -8.5t-39.5 -31.5
l-57 52q26 28 64 45t79 17q60 0 98 -28t37 -73q1 -25 -12 -46t-36 -35q27 -10 42.5 -29.5t15.5 -45.5q0 -46 -41.5 -75t-105.5 -29zM146 0l396 700h102l-396 -700h-102z" />
    <glyph glyph-name="questiondown" unicode="&#xbf;" horiz-adv-x="526" 
d="M338 284q2 -46 -4 -78t-24 -57.5t-49 -48.5l-52 -37q-31 -23 -44.5 -42.5t-13.5 -40.5q0 -23 14 -40.5t38 -28t55 -10.5q45 0 83 23t58 62l110 -46q-22 -48 -60 -82t-88.5 -53t-107.5 -19q-68 0 -121 24.5t-84 66.5t-31 96q0 36 11.5 64.5t38.5 55.5t74 59l27 19
q32 21 44.5 47t10.5 66h115zM280 507q33 0 57 -24t24 -57q0 -34 -24 -58t-57 -24t-57 24t-24 58q0 33 24 57t57 24z" />
    <glyph glyph-name="Agrave" unicode="&#xc0;" horiz-adv-x="732" 
d="M-4 0l288 700h167l285 -700h-157l-71 184h-289l-72 -184h-151zM264 300h200l-100 258zM325 787l-135 130h158l88 -130h-111z" />
    <glyph glyph-name="Aacute" unicode="&#xc1;" horiz-adv-x="732" 
d="M-4 0l288 700h167l285 -700h-157l-71 184h-289l-72 -184h-151zM264 300h200l-100 258zM285 787l90 130h156l-135 -130h-111z" />
    <glyph glyph-name="Acircumflex" unicode="&#xc2;" horiz-adv-x="732" 
d="M-4 0l288 700h167l285 -700h-157l-71 184h-289l-72 -184h-151zM264 300h200l-100 258zM438 784l-74 74l-73 -74h-110l115 136h140l115 -136h-113z" />
    <glyph glyph-name="Atilde" unicode="&#xc3;" horiz-adv-x="732" 
d="M-4 0l288 700h167l285 -700h-157l-71 184h-289l-72 -184h-151zM264 300h200l-100 258zM256 776l-84 18q27 121 114 121q28 0 54.5 -12.5t50.5 -25t42 -12.5q17 0 27 12t17 42l82 -18q-12 -62 -40.5 -92t-72.5 -30q-27 0 -53.5 12.5t-50.5 25t-44 12.5q-16 0 -26 -12
t-16 -41z" />
    <glyph glyph-name="Adieresis" unicode="&#xc4;" horiz-adv-x="732" 
d="M-4 0l288 700h167l285 -700h-157l-71 184h-289l-72 -184h-151zM264 300h200l-100 258zM254 784q-30 0 -51 20t-21 52q0 31 21 51.5t51 20.5q31 0 51.5 -20.5t20.5 -51.5q0 -32 -20.5 -52t-51.5 -20zM478 784q-30 0 -51 20t-21 52q0 31 21 51.5t51 20.5q31 0 51.5 -20.5
t20.5 -51.5q0 -32 -20.5 -52t-51.5 -20z" />
    <glyph glyph-name="Aring" unicode="&#xc5;" horiz-adv-x="732" 
d="M-4 0l288 700h167l285 -700h-157l-71 184h-289l-72 -184h-151zM264 300h200l-100 258zM366 764q-34 0 -62 16.5t-44.5 44t-16.5 60.5q0 32 16.5 59.5t44.5 44t62 16.5t62 -16.5t44.5 -44t16.5 -59.5q0 -33 -16.5 -60.5t-44.5 -44t-62 -16.5zM366 822q26 0 44.5 18
t18.5 44q0 27 -18.5 45t-44.5 18t-44.5 -18t-18.5 -45q0 -26 18.5 -44t44.5 -18z" />
    <glyph glyph-name="AE" unicode="&#xc6;" horiz-adv-x="982" 
d="M-4 0l288 700h658v-126h-437l62 -160h247v-122h-200l65 -166h263v-126h-363l-71 184h-289l-72 -184h-151zM264 300h200l-99 258z" />
    <glyph glyph-name="Ccedilla" unicode="&#xc7;" horiz-adv-x="718" 
d="M389 -236q-74 0 -125 45l45 48q38 -29 78 -29q27 0 41 10.5t14 27.5t-14.5 27t-40.5 10h-42l26 88q-72 7 -133 36.5t-106.5 78t-70.5 110.5t-25 134q0 77 28.5 142.5t79.5 114.5t118.5 76.5t145.5 27.5q58 0 112 -16t100.5 -45t79.5 -70l-98 -97q-38 47 -87.5 71
t-106.5 24q-47 0 -88 -17.5t-71 -48t-47 -72t-17 -90.5q0 -48 17 -89.5t48 -72t72.5 -47.5t90.5 -17q55 0 103 23t85 66l95 -94q-46 -54 -114.5 -88t-144.5 -40l-10 -37q44 -3 69.5 -27t25.5 -62q0 -43 -38 -72t-95 -29z" />
    <glyph glyph-name="Egrave" unicode="&#xc8;" horiz-adv-x="645" 
d="M63 0v700h538v-126h-393v-160h259v-122h-259v-166h397v-126h-542zM303 787l-135 130h158l88 -130h-111z" />
    <glyph glyph-name="Eacute" unicode="&#xc9;" horiz-adv-x="645" 
d="M63 0v700h538v-126h-393v-160h259v-122h-259v-166h397v-126h-542zM263 787l90 130h156l-135 -130h-111z" />
    <glyph glyph-name="Ecircumflex" unicode="&#xca;" horiz-adv-x="645" 
d="M63 0v700h538v-126h-393v-160h259v-122h-259v-166h397v-126h-542zM416 784l-74 74l-73 -74h-110l115 136h140l115 -136h-113z" />
    <glyph glyph-name="Edieresis" unicode="&#xcb;" horiz-adv-x="645" 
d="M63 0v700h538v-126h-393v-160h259v-122h-259v-166h397v-126h-542zM232 784q-30 0 -51 20t-21 52q0 31 21 51.5t51 20.5q31 0 51.5 -20.5t20.5 -51.5q0 -32 -20.5 -52t-51.5 -20zM456 784q-30 0 -51 20t-21 52q0 31 21 51.5t51 20.5q31 0 51.5 -20.5t20.5 -51.5
q0 -32 -20.5 -52t-51.5 -20z" />
    <glyph glyph-name="Igrave" unicode="&#xcc;" horiz-adv-x="272" 
d="M63 0v700h145v-700h-145zM95 787l-135 130h158l88 -130h-111z" />
    <glyph glyph-name="Iacute" unicode="&#xcd;" horiz-adv-x="272" 
d="M63 0v700h145v-700h-145zM55 787l90 130h156l-135 -130h-111z" />
    <glyph glyph-name="Icircumflex" unicode="&#xce;" horiz-adv-x="272" 
d="M63 0v700h145v-700h-145zM208 784l-74 74l-73 -74h-110l115 136h140l115 -136h-113z" />
    <glyph glyph-name="Idieresis" unicode="&#xcf;" horiz-adv-x="272" 
d="M63 0v700h145v-700h-145zM24 784q-30 0 -51 20t-21 52q0 31 21 51.5t51 20.5q31 0 51.5 -20.5t20.5 -51.5q0 -32 -20.5 -52t-51.5 -20zM248 784q-30 0 -51 20t-21 52q0 31 21 51.5t51 20.5q31 0 51.5 -20.5t20.5 -51.5q0 -32 -20.5 -52t-51.5 -20z" />
    <glyph glyph-name="Eth" unicode="&#xd0;" horiz-adv-x="770" 
d="M95 0v293h-78v115h78v292h269q78 0 145 -26.5t117.5 -74.5t78.5 -112t28 -138q0 -75 -28 -138t-78 -110.5t-117.5 -74t-145.5 -26.5h-269zM240 129h122q47 0 87 16.5t70.5 46.5t47.5 70t17 87t-17 87.5t-47.5 70.5t-70.5 47t-87 17h-122v-163h165v-115h-165v-164z" />
    <glyph glyph-name="Ntilde" unicode="&#xd1;" horiz-adv-x="749" 
d="M63 0v700h138l348 -452v452h136v-700h-128l-357 468v-468h-137zM264 776l-84 18q27 121 114 121q28 0 54.5 -12.5t50.5 -25t42 -12.5q17 0 27 12t17 42l82 -18q-12 -62 -40.5 -92t-72.5 -30q-27 0 -53.5 12.5t-50.5 25t-44 12.5q-16 0 -26 -12t-16 -41z" />
    <glyph glyph-name="Ograve" unicode="&#xd2;" horiz-adv-x="813" 
d="M406 -11q-78 0 -145 27.5t-117.5 77t-79 115t-28.5 141.5t28.5 141.5t79 115t117.5 77t145 27.5t145.5 -27.5t118 -77t78.5 -115t28 -141.5t-28 -141.5t-78.5 -115t-118 -77t-145.5 -27.5zM406 122q48 0 88 17.5t70 48t47 72.5t17 90q0 49 -17 90.5t-47 72t-70 48
t-88 17.5q-47 0 -87 -17.5t-70 -48t-47 -72t-17 -89.5q0 -49 17 -91t47 -72.5t70 -48t87 -17.5zM365 787l-135 130h158l88 -130h-111z" />
    <glyph glyph-name="Oacute" unicode="&#xd3;" horiz-adv-x="813" 
d="M406 -11q-78 0 -145 27.5t-117.5 77t-79 115t-28.5 141.5t28.5 141.5t79 115t117.5 77t145 27.5t145.5 -27.5t118 -77t78.5 -115t28 -141.5t-28 -141.5t-78.5 -115t-118 -77t-145.5 -27.5zM406 122q48 0 88 17.5t70 48t47 72.5t17 90q0 49 -17 90.5t-47 72t-70 48
t-88 17.5q-47 0 -87 -17.5t-70 -48t-47 -72t-17 -89.5q0 -49 17 -91t47 -72.5t70 -48t87 -17.5zM325 787l90 130h156l-135 -130h-111z" />
    <glyph glyph-name="Ocircumflex" unicode="&#xd4;" horiz-adv-x="813" 
d="M406 -11q-78 0 -145 27.5t-117.5 77t-79 115t-28.5 141.5t28.5 141.5t79 115t117.5 77t145 27.5t145.5 -27.5t118 -77t78.5 -115t28 -141.5t-28 -141.5t-78.5 -115t-118 -77t-145.5 -27.5zM406 122q48 0 88 17.5t70 48t47 72.5t17 90q0 49 -17 90.5t-47 72t-70 48
t-88 17.5q-47 0 -87 -17.5t-70 -48t-47 -72t-17 -89.5q0 -49 17 -91t47 -72.5t70 -48t87 -17.5zM478 784l-74 74l-73 -74h-110l115 136h140l115 -136h-113z" />
    <glyph glyph-name="Otilde" unicode="&#xd5;" horiz-adv-x="813" 
d="M406 -11q-78 0 -145 27.5t-117.5 77t-79 115t-28.5 141.5t28.5 141.5t79 115t117.5 77t145 27.5t145.5 -27.5t118 -77t78.5 -115t28 -141.5t-28 -141.5t-78.5 -115t-118 -77t-145.5 -27.5zM406 122q48 0 88 17.5t70 48t47 72.5t17 90q0 49 -17 90.5t-47 72t-70 48
t-88 17.5q-47 0 -87 -17.5t-70 -48t-47 -72t-17 -89.5q0 -49 17 -91t47 -72.5t70 -48t87 -17.5zM296 776l-84 18q27 121 114 121q28 0 54.5 -12.5t50.5 -25t42 -12.5q17 0 27 12t17 42l82 -18q-12 -62 -40.5 -92t-72.5 -30q-27 0 -53.5 12.5t-50.5 25t-44 12.5
q-16 0 -26 -12t-16 -41z" />
    <glyph glyph-name="Odieresis" unicode="&#xd6;" horiz-adv-x="813" 
d="M406 -11q-78 0 -145 27.5t-117.5 77t-79 115t-28.5 141.5t28.5 141.5t79 115t117.5 77t145 27.5t145.5 -27.5t118 -77t78.5 -115t28 -141.5t-28 -141.5t-78.5 -115t-118 -77t-145.5 -27.5zM406 122q48 0 88 17.5t70 48t47 72.5t17 90q0 49 -17 90.5t-47 72t-70 48
t-88 17.5q-47 0 -87 -17.5t-70 -48t-47 -72t-17 -89.5q0 -49 17 -91t47 -72.5t70 -48t87 -17.5zM294 784q-30 0 -51 20t-21 52q0 31 21 51.5t51 20.5q31 0 51.5 -20.5t20.5 -51.5q0 -32 -20.5 -52t-51.5 -20zM518 784q-30 0 -51 20t-21 52q0 31 21 51.5t51 20.5
q31 0 51.5 -20.5t20.5 -51.5q0 -32 -20.5 -52t-51.5 -20z" />
    <glyph glyph-name="multiply" unicode="&#xd7;" 
d="M158 141l-62 65l141 152l-142 153l63 67l143 -153l142 152l62 -65l-143 -152l143 -153l-63 -67l-143 152z" />
    <glyph glyph-name="Oslash" unicode="&#xd8;" horiz-adv-x="813" 
d="M406 -11q-53 0 -102.5 14t-91.5 39l-35 -42h-128l85 103q-45 48 -71.5 111.5t-26.5 135.5q0 76 28.5 141.5t79 115t117.5 77t145 27.5q52 0 100 -13t89 -36l32 38h129l-82 -99q48 -48 75 -112.5t27 -138.5q0 -76 -28 -141.5t-78.5 -115t-118 -77t-145.5 -27.5zM227 215
l279 339q-22 12 -47.5 18t-52.5 6q-47 0 -87.5 -17.5t-70 -48t-46.5 -72t-17 -90.5q0 -39 11 -73t31 -62zM406 122q48 0 88 17.5t70 48t47 72.5t17 90q0 41 -12 76.5t-34 63.5l-282 -341q23 -13 50.5 -20t55.5 -7z" />
    <glyph glyph-name="Ugrave" unicode="&#xd9;" horiz-adv-x="725" 
d="M362 -10q-95 0 -164.5 38t-107.5 108.5t-38 165.5v398h145v-398q0 -54 20.5 -94.5t58 -62t87.5 -21.5t87 21.5t57.5 62t20.5 94.5v398h144v-398q0 -94 -38 -164.5t-107.5 -109t-164.5 -38.5zM321 787l-135 130h158l88 -130h-111z" />
    <glyph glyph-name="Uacute" unicode="&#xda;" horiz-adv-x="725" 
d="M362 -10q-95 0 -164.5 38t-107.5 108.5t-38 165.5v398h145v-398q0 -54 20.5 -94.5t58 -62t87.5 -21.5t87 21.5t57.5 62t20.5 94.5v398h144v-398q0 -94 -38 -164.5t-107.5 -109t-164.5 -38.5zM282 787l90 130h156l-135 -130h-111z" />
    <glyph glyph-name="Ucircumflex" unicode="&#xdb;" horiz-adv-x="725" 
d="M362 -10q-95 0 -164.5 38t-107.5 108.5t-38 165.5v398h145v-398q0 -54 20.5 -94.5t58 -62t87.5 -21.5t87 21.5t57.5 62t20.5 94.5v398h144v-398q0 -94 -38 -164.5t-107.5 -109t-164.5 -38.5zM435 784l-74 74l-73 -74h-110l115 136h140l115 -136h-113z" />
    <glyph glyph-name="Udieresis" unicode="&#xdc;" horiz-adv-x="725" 
d="M362 -10q-95 0 -164.5 38t-107.5 108.5t-38 165.5v398h145v-398q0 -54 20.5 -94.5t58 -62t87.5 -21.5t87 21.5t57.5 62t20.5 94.5v398h144v-398q0 -94 -38 -164.5t-107.5 -109t-164.5 -38.5zM251 784q-30 0 -51 20t-21 52q0 31 21 51.5t51 20.5q31 0 51.5 -20.5
t20.5 -51.5q0 -32 -20.5 -52t-51.5 -20zM475 784q-30 0 -51 20t-21 52q0 31 21 51.5t51 20.5q31 0 51.5 -20.5t20.5 -51.5q0 -32 -20.5 -52t-51.5 -20z" />
    <glyph glyph-name="Yacute" unicode="&#xdd;" horiz-adv-x="706" 
d="M280 0v268l-286 432h167l196 -304l197 304h158l-287 -433v-267h-145zM272 787l90 130h156l-135 -130h-111z" />
    <glyph glyph-name="Thorn" unicode="&#xde;" horiz-adv-x="678" 
d="M63 0v700h145v-130h206q67 0 119.5 -28.5t82.5 -78.5t30 -115q0 -62 -30 -111.5t-82.5 -77.5t-119.5 -28h-206v-131h-145zM208 251h190q29 0 52 12.5t36 34.5t13 50t-13 50.5t-36 35t-52 12.5h-190v-195z" />
    <glyph glyph-name="germandbls" unicode="&#xdf;" horiz-adv-x="685" 
d="M470 -11q-125 0 -213 81l69 74q65 -61 139 -61q39 0 61.5 16t22.5 42q0 24 -14 38t-50 25l-85 29q-57 19 -83 45.5t-26 65.5q0 35 17 58.5t42 40t50.5 30t42.5 30t17 39.5q0 33 -36 55t-90 22q-70 0 -107 -38.5t-37 -112.5v-468h-136v471q0 121 73.5 189t203.5 68
q79 0 138.5 -20.5t91.5 -58t32 -88.5q0 -40 -17 -66.5t-42.5 -44.5t-51.5 -31.5t-43.5 -26.5t-17.5 -29q0 -14 10 -23.5t38 -19.5l80 -27q67 -25 96 -57.5t29 -84.5q0 -74 -55 -118t-149 -44z" />
    <glyph glyph-name="agrave" unicode="&#xe0;" horiz-adv-x="555" 
d="M220 -9q-56 0 -99 20.5t-67 56.5t-24 83q0 75 56.5 116.5t155.5 41.5q68 0 128 -21v38q0 45 -28 68t-82 23q-33 0 -71 -10.5t-88 -32.5l-50 101q62 28 118.5 42t113.5 14q105 0 163.5 -50.5t58.5 -142.5v-338h-135v37q-32 -24 -69 -35t-81 -11zM160 154q0 -30 26 -47.5
t69 -17.5q34 0 63 8.5t52 25.5v76q-25 10 -52 15t-58 5q-47 0 -73.5 -17.5t-26.5 -47.5zM228 608l-135 130h158l88 -130h-111z" />
    <glyph glyph-name="aacute" unicode="&#xe1;" horiz-adv-x="555" 
d="M220 -9q-56 0 -99 20.5t-67 56.5t-24 83q0 75 56.5 116.5t155.5 41.5q68 0 128 -21v38q0 45 -28 68t-82 23q-33 0 -71 -10.5t-88 -32.5l-50 101q62 28 118.5 42t113.5 14q105 0 163.5 -50.5t58.5 -142.5v-338h-135v37q-32 -24 -69 -35t-81 -11zM160 154q0 -30 26 -47.5
t69 -17.5q34 0 63 8.5t52 25.5v76q-25 10 -52 15t-58 5q-47 0 -73.5 -17.5t-26.5 -47.5zM189 608l90 130h156l-135 -130h-111z" />
    <glyph glyph-name="acircumflex" unicode="&#xe2;" horiz-adv-x="555" 
d="M220 -9q-56 0 -99 20.5t-67 56.5t-24 83q0 75 56.5 116.5t155.5 41.5q68 0 128 -21v38q0 45 -28 68t-82 23q-33 0 -71 -10.5t-88 -32.5l-50 101q62 28 118.5 42t113.5 14q105 0 163.5 -50.5t58.5 -142.5v-338h-135v37q-32 -24 -69 -35t-81 -11zM160 154q0 -30 26 -47.5
t69 -17.5q34 0 63 8.5t52 25.5v76q-25 10 -52 15t-58 5q-47 0 -73.5 -17.5t-26.5 -47.5zM342 605l-74 74l-73 -74h-110l115 136h140l115 -136h-113z" />
    <glyph glyph-name="atilde" unicode="&#xe3;" horiz-adv-x="555" 
d="M220 -9q-56 0 -99 20.5t-67 56.5t-24 83q0 75 56.5 116.5t155.5 41.5q68 0 128 -21v38q0 45 -28 68t-82 23q-33 0 -71 -10.5t-88 -32.5l-50 101q62 28 118.5 42t113.5 14q105 0 163.5 -50.5t58.5 -142.5v-338h-135v37q-32 -24 -69 -35t-81 -11zM160 154q0 -30 26 -47.5
t69 -17.5q34 0 63 8.5t52 25.5v76q-25 10 -52 15t-58 5q-47 0 -73.5 -17.5t-26.5 -47.5zM160 597l-84 18q27 121 114 121q28 0 54.5 -12.5t50.5 -25t42 -12.5q17 0 27 12t17 42l82 -18q-12 -62 -40.5 -92t-72.5 -30q-27 0 -53.5 12.5t-50.5 25t-44 12.5q-16 0 -26 -12
t-16 -41z" />
    <glyph glyph-name="adieresis" unicode="&#xe4;" horiz-adv-x="555" 
d="M220 -9q-56 0 -99 20.5t-67 56.5t-24 83q0 75 56.5 116.5t155.5 41.5q68 0 128 -21v38q0 45 -28 68t-82 23q-33 0 -71 -10.5t-88 -32.5l-50 101q62 28 118.5 42t113.5 14q105 0 163.5 -50.5t58.5 -142.5v-338h-135v37q-32 -24 -69 -35t-81 -11zM160 154q0 -30 26 -47.5
t69 -17.5q34 0 63 8.5t52 25.5v76q-25 10 -52 15t-58 5q-47 0 -73.5 -17.5t-26.5 -47.5zM158 605q-30 0 -51 20t-21 52q0 31 21 51.5t51 20.5q31 0 51.5 -20.5t20.5 -51.5q0 -32 -20.5 -52t-51.5 -20zM382 605q-30 0 -51 20t-21 52q0 31 21 51.5t51 20.5q31 0 51.5 -20.5
t20.5 -51.5q0 -32 -20.5 -52t-51.5 -20z" />
    <glyph glyph-name="aring" unicode="&#xe5;" horiz-adv-x="555" 
d="M220 -9q-56 0 -99 20.5t-67 56.5t-24 83q0 75 56.5 116.5t155.5 41.5q68 0 128 -21v38q0 45 -28 68t-82 23q-33 0 -71 -10.5t-88 -32.5l-50 101q62 28 118.5 42t113.5 14q105 0 163.5 -50.5t58.5 -142.5v-338h-135v37q-32 -24 -69 -35t-81 -11zM160 154q0 -30 26 -47.5
t69 -17.5q34 0 63 8.5t52 25.5v76q-25 10 -52 15t-58 5q-47 0 -73.5 -17.5t-26.5 -47.5zM270 585q-34 0 -62 16.5t-44.5 44t-16.5 60.5q0 32 16.5 59.5t44.5 44t62 16.5t62 -16.5t44.5 -44t16.5 -59.5q0 -33 -16.5 -60.5t-44.5 -44t-62 -16.5zM270 643q26 0 44.5 18t18.5 44
q0 27 -18.5 45t-44.5 18t-44.5 -18t-18.5 -45q0 -26 18.5 -44t44.5 -18z" />
    <glyph glyph-name="ae" unicode="&#xe6;" horiz-adv-x="926" 
d="M220 -9q-55 0 -97 20.5t-66 56.5t-24 83q0 75 56 116.5t154 41.5q67 0 127 -20v37q0 45 -28 68t-82 23q-33 0 -71 -10.5t-88 -32.5l-50 101q62 28 118.5 42t113.5 14q62 0 108 -18.5t72 -54.5q34 34 78.5 53t96.5 19q75 0 133 -37t91.5 -100t33.5 -143v-36h-386
q9 -31 29.5 -56t51 -39t65.5 -14t65 11t50 31l90 -82q-48 -39 -98.5 -57t-112.5 -18q-64 0 -117.5 24t-91.5 66q-47 -46 -100.5 -67.5t-120.5 -21.5zM508 312h254q-8 31 -26.5 54.5t-44 37t-56.5 13.5t-57 -13t-44 -36.5t-26 -55.5zM255 89q40 0 74.5 15t64.5 44
q-4 12 -8.5 24.5t-7.5 24.5q-27 11 -56 16.5t-61 5.5q-46 0 -71.5 -17.5t-25.5 -47.5t24.5 -47.5t66.5 -17.5z" />
    <glyph glyph-name="ccedilla" unicode="&#xe7;" horiz-adv-x="532" 
d="M286 -236q-75 0 -126 45l45 48q38 -29 78 -29q27 0 41 10.5t14 27.5t-14.5 27t-40.5 10h-41l26 90q-68 8 -122 45t-85 94.5t-31 127.5q0 77 36 138t98 97t139 36q62 0 118.5 -24t97.5 -69l-84 -89q-29 32 -60.5 47.5t-68.5 15.5q-40 0 -71.5 -20t-50 -54t-18.5 -78
q0 -42 18.5 -76.5t51.5 -54t73 -19.5q35 0 65.5 14.5t58.5 43.5l82 -86q-35 -37 -82 -60.5t-99 -29.5l-11 -38q44 -3 69.5 -27t25.5 -62q0 -43 -38 -72t-94 -29z" />
    <glyph glyph-name="egrave" unicode="&#xe8;" horiz-adv-x="586" 
d="M309 -10q-78 0 -141.5 36t-100.5 97t-37 137t35.5 137t96.5 97t136 36t133 -37t91.5 -100t33.5 -143v-36h-386q9 -31 29.5 -56t51 -39t65.5 -14t64.5 11t50.5 31l90 -82q-48 -39 -98.5 -57t-113.5 -18zM168 312h253q-7 31 -25.5 54.5t-44 37t-56.5 13.5q-32 0 -58 -13
t-43.5 -36.5t-25.5 -55.5zM255 608l-135 130h158l88 -130h-111z" />
    <glyph glyph-name="eacute" unicode="&#xe9;" horiz-adv-x="586" 
d="M309 -10q-78 0 -141.5 36t-100.5 97t-37 137t35.5 137t96.5 97t136 36t133 -37t91.5 -100t33.5 -143v-36h-386q9 -31 29.5 -56t51 -39t65.5 -14t64.5 11t50.5 31l90 -82q-48 -39 -98.5 -57t-113.5 -18zM168 312h253q-7 31 -25.5 54.5t-44 37t-56.5 13.5q-32 0 -58 -13
t-43.5 -36.5t-25.5 -55.5zM215 608l90 130h156l-135 -130h-111z" />
    <glyph glyph-name="ecircumflex" unicode="&#xea;" horiz-adv-x="586" 
d="M309 -10q-78 0 -141.5 36t-100.5 97t-37 137t35.5 137t96.5 97t136 36t133 -37t91.5 -100t33.5 -143v-36h-386q9 -31 29.5 -56t51 -39t65.5 -14t64.5 11t50.5 31l90 -82q-48 -39 -98.5 -57t-113.5 -18zM168 312h253q-7 31 -25.5 54.5t-44 37t-56.5 13.5q-32 0 -58 -13
t-43.5 -36.5t-25.5 -55.5zM368 605l-74 74l-73 -74h-110l115 136h140l115 -136h-113z" />
    <glyph glyph-name="edieresis" unicode="&#xeb;" horiz-adv-x="586" 
d="M309 -10q-78 0 -141.5 36t-100.5 97t-37 137t35.5 137t96.5 97t136 36t133 -37t91.5 -100t33.5 -143v-36h-386q9 -31 29.5 -56t51 -39t65.5 -14t64.5 11t50.5 31l90 -82q-48 -39 -98.5 -57t-113.5 -18zM168 312h253q-7 31 -25.5 54.5t-44 37t-56.5 13.5q-32 0 -58 -13
t-43.5 -36.5t-25.5 -55.5zM184 605q-30 0 -51 20t-21 52q0 31 21 51.5t51 20.5q31 0 51.5 -20.5t20.5 -51.5q0 -32 -20.5 -52t-51.5 -20zM408 605q-30 0 -51 20t-21 52q0 31 21 51.5t51 20.5q31 0 51.5 -20.5t20.5 -51.5q0 -32 -20.5 -52t-51.5 -20z" />
    <glyph glyph-name="igrave" unicode="&#xec;" horiz-adv-x="244" 
d="M54 0v521h137v-521h-137zM81 608l-135 130h158l88 -130h-111z" />
    <glyph glyph-name="iacute" unicode="&#xed;" horiz-adv-x="244" 
d="M54 0v521h137v-521h-137zM41 608l90 130h156l-135 -130h-111z" />
    <glyph glyph-name="icircumflex" unicode="&#xee;" horiz-adv-x="244" 
d="M54 0v521h137v-521h-137zM194 605l-74 74l-73 -74h-110l115 136h140l115 -136h-113z" />
    <glyph glyph-name="idieresis" unicode="&#xef;" horiz-adv-x="244" 
d="M54 0v521h137v-521h-137zM10 605q-30 0 -51 20t-21 52q0 31 21 51.5t51 20.5q31 0 51.5 -20.5t20.5 -51.5q0 -32 -20.5 -52t-51.5 -20zM234 605q-30 0 -51 20t-21 52q0 31 21 51.5t51 20.5q31 0 51.5 -20.5t20.5 -51.5q0 -32 -20.5 -52t-51.5 -20z" />
    <glyph glyph-name="eth" unicode="&#xf0;" horiz-adv-x="597" 
d="M288 -9q-72 0 -131 34t-93 91.5t-34 129.5q0 48 19.5 91t53 76t77 52t91.5 19q45 0 80.5 -13.5t61.5 -40.5q-8 37 -29 72.5t-52 65.5l-88 -56l-51 71l67 44q-18 12 -38.5 22.5t-43.5 18.5l70 92q33 -14 62.5 -30.5t55.5 -35.5l98 63l51 -71l-81 -52q62 -65 95 -146.5
t33 -175.5q0 -98 -33.5 -170.5t-95 -111.5t-145.5 -39zM292 111q36 0 65 17.5t46 47t17 65.5q0 37 -17 66t-46 46t-65 17t-65.5 -17t-47 -46t-17.5 -66q0 -36 17.5 -65.5t47 -47t65.5 -17.5z" />
    <glyph glyph-name="ntilde" unicode="&#xf1;" horiz-adv-x="593" 
d="M54 0v521h137v-43q59 53 146 53q61 0 107.5 -26.5t72.5 -73t26 -108.5v-323h-137v303q0 51 -29 80.5t-79 29.5q-35 0 -62 -13.5t-45 -38.5v-361h-137zM189 597l-84 18q27 121 114 121q28 0 54.5 -12.5t50.5 -25t42 -12.5q17 0 27 12t17 42l82 -18q-12 -62 -40.5 -92
t-72.5 -30q-27 0 -53.5 12.5t-50.5 25t-44 12.5q-16 0 -26 -12t-16 -41z" />
    <glyph glyph-name="ograve" unicode="&#xf2;" horiz-adv-x="616" 
d="M308 -10q-78 0 -141 36t-100 97t-37 137t36.5 137.5t100 97.5t141.5 36t141.5 -36t100 -97.5t36.5 -137.5t-36.5 -137t-99.5 -97t-142 -36zM308 109q41 0 73.5 20t52 54.5t19.5 76.5q0 43 -19.5 77t-52 54.5t-73.5 20.5q-40 0 -73 -20.5t-52 -54.5t-19 -77
q0 -42 19 -76.5t52 -54.5t73 -20zM267 608l-135 130h158l88 -130h-111z" />
    <glyph glyph-name="oacute" unicode="&#xf3;" horiz-adv-x="616" 
d="M308 -10q-78 0 -141 36t-100 97t-37 137t36.5 137.5t100 97.5t141.5 36t141.5 -36t100 -97.5t36.5 -137.5t-36.5 -137t-99.5 -97t-142 -36zM308 109q41 0 73.5 20t52 54.5t19.5 76.5q0 43 -19.5 77t-52 54.5t-73.5 20.5q-40 0 -73 -20.5t-52 -54.5t-19 -77
q0 -42 19 -76.5t52 -54.5t73 -20zM227 608l90 130h156l-135 -130h-111z" />
    <glyph glyph-name="ocircumflex" unicode="&#xf4;" horiz-adv-x="616" 
d="M308 -10q-78 0 -141 36t-100 97t-37 137t36.5 137.5t100 97.5t141.5 36t141.5 -36t100 -97.5t36.5 -137.5t-36.5 -137t-99.5 -97t-142 -36zM308 109q41 0 73.5 20t52 54.5t19.5 76.5q0 43 -19.5 77t-52 54.5t-73.5 20.5q-40 0 -73 -20.5t-52 -54.5t-19 -77
q0 -42 19 -76.5t52 -54.5t73 -20zM380 605l-74 74l-73 -74h-110l115 136h140l115 -136h-113z" />
    <glyph glyph-name="otilde" unicode="&#xf5;" horiz-adv-x="616" 
d="M308 -10q-78 0 -141 36t-100 97t-37 137t36.5 137.5t100 97.5t141.5 36t141.5 -36t100 -97.5t36.5 -137.5t-36.5 -137t-99.5 -97t-142 -36zM308 109q41 0 73.5 20t52 54.5t19.5 76.5q0 43 -19.5 77t-52 54.5t-73.5 20.5q-40 0 -73 -20.5t-52 -54.5t-19 -77
q0 -42 19 -76.5t52 -54.5t73 -20zM198 597l-84 18q27 121 114 121q28 0 54.5 -12.5t50.5 -25t42 -12.5q17 0 27 12t17 42l82 -18q-12 -62 -40.5 -92t-72.5 -30q-27 0 -53.5 12.5t-50.5 25t-44 12.5q-16 0 -26 -12t-16 -41z" />
    <glyph glyph-name="odieresis" unicode="&#xf6;" horiz-adv-x="616" 
d="M308 -10q-78 0 -141 36t-100 97t-37 137t36.5 137.5t100 97.5t141.5 36t141.5 -36t100 -97.5t36.5 -137.5t-36.5 -137t-99.5 -97t-142 -36zM308 109q41 0 73.5 20t52 54.5t19.5 76.5q0 43 -19.5 77t-52 54.5t-73.5 20.5q-40 0 -73 -20.5t-52 -54.5t-19 -77
q0 -42 19 -76.5t52 -54.5t73 -20zM196 605q-30 0 -51 20t-21 52q0 31 21 51.5t51 20.5q31 0 51.5 -20.5t20.5 -51.5q0 -32 -20.5 -52t-51.5 -20zM420 605q-30 0 -51 20t-21 52q0 31 21 51.5t51 20.5q31 0 51.5 -20.5t20.5 -51.5q0 -32 -20.5 -52t-51.5 -20z" />
    <glyph glyph-name="divide" unicode="&#xf7;" 
d="M300 495q-33 0 -56.5 24t-23.5 57q0 34 23.5 57.5t56.5 23.5t56.5 -23.5t23.5 -57.5q0 -32 -23.5 -56.5t-56.5 -24.5zM300 60q-33 0 -56.5 24t-23.5 57q0 34 23.5 57.5t56.5 23.5t56.5 -23.5t23.5 -57.5q0 -33 -23.5 -57t-56.5 -24zM83 307v103h434v-103h-434z" />
    <glyph glyph-name="oslash" unicode="&#xf8;" horiz-adv-x="616" 
d="M308 -10q-40 0 -77 10t-68 29l-24 -29h-93l60 73q-36 36 -56 84.5t-20 102.5q0 76 37 137.5t100 97.5t141 36q40 0 76.5 -10t67.5 -29l24 29h94l-60 -72q35 -37 55.5 -85.5t20.5 -103.5q0 -76 -37 -137t-100 -97t-141 -36zM189 174l184 222q-14 8 -30.5 12t-34.5 4
q-40 0 -73 -20t-52 -54.5t-19 -77.5q0 -24 6.5 -46t18.5 -40zM308 109q41 0 73.5 20t51.5 54.5t19 76.5q0 25 -6.5 47t-19.5 40l-183 -222q14 -7 31 -11.5t34 -4.5z" />
    <glyph glyph-name="ugrave" unicode="&#xf9;" horiz-adv-x="593" 
d="M256 -10q-60 0 -106.5 26.5t-73 73.5t-26.5 108v323h137v-303q0 -50 29.5 -80t79.5 -30q34 0 61.5 13.5t45.5 38.5v361h137v-521h-137v42q-60 -52 -147 -52zM256 608l-135 130h158l88 -130h-111z" />
    <glyph glyph-name="uacute" unicode="&#xfa;" horiz-adv-x="593" 
d="M256 -10q-60 0 -106.5 26.5t-73 73.5t-26.5 108v323h137v-303q0 -50 29.5 -80t79.5 -30q34 0 61.5 13.5t45.5 38.5v361h137v-521h-137v42q-60 -52 -147 -52zM216 608l90 130h156l-135 -130h-111z" />
    <glyph glyph-name="ucircumflex" unicode="&#xfb;" horiz-adv-x="593" 
d="M256 -10q-60 0 -106.5 26.5t-73 73.5t-26.5 108v323h137v-303q0 -50 29.5 -80t79.5 -30q34 0 61.5 13.5t45.5 38.5v361h137v-521h-137v42q-60 -52 -147 -52zM369 605l-74 74l-73 -74h-110l115 136h140l115 -136h-113z" />
    <glyph glyph-name="udieresis" unicode="&#xfc;" horiz-adv-x="593" 
d="M256 -10q-60 0 -106.5 26.5t-73 73.5t-26.5 108v323h137v-303q0 -50 29.5 -80t79.5 -30q34 0 61.5 13.5t45.5 38.5v361h137v-521h-137v42q-60 -52 -147 -52zM185 605q-30 0 -51 20t-21 52q0 31 21 51.5t51 20.5q31 0 51.5 -20.5t20.5 -51.5q0 -32 -20.5 -52t-51.5 -20z
M409 605q-30 0 -51 20t-21 52q0 31 21 51.5t51 20.5q31 0 51.5 -20.5t20.5 -51.5q0 -32 -20.5 -52t-51.5 -20z" />
    <glyph glyph-name="yacute" unicode="&#xfd;" horiz-adv-x="577" 
d="M105 -215q-18 0 -34.5 1.5t-27.5 3.5v118q20 -4 48 -4q75 0 104 71l8 20l-203 526h151l130 -355l147 355h148l-240 -563q-27 -63 -59 -101t-73.5 -55t-98.5 -17zM205 608l90 130h156l-135 -130h-111z" />
    <glyph glyph-name="thorn" unicode="&#xfe;" horiz-adv-x="634" 
d="M54 -209v909l137 30v-251q62 49 146 49q74 0 134 -36t95.5 -96.5t35.5 -135.5t-36 -135.5t-97 -96t-136 -35.5q-39 0 -75 10.5t-67 30.5v-243h-137zM315 411q-38 0 -69.5 -12.5t-54.5 -37.5v-203q22 -23 54.5 -36t69.5 -13q43 0 77.5 20t54.5 54t20 77t-20 77.5t-54.5 54
t-77.5 19.5z" />
    <glyph glyph-name="ydieresis" unicode="&#xff;" horiz-adv-x="577" 
d="M105 -215q-18 0 -34.5 1.5t-27.5 3.5v118q20 -4 48 -4q75 0 104 71l8 20l-203 526h151l130 -355l147 355h148l-240 -563q-27 -63 -59 -101t-73.5 -55t-98.5 -17zM174 605q-30 0 -51 20t-21 52q0 31 21 51.5t51 20.5q31 0 51.5 -20.5t20.5 -51.5q0 -32 -20.5 -52
t-51.5 -20zM398 605q-30 0 -51 20t-21 52q0 31 21 51.5t51 20.5q31 0 51.5 -20.5t20.5 -51.5q0 -32 -20.5 -52t-51.5 -20z" />
    <glyph glyph-name="Amacron" unicode="&#x100;" horiz-adv-x="732" 
d="M-4 0l288 700h167l285 -700h-157l-71 184h-289l-72 -184h-151zM264 300h200l-100 258zM206 804v86h320v-86h-320z" />
    <glyph glyph-name="amacron" unicode="&#x101;" horiz-adv-x="555" 
d="M220 -9q-56 0 -99 20.5t-67 56.5t-24 83q0 75 56.5 116.5t155.5 41.5q68 0 128 -21v38q0 45 -28 68t-82 23q-33 0 -71 -10.5t-88 -32.5l-50 101q62 28 118.5 42t113.5 14q105 0 163.5 -50.5t58.5 -142.5v-338h-135v37q-32 -24 -69 -35t-81 -11zM160 154q0 -30 26 -47.5
t69 -17.5q34 0 63 8.5t52 25.5v76q-25 10 -52 15t-58 5q-47 0 -73.5 -17.5t-26.5 -47.5zM110 625v86h320v-86h-320z" />
    <glyph glyph-name="Abreve" unicode="&#x102;" horiz-adv-x="732" 
d="M-4 0l288 700h167l285 -700h-157l-71 184h-289l-72 -184h-151zM264 300h200l-100 258zM366 779q-68 0 -114 35.5t-61 99.5l84 22q24 -80 91 -80q34 0 57 20t34 60l84 -22q-15 -64 -61 -99.5t-114 -35.5z" />
    <glyph glyph-name="abreve" unicode="&#x103;" horiz-adv-x="555" 
d="M220 -9q-56 0 -99 20.5t-67 56.5t-24 83q0 75 56.5 116.5t155.5 41.5q68 0 128 -21v38q0 45 -28 68t-82 23q-33 0 -71 -10.5t-88 -32.5l-50 101q62 28 118.5 42t113.5 14q105 0 163.5 -50.5t58.5 -142.5v-338h-135v37q-32 -24 -69 -35t-81 -11zM160 154q0 -30 26 -47.5
t69 -17.5q34 0 63 8.5t52 25.5v76q-25 10 -52 15t-58 5q-47 0 -73.5 -17.5t-26.5 -47.5zM270 600q-68 0 -114 35.5t-61 99.5l84 22q24 -80 91 -80q34 0 57 20t34 60l84 -22q-15 -64 -61 -99.5t-114 -35.5z" />
    <glyph glyph-name="Aogonek" unicode="&#x104;" horiz-adv-x="732" 
d="M671 -221q-47 0 -76 25.5t-29 66.5q0 36 22 67.5t69 61.5h-78l-71 184h-289l-72 -184h-151l288 700h168l284 -700q-46 -28 -68 -53t-22 -52q0 -21 13 -32.5t37 -11.5q10 0 21 3t18 9l20 -62q-17 -10 -38.5 -16t-45.5 -6zM264 300h200l-99 258z" />
    <glyph glyph-name="aogonek" unicode="&#x105;" horiz-adv-x="555" 
d="M441 -221q-48 0 -77 25.5t-29 66.5q0 36 22 67.5t69 61.5h-56v37q-32 -24 -69 -35t-81 -11q-56 0 -99 20.5t-67 56.5t-24 83q0 75 56.5 116.5t155.5 41.5q68 0 128 -21v38q0 45 -28 68t-82 23q-33 0 -71 -10.5t-88 -32.5l-50 101q62 28 118.5 42t113.5 14
q105 0 163.5 -50.5t58.5 -142.5v-338q-46 -28 -68 -53t-22 -52q0 -21 13.5 -32.5t36.5 -11.5q10 0 21 3t19 9l19 -62q-17 -10 -38.5 -16t-44.5 -6zM255 89q34 0 63 8.5t52 25.5v76q-25 10 -52 15t-58 5q-47 0 -73.5 -17.5t-26.5 -47.5t26 -47.5t69 -17.5z" />
    <glyph glyph-name="Cacute" unicode="&#x106;" horiz-adv-x="718" 
d="M408 -10q-78 0 -146 27.5t-118.5 76.5t-79 114.5t-28.5 141.5q0 77 28.5 142.5t79.5 114.5t118.5 76.5t145.5 27.5q58 0 112 -16t100.5 -45t79.5 -70l-98 -97q-38 47 -87.5 71t-106.5 24q-47 0 -88 -17.5t-71 -48t-47 -72t-17 -90.5q0 -48 17 -89.5t48 -72t72.5 -47.5
t90.5 -17q55 0 103 23t85 66l95 -94q-33 -40 -79 -69t-99.5 -44.5t-109.5 -15.5zM326 787l90 130h156l-135 -130h-111z" />
    <glyph glyph-name="cacute" unicode="&#x107;" horiz-adv-x="532" 
d="M303 -10q-77 0 -139 35.5t-98 97t-36 137.5q0 77 36 138t98 97t139 36q62 0 118.5 -24t97.5 -69l-84 -89q-29 32 -60.5 47.5t-68.5 15.5q-40 0 -71.5 -20t-50 -54t-18.5 -78q0 -42 18.5 -76.5t51.5 -54t73 -19.5q35 0 65.5 14.5t58.5 43.5l82 -86q-40 -43 -96 -67.5
t-116 -24.5zM220 608l90 130h156l-135 -130h-111z" />
    <glyph glyph-name="Ccircumflex" unicode="&#x108;" horiz-adv-x="718" 
d="M408 -10q-78 0 -146 27.5t-118.5 76.5t-79 114.5t-28.5 141.5q0 77 28.5 142.5t79.5 114.5t118.5 76.5t145.5 27.5q58 0 112 -16t100.5 -45t79.5 -70l-98 -97q-38 47 -87.5 71t-106.5 24q-47 0 -88 -17.5t-71 -48t-47 -72t-17 -90.5q0 -48 17 -89.5t48 -72t72.5 -47.5
t90.5 -17q55 0 103 23t85 66l95 -94q-33 -40 -79 -69t-99.5 -44.5t-109.5 -15.5zM479 784l-74 74l-73 -74h-110l115 136h140l115 -136h-113z" />
    <glyph glyph-name="ccircumflex" unicode="&#x109;" horiz-adv-x="532" 
d="M303 -10q-77 0 -139 35.5t-98 97t-36 137.5q0 77 36 138t98 97t139 36q62 0 118.5 -24t97.5 -69l-84 -89q-29 32 -60.5 47.5t-68.5 15.5q-40 0 -71.5 -20t-50 -54t-18.5 -78q0 -42 18.5 -76.5t51.5 -54t73 -19.5q35 0 65.5 14.5t58.5 43.5l82 -86q-40 -43 -96 -67.5
t-116 -24.5zM373 605l-74 74l-73 -74h-110l115 136h140l115 -136h-113z" />
    <glyph glyph-name="Cdotaccent" unicode="&#x10a;" horiz-adv-x="718" 
d="M408 -10q-78 0 -146 27.5t-118.5 76.5t-79 114.5t-28.5 141.5q0 77 28.5 142.5t79.5 114.5t118.5 76.5t145.5 27.5q58 0 112 -16t100.5 -45t79.5 -70l-98 -97q-38 47 -87.5 71t-106.5 24q-47 0 -88 -17.5t-71 -48t-47 -72t-17 -90.5q0 -48 17 -89.5t48 -72t72.5 -47.5
t90.5 -17q55 0 103 23t85 66l95 -94q-33 -40 -79 -69t-99.5 -44.5t-109.5 -15.5zM407 781q-32 0 -53.5 21t-21.5 52q0 30 21.5 51t53.5 21t53.5 -21t21.5 -51q0 -31 -21.5 -52t-53.5 -21z" />
    <glyph glyph-name="cdotaccent" unicode="&#x10b;" horiz-adv-x="532" 
d="M303 -10q-77 0 -139 35.5t-98 97t-36 137.5q0 77 36 138t98 97t139 36q62 0 118.5 -24t97.5 -69l-84 -89q-29 32 -60.5 47.5t-68.5 15.5q-40 0 -71.5 -20t-50 -54t-18.5 -78q0 -42 18.5 -76.5t51.5 -54t73 -19.5q35 0 65.5 14.5t58.5 43.5l82 -86q-40 -43 -96 -67.5
t-116 -24.5zM301 602q-32 0 -53.5 21t-21.5 52q0 30 21.5 51t53.5 21t53.5 -21t21.5 -51q0 -31 -21.5 -52t-53.5 -21z" />
    <glyph glyph-name="Ccaron" unicode="&#x10c;" horiz-adv-x="718" 
d="M408 -10q-78 0 -146 27.5t-118.5 76.5t-79 114.5t-28.5 141.5q0 77 28.5 142.5t79.5 114.5t118.5 76.5t145.5 27.5q58 0 112 -16t100.5 -45t79.5 -70l-98 -97q-38 47 -87.5 71t-106.5 24q-47 0 -88 -17.5t-71 -48t-47 -72t-17 -90.5q0 -48 17 -89.5t48 -72t72.5 -47.5
t90.5 -17q55 0 103 23t85 66l95 -94q-33 -40 -79 -69t-99.5 -44.5t-109.5 -15.5zM335 920l73 -73l74 73h110l-115 -135h-140l-115 135h113z" />
    <glyph glyph-name="ccaron" unicode="&#x10d;" horiz-adv-x="532" 
d="M303 -10q-77 0 -139 35.5t-98 97t-36 137.5q0 77 36 138t98 97t139 36q62 0 118.5 -24t97.5 -69l-84 -89q-29 32 -60.5 47.5t-68.5 15.5q-40 0 -71.5 -20t-50 -54t-18.5 -78q0 -42 18.5 -76.5t51.5 -54t73 -19.5q35 0 65.5 14.5t58.5 43.5l82 -86q-40 -43 -96 -67.5
t-116 -24.5zM229 741l73 -73l74 73h110l-115 -135h-140l-115 135h113z" />
    <glyph glyph-name="Dcaron" unicode="&#x10e;" horiz-adv-x="738" 
d="M208 129h122q47 0 87.5 16.5t71 46.5t47 70t16.5 87t-17 87.5t-47 70.5t-70.5 47t-87.5 17h-122v-442zM63 0v700h269q79 0 146 -26.5t117 -74.5t78.5 -112t28.5 -138q0 -75 -28 -138t-78.5 -110.5t-117.5 -74t-146 -26.5h-269zM297 920l73 -73l74 73h110l-115 -135h-140
l-115 135h113z" />
    <glyph glyph-name="dcaron" unicode="&#x10f;" horiz-adv-x="764" 
d="M295 -7q-74 0 -134 36t-95.5 96.5t-35.5 135.5t35.5 135.5t96.5 96t137 35.5q39 0 75 -10.5t67 -30.5v213l137 23v-723h-135v43q-64 -50 -148 -50zM317 110q38 0 69.5 12.5t54.5 37.5v203q-23 23 -55 36t-69 13q-43 0 -77.5 -19.5t-54.5 -54t-20 -77.5t20 -77t54.5 -54
t77.5 -20zM652 501l4 199l111 21l-36 -220h-79z" />
    <glyph glyph-name="Dcroat" unicode="&#x110;" horiz-adv-x="770" 
d="M95 0v293h-78v115h78v292h269q78 0 145 -26.5t117.5 -74.5t78.5 -112t28 -138q0 -75 -28 -138t-78 -110.5t-117.5 -74t-145.5 -26.5h-269zM240 129h122q47 0 87 16.5t70.5 46.5t47.5 70t17 87t-17 87.5t-47.5 70.5t-70.5 47t-87 17h-122v-163h165v-115h-165v-164z" />
    <glyph glyph-name="dcroat" unicode="&#x111;" horiz-adv-x="630" 
d="M295 -7q-74 0 -134 36t-95.5 96.5t-35.5 135.5t35.5 135.5t96.5 96t137 35.5q38 0 74.5 -10.5t67.5 -30.5v92h-140v84h140v37l137 30v-67h55v-84h-55v-579h-135v43q-64 -50 -148 -50zM317 110q38 0 69.5 12.5t54.5 37.5v203q-23 23 -55 36t-69 13q-43 0 -77.5 -19.5
t-54.5 -54t-20 -77.5t20 -77t54.5 -54t77.5 -20z" />
    <glyph glyph-name="Emacron" unicode="&#x112;" horiz-adv-x="645" 
d="M63 0v700h538v-126h-393v-160h259v-122h-259v-166h397v-126h-542zM184 804v86h320v-86h-320z" />
    <glyph glyph-name="emacron" unicode="&#x113;" horiz-adv-x="586" 
d="M309 -10q-78 0 -141.5 36t-100.5 97t-37 137t35.5 137t96.5 97t136 36t133 -37t91.5 -100t33.5 -143v-36h-386q9 -31 29.5 -56t51 -39t65.5 -14t64.5 11t50.5 31l90 -82q-48 -39 -98.5 -57t-113.5 -18zM168 312h253q-7 31 -25.5 54.5t-44 37t-56.5 13.5q-32 0 -58 -13
t-43.5 -36.5t-25.5 -55.5zM136 625v86h320v-86h-320z" />
    <glyph glyph-name="Ebreve" unicode="&#x114;" horiz-adv-x="645" 
d="M63 0v700h538v-126h-393v-160h259v-122h-259v-166h397v-126h-542zM344 779q-68 0 -114 35.5t-61 99.5l84 22q24 -80 91 -80q34 0 57 20t34 60l84 -22q-15 -64 -61 -99.5t-114 -35.5z" />
    <glyph glyph-name="ebreve" unicode="&#x115;" horiz-adv-x="586" 
d="M309 -10q-78 0 -141.5 36t-100.5 97t-37 137t35.5 137t96.5 97t136 36t133 -37t91.5 -100t33.5 -143v-36h-386q9 -31 29.5 -56t51 -39t65.5 -14t64.5 11t50.5 31l90 -82q-48 -39 -98.5 -57t-113.5 -18zM168 312h253q-7 31 -25.5 54.5t-44 37t-56.5 13.5q-32 0 -58 -13
t-43.5 -36.5t-25.5 -55.5zM296 600q-68 0 -114 35.5t-61 99.5l84 22q24 -80 91 -80q34 0 57 20t34 60l84 -22q-15 -64 -61 -99.5t-114 -35.5z" />
    <glyph glyph-name="Edotaccent" unicode="&#x116;" horiz-adv-x="645" 
d="M63 0v700h538v-126h-393v-160h259v-122h-259v-166h397v-126h-542zM344 781q-32 0 -53.5 21t-21.5 52q0 30 21.5 51t53.5 21t53.5 -21t21.5 -51q0 -31 -21.5 -52t-53.5 -21z" />
    <glyph glyph-name="edotaccent" unicode="&#x117;" horiz-adv-x="586" 
d="M309 -10q-78 0 -141.5 36t-100.5 97t-37 137t35.5 137t96.5 97t136 36t133 -37t91.5 -100t33.5 -143v-36h-386q9 -31 29.5 -56t51 -39t65.5 -14t64.5 11t50.5 31l90 -82q-48 -39 -98.5 -57t-113.5 -18zM168 312h253q-7 31 -25.5 54.5t-44 37t-56.5 13.5q-32 0 -58 -13
t-43.5 -36.5t-25.5 -55.5zM296 602q-32 0 -53.5 21t-21.5 52q0 30 21.5 51t53.5 21t53.5 -21t21.5 -51q0 -31 -21.5 -52t-53.5 -21z" />
    <glyph glyph-name="Eogonek" unicode="&#x118;" horiz-adv-x="645" 
d="M623 -199q-16 -10 -38 -16t-45 -6q-47 0 -76 25.5t-29 66.5q0 36 21.5 67.5t68.5 61.5h-462v700h538v-126h-393v-160h259v-122h-259v-166h397v-126q-47 -28 -68.5 -53t-21.5 -52q0 -21 13 -32.5t37 -11.5q10 0 20.5 3t18.5 9z" />
    <glyph glyph-name="eogonek" unicode="&#x119;" horiz-adv-x="586" 
d="M329 -221q-47 0 -76 25.5t-29 66.5q0 33 19 62t59 57q-78 3 -139 39t-97 96.5t-36 134.5q0 76 35.5 137t96.5 97t136 36t133 -37t91.5 -100t33.5 -143v-36h-386q9 -31 29.5 -56t51 -39t65.5 -14t64.5 11t50.5 31l90 -82q-31 -25 -62 -41t-66 -24q-46 -28 -67.5 -53
t-21.5 -52q0 -21 13 -32.5t37 -11.5q10 0 20.5 3t18.5 9l20 -62q-17 -10 -39 -16t-45 -6zM168 312h253q-7 31 -25.5 54.5t-44 37t-56.5 13.5q-32 0 -58 -13t-43.5 -36.5t-25.5 -55.5z" />
    <glyph glyph-name="Ecaron" unicode="&#x11a;" horiz-adv-x="645" 
d="M63 0v700h538v-126h-393v-160h259v-122h-259v-166h397v-126h-542zM272 920l73 -73l74 73h110l-115 -135h-140l-115 135h113z" />
    <glyph glyph-name="ecaron" unicode="&#x11b;" horiz-adv-x="586" 
d="M309 -10q-78 0 -141.5 36t-100.5 97t-37 137t35.5 137t96.5 97t136 36t133 -37t91.5 -100t33.5 -143v-36h-386q9 -31 29.5 -56t51 -39t65.5 -14t64.5 11t50.5 31l90 -82q-48 -39 -98.5 -57t-113.5 -18zM168 312h253q-7 31 -25.5 54.5t-44 37t-56.5 13.5q-32 0 -58 -13
t-43.5 -36.5t-25.5 -55.5zM224 741l73 -73l74 73h110l-115 -135h-140l-115 135h113z" />
    <glyph glyph-name="Gcircumflex" unicode="&#x11c;" horiz-adv-x="794" 
d="M407 -11q-78 0 -145 27.5t-118 77t-79.5 115t-28.5 141.5t28.5 141.5t78.5 115t117.5 77t144.5 27.5q87 0 164 -34.5t127 -96.5l-101 -93q-36 45 -85 68t-105 23q-47 0 -87 -17.5t-70 -48t-46.5 -72t-16.5 -90.5t17 -91t47.5 -72.5t71 -48t88.5 -17.5q50 0 90 18.5
t67.5 52t36.5 75.5h-207v126h362v-44q0 -78 -26.5 -143.5t-73.5 -114t-111 -75.5t-140 -27zM477 784l-74 74l-73 -74h-110l115 136h140l115 -136h-113z" />
    <glyph glyph-name="gcircumflex" unicode="&#x11d;" horiz-adv-x="627" 
d="M316 -214q-60 0 -116 12.5t-101 35.5l48 106q43 -21 84 -31t82 -10q61 0 92.5 26t31.5 78v41q-64 -47 -143 -47q-74 0 -133.5 35.5t-95 96.5t-35.5 135t35.5 134t96.5 95.5t136 35.5q38 0 74 -11t67 -31v34h135v-520q0 -103 -66.5 -159t-191.5 -56zM315 113q38 0 69 12.5
t53 35.5v204q-22 22 -53.5 34.5t-67.5 12.5q-43 0 -77 -19.5t-54 -53t-20 -75.5q0 -43 19.5 -77t54 -54t76.5 -20zM384 605l-74 74l-73 -74h-110l115 136h140l115 -136h-113z" />
    <glyph glyph-name="Gbreve" unicode="&#x11e;" horiz-adv-x="794" 
d="M407 -11q-78 0 -145 27.5t-118 77t-79.5 115t-28.5 141.5t28.5 141.5t78.5 115t117.5 77t144.5 27.5q87 0 164 -34.5t127 -96.5l-101 -93q-36 45 -85 68t-105 23q-47 0 -87 -17.5t-70 -48t-46.5 -72t-16.5 -90.5t17 -91t47.5 -72.5t71 -48t88.5 -17.5q50 0 90 18.5
t67.5 52t36.5 75.5h-207v126h362v-44q0 -78 -26.5 -143.5t-73.5 -114t-111 -75.5t-140 -27zM405 779q-68 0 -114 35.5t-61 99.5l84 22q24 -80 91 -80q34 0 57 20t34 60l84 -22q-15 -64 -61 -99.5t-114 -35.5z" />
    <glyph glyph-name="gbreve" unicode="&#x11f;" horiz-adv-x="627" 
d="M316 -214q-60 0 -116 12.5t-101 35.5l48 106q43 -21 84 -31t82 -10q61 0 92.5 26t31.5 78v41q-64 -47 -143 -47q-74 0 -133.5 35.5t-95 96.5t-35.5 135t35.5 134t96.5 95.5t136 35.5q38 0 74 -11t67 -31v34h135v-520q0 -103 -66.5 -159t-191.5 -56zM315 113q38 0 69 12.5
t53 35.5v204q-22 22 -53.5 34.5t-67.5 12.5q-43 0 -77 -19.5t-54 -53t-20 -75.5q0 -43 19.5 -77t54 -54t76.5 -20zM312 600q-68 0 -114 35.5t-61 99.5l84 22q24 -80 91 -80q34 0 57 20t34 60l84 -22q-15 -64 -61 -99.5t-114 -35.5z" />
    <glyph glyph-name="Gdotaccent" unicode="&#x120;" horiz-adv-x="794" 
d="M407 -11q-78 0 -145 27.5t-118 77t-79.5 115t-28.5 141.5t28.5 141.5t78.5 115t117.5 77t144.5 27.5q87 0 164 -34.5t127 -96.5l-101 -93q-36 45 -85 68t-105 23q-47 0 -87 -17.5t-70 -48t-46.5 -72t-16.5 -90.5t17 -91t47.5 -72.5t71 -48t88.5 -17.5q50 0 90 18.5
t67.5 52t36.5 75.5h-207v126h362v-44q0 -78 -26.5 -143.5t-73.5 -114t-111 -75.5t-140 -27zM405 781q-32 0 -53.5 21t-21.5 52q0 30 21.5 51t53.5 21t53.5 -21t21.5 -51q0 -31 -21.5 -52t-53.5 -21z" />
    <glyph glyph-name="gdotaccent" unicode="&#x121;" horiz-adv-x="627" 
d="M316 -214q-60 0 -116 12.5t-101 35.5l48 106q43 -21 84 -31t82 -10q61 0 92.5 26t31.5 78v41q-64 -47 -143 -47q-74 0 -133.5 35.5t-95 96.5t-35.5 135t35.5 134t96.5 95.5t136 35.5q38 0 74 -11t67 -31v34h135v-520q0 -103 -66.5 -159t-191.5 -56zM315 113q38 0 69 12.5
t53 35.5v204q-22 22 -53.5 34.5t-67.5 12.5q-43 0 -77 -19.5t-54 -53t-20 -75.5q0 -43 19.5 -77t54 -54t76.5 -20zM312 602q-32 0 -53.5 21t-21.5 52q0 30 21.5 51t53.5 21t53.5 -21t21.5 -51q0 -31 -21.5 -52t-53.5 -21z" />
    <glyph glyph-name="Gcommaaccent" unicode="&#x122;" horiz-adv-x="794" 
d="M407 -11q-78 0 -145 27.5t-118 77t-79.5 115t-28.5 141.5t28.5 141.5t78.5 115t117.5 77t144.5 27.5q87 0 164 -34.5t127 -96.5l-101 -93q-36 45 -85 68t-105 23q-47 0 -87 -17.5t-70 -48t-46.5 -72t-16.5 -90.5t17 -91t47.5 -72.5t71 -48t88.5 -17.5q50 0 90 18.5
t67.5 52t36.5 75.5h-207v126h362v-44q0 -78 -26.5 -143.5t-73.5 -114t-111 -75.5t-140 -27zM294 -286l51 205h129l-81 -205h-99z" />
    <glyph glyph-name="gcommaaccent" unicode="&#x123;" horiz-adv-x="626" 
d="M316 -214q-60 0 -116 12.5t-101 35.5l48 106q43 -21 84 -31t82 -10q61 0 92.5 26t31.5 78v41q-64 -47 -143 -47q-74 0 -133.5 35.5t-95 96.5t-35.5 135t35.5 134t96.5 95.5t136 35.5q38 0 74 -11t67 -31v34h135v-520q0 -103 -66.5 -159t-191.5 -56zM315 113q38 0 69 12.5
t53 35.5v204q-22 22 -53.5 34.5t-67.5 12.5q-43 0 -77 -19.5t-54 -53t-20 -75.5q0 -43 19.5 -77t54 -54t76.5 -20zM429 819l-51 -205h-129l81 205h99z" />
    <glyph glyph-name="Hcircumflex" unicode="&#x124;" horiz-adv-x="739" 
d="M63 0v700h145v-282h322v282h145v-700h-145v287h-322v-287h-145zM441 784l-74 74l-73 -74h-110l115 136h140l115 -136h-113z" />
    <glyph glyph-name="hcircumflex" unicode="&#x125;" horiz-adv-x="593" 
d="M54 0v700l137 30v-252q59 53 146 53q61 0 107.5 -26.5t72.5 -73t26 -108.5v-323h-137v303q0 51 -29 80.5t-79 29.5q-35 0 -62 -13.5t-45 -38.5v-361h-137zM193 784l-74 74l-73 -74h-110l115 136h140l115 -136h-113z" />
    <glyph glyph-name="Hbar" unicode="&#x126;" horiz-adv-x="756" 
d="M72 0v498h-62v114h62v88h145v-88h322v88h145v-88h62v-114h-62v-498h-145v287h-322v-287h-145zM217 418h322v80h-322v-80z" />
    <glyph glyph-name="hbar" unicode="&#x127;" horiz-adv-x="593" 
d="M54 0v579h-58v84h58v37l137 30v-67h138v-84h-138v-101q59 53 146 53q61 0 107.5 -26.5t72.5 -73t26 -108.5v-323h-137v303q0 51 -29 80.5t-79 29.5q-35 0 -62 -13.5t-45 -38.5v-361h-137z" />
    <glyph glyph-name="Itilde" unicode="&#x128;" horiz-adv-x="272" 
d="M63 0v700h145v-700h-145zM26 776l-84 18q27 121 114 121q28 0 54.5 -12.5t50.5 -25t42 -12.5q17 0 27 12t17 42l82 -18q-12 -62 -40.5 -92t-72.5 -30q-27 0 -53.5 12.5t-50.5 25t-44 12.5q-16 0 -26 -12t-16 -41z" />
    <glyph glyph-name="itilde" unicode="&#x129;" horiz-adv-x="244" 
d="M54 0v521h137v-521h-137zM12 597l-84 18q27 121 114 121q28 0 54.5 -12.5t50.5 -25t42 -12.5q17 0 27 12t17 42l82 -18q-12 -62 -40.5 -92t-72.5 -30q-27 0 -53.5 12.5t-50.5 25t-44 12.5q-16 0 -26 -12t-16 -41z" />
    <glyph glyph-name="Imacron" unicode="&#x12a;" horiz-adv-x="272" 
d="M63 0v700h145v-700h-145zM-24 804v86h320v-86h-320z" />
    <glyph glyph-name="imacron" unicode="&#x12b;" horiz-adv-x="244" 
d="M54 0v521h137v-521h-137zM-38 625v86h320v-86h-320z" />
    <glyph glyph-name="Ibreve" unicode="&#x12c;" horiz-adv-x="272" 
d="M63 0v700h145v-700h-145zM136 779q-68 0 -114 35.5t-61 99.5l84 22q24 -80 91 -80q34 0 57 20t34 60l84 -22q-15 -64 -61 -99.5t-114 -35.5z" />
    <glyph glyph-name="ibreve" unicode="&#x12d;" horiz-adv-x="244" 
d="M54 0v521h137v-521h-137zM122 600q-68 0 -114 35.5t-61 99.5l84 22q24 -80 91 -80q34 0 57 20t34 60l84 -22q-15 -64 -61 -99.5t-114 -35.5z" />
    <glyph glyph-name="Iogonek" unicode="&#x12e;" horiz-adv-x="272" 
d="M144 -221q-48 0 -77 25.5t-29 66.5q0 36 22 67.5t69 61.5h-66v700h145v-700q-46 -28 -68 -53t-22 -52q0 -21 13.5 -32.5t36.5 -11.5q10 0 21 3t19 9l19 -62q-17 -10 -38.5 -16t-44.5 -6z" />
    <glyph glyph-name="iogonek" unicode="&#x12f;" horiz-adv-x="244" 
d="M122 583q-32 0 -55 23t-23 55q0 33 23 55.5t55 22.5q33 0 55.5 -22.5t22.5 -55.5q0 -32 -22.5 -55t-55.5 -23zM126 -221q-48 0 -76.5 25.5t-28.5 66.5q0 36 21.5 67.5t68.5 61.5h-57v521h137v-521q-47 -28 -69 -53t-22 -52q0 -21 13.5 -32.5t37.5 -11.5q10 0 20.5 3
t18.5 9l19 -62q-16 -10 -38 -16t-45 -6z" />
    <glyph glyph-name="Idotaccent" unicode="&#x130;" horiz-adv-x="272" 
d="M63 0v700h145v-700h-145zM136 781q-32 0 -53.5 21t-21.5 52q0 30 21.5 51t53.5 21t53.5 -21t21.5 -51q0 -31 -21.5 -52t-53.5 -21z" />
    <glyph glyph-name="dotlessi" unicode="&#x131;" horiz-adv-x="244" 
d="M54 0v521h137v-521h-137z" />
    <glyph glyph-name="IJ" unicode="&#x132;" horiz-adv-x="913" 
d="M63 0v700h145v-700h-145zM572 -10q-105 0 -178 53t-105 152l134 51q22 -64 58.5 -94t90.5 -30q65 0 104.5 42t39.5 112v424h145v-428q0 -85 -36 -148.5t-101 -98.5t-152 -35z" />
    <glyph glyph-name="ij" unicode="&#x133;" horiz-adv-x="482" 
d="M54 0v521h137v-521h-137zM122 583q-32 0 -55 23t-23 55q0 33 23 55.5t55 22.5q33 0 55.5 -22.5t22.5 -55.5q0 -32 -22.5 -55t-55.5 -23zM363 583q-32 0 -55 23t-23 55q0 33 23 55.5t55 22.5q33 0 55.5 -22.5t22.5 -55.5q0 -32 -22.5 -55t-55.5 -23zM263 -214
q-19 0 -39 2.5t-32 6.5v105q18 -4 44 -4q30 0 44.5 12.5t14.5 40.5v572h137v-580q0 -74 -44 -114.5t-125 -40.5z" />
    <glyph glyph-name="Jcircumflex" unicode="&#x134;" horiz-adv-x="641" 
d="M300 -10q-105 0 -178 53t-105 152l134 51q22 -64 58.5 -94t90.5 -30q65 0 104.5 42t39.5 112v424h145v-428q0 -85 -36 -148.5t-101 -98.5t-152 -35zM591 784l-74 74l-73 -74h-110l115 136h140l115 -136h-113z" />
    <glyph glyph-name="jcircumflex" unicode="&#x135;" horiz-adv-x="244" 
d="M23 -214q-19 0 -39 2.5t-33 6.5v105q19 -4 45 -4q30 0 44 12.5t14 40.5v572h137v-581q0 -73 -44 -113.5t-124 -40.5zM194 605l-74 74l-73 -74h-110l115 136h140l115 -136h-113z" />
    <glyph glyph-name="Kcommaaccent" unicode="&#x136;" horiz-adv-x="697" 
d="M63 0v700h145v-313l306 313h177l-340 -333l356 -367h-194l-305 325v-325h-145zM243 -286l51 205h129l-81 -205h-99z" />
    <glyph glyph-name="kcommaaccent" unicode="&#x137;" horiz-adv-x="568" 
d="M54 0v700l137 23v-421l225 219h155l-246 -239l261 -282h-175l-220 238v-238h-137zM172 -286l51 205h129l-81 -205h-99z" />
    <glyph glyph-name="kgreenlandic" unicode="&#x138;" horiz-adv-x="568" 
d="M54 0v521h137v-219l225 219h155l-246 -239l261 -282h-175l-220 238v-238h-137z" />
    <glyph glyph-name="Lacute" unicode="&#x139;" horiz-adv-x="628" 
d="M63 0v700h145v-572h383v-128h-528zM54 787l90 130h156l-135 -130h-111z" />
    <glyph glyph-name="lacute" unicode="&#x13a;" horiz-adv-x="244" 
d="M54 0v700l137 23v-723h-137zM41 787l90 130h156l-135 -130h-111z" />
    <glyph glyph-name="Lcommaaccent" unicode="&#x13b;" horiz-adv-x="628" 
d="M63 0v700h145v-572h383v-128h-528zM234 -286l51 205h129l-81 -205h-99z" />
    <glyph glyph-name="lcommaaccent" unicode="&#x13c;" horiz-adv-x="244" 
d="M54 0v700l137 23v-723h-137zM7 -286l51 205h129l-81 -205h-99z" />
    <glyph glyph-name="Lcaron" unicode="&#x13d;" horiz-adv-x="623" 
d="M63 0v700h145v-572h383v-128h-528zM401 501l4 199l111 21l-36 -220h-79z" />
    <glyph glyph-name="lcaron" unicode="&#x13e;" horiz-adv-x="375" 
d="M54 0v700l137 23v-723h-137zM263 501l4 199l111 21l-36 -220h-79z" />
    <glyph glyph-name="Ldot" unicode="&#x13f;" horiz-adv-x="623" 
d="M63 0v700h145v-572h383v-128h-528zM435 296q-32 0 -53.5 21t-21.5 52q0 30 21.5 51t53.5 21t53.5 -21t21.5 -51q0 -31 -21.5 -52t-53.5 -21z" />
    <glyph glyph-name="ldot" unicode="&#x140;" horiz-adv-x="397" 
d="M54 0v700l137 23v-723h-137zM322 285q-32 0 -53.5 21t-21.5 52q0 30 21.5 51t53.5 21t53.5 -21t21.5 -51q0 -31 -21.5 -52t-53.5 -21z" />
    <glyph glyph-name="Lslash" unicode="&#x141;" horiz-adv-x="648" 
d="M89 0v209l-78 -50v122l78 51v368h145v-279l177 114v-123l-177 -114v-170h382v-128h-527z" />
    <glyph glyph-name="lslash" unicode="&#x142;" horiz-adv-x="289" 
d="M78 0v259l-70 -50v125l70 50v316l137 30v-250l70 50v-125l-70 -50v-355h-137z" />
    <glyph glyph-name="Nacute" unicode="&#x143;" horiz-adv-x="749" 
d="M63 0v700h138l348 -452v452h136v-700h-128l-357 468v-468h-137zM293 787l90 130h156l-135 -130h-111z" />
    <glyph glyph-name="nacute" unicode="&#x144;" horiz-adv-x="593" 
d="M54 0v521h137v-43q59 53 146 53q61 0 107.5 -26.5t72.5 -73t26 -108.5v-323h-137v303q0 51 -29 80.5t-79 29.5q-35 0 -62 -13.5t-45 -38.5v-361h-137zM218 608l90 130h156l-135 -130h-111z" />
    <glyph glyph-name="Ncommaaccent" unicode="&#x145;" horiz-adv-x="749" 
d="M63 0v700h138l348 -452v452h136v-700h-128l-357 468v-468h-137zM259 -286l51 205h129l-81 -205h-99z" />
    <glyph glyph-name="ncommaaccent" unicode="&#x146;" horiz-adv-x="593" 
d="M54 0v521h137v-43q59 53 146 53q61 0 107.5 -26.5t72.5 -73t26 -108.5v-323h-137v303q0 51 -29 80.5t-79 29.5q-35 0 -62 -13.5t-45 -38.5v-361h-137zM184 -286l51 205h129l-81 -205h-99z" />
    <glyph glyph-name="Ncaron" unicode="&#x147;" horiz-adv-x="749" 
d="M63 0v700h138l348 -452v452h136v-700h-128l-357 468v-468h-137zM302 920l73 -73l74 73h110l-115 -135h-140l-115 135h113z" />
    <glyph glyph-name="ncaron" unicode="&#x148;" horiz-adv-x="593" 
d="M54 0v521h137v-43q59 53 146 53q61 0 107.5 -26.5t72.5 -73t26 -108.5v-323h-137v303q0 51 -29 80.5t-79 29.5q-35 0 -62 -13.5t-45 -38.5v-361h-137zM227 741l73 -73l74 73h110l-115 -135h-140l-115 135h113z" />
    <glyph glyph-name="Eng" unicode="&#x14a;" horiz-adv-x="749" 
d="M517 -212q-18 0 -39 2.5t-33 6.5v104q20 -4 45 -4q31 0 45 13t14 41v53l-349 458v-462h-137v700h133l353 -459v459h136v-758q0 -74 -43.5 -114t-124.5 -40z" />
    <glyph glyph-name="eng" unicode="&#x14b;" horiz-adv-x="593" 
d="M375 -215q-18 0 -38.5 2.5t-33.5 6.5v105q20 -4 45 -4q31 0 44.5 12.5t13.5 40.5v355q0 51 -29 80.5t-79 29.5q-35 0 -62 -13.5t-45 -38.5v-361h-137v521h137v-43q59 53 146 53q61 0 107.5 -26.5t72.5 -73t26 -108.5v-384q0 -73 -43.5 -113.5t-124.5 -40.5z" />
    <glyph glyph-name="Omacron" unicode="&#x14c;" horiz-adv-x="813" 
d="M406 -11q-78 0 -145 27.5t-117.5 77t-79 115t-28.5 141.5t28.5 141.5t79 115t117.5 77t145 27.5t145.5 -27.5t118 -77t78.5 -115t28 -141.5t-28 -141.5t-78.5 -115t-118 -77t-145.5 -27.5zM406 122q48 0 88 17.5t70 48t47 72.5t17 90q0 49 -17 90.5t-47 72t-70 48
t-88 17.5q-47 0 -87 -17.5t-70 -48t-47 -72t-17 -89.5q0 -49 17 -91t47 -72.5t70 -48t87 -17.5zM246 804v86h320v-86h-320z" />
    <glyph glyph-name="omacron" unicode="&#x14d;" horiz-adv-x="616" 
d="M308 -10q-78 0 -141 36t-100 97t-37 137t36.5 137.5t100 97.5t141.5 36t141.5 -36t100 -97.5t36.5 -137.5t-36.5 -137t-99.5 -97t-142 -36zM308 109q41 0 73.5 20t52 54.5t19.5 76.5q0 43 -19.5 77t-52 54.5t-73.5 20.5q-40 0 -73 -20.5t-52 -54.5t-19 -77
q0 -42 19 -76.5t52 -54.5t73 -20zM148 625v86h320v-86h-320z" />
    <glyph glyph-name="Obreve" unicode="&#x14e;" horiz-adv-x="813" 
d="M406 -11q-78 0 -145 27.5t-117.5 77t-79 115t-28.5 141.5t28.5 141.5t79 115t117.5 77t145 27.5t145.5 -27.5t118 -77t78.5 -115t28 -141.5t-28 -141.5t-78.5 -115t-118 -77t-145.5 -27.5zM406 122q48 0 88 17.5t70 48t47 72.5t17 90q0 49 -17 90.5t-47 72t-70 48
t-88 17.5q-47 0 -87 -17.5t-70 -48t-47 -72t-17 -89.5q0 -49 17 -91t47 -72.5t70 -48t87 -17.5zM406 779q-68 0 -114 35.5t-61 99.5l84 22q24 -80 91 -80q34 0 57 20t34 60l84 -22q-15 -64 -61 -99.5t-114 -35.5z" />
    <glyph glyph-name="obreve" unicode="&#x14f;" horiz-adv-x="616" 
d="M308 -10q-78 0 -141 36t-100 97t-37 137t36.5 137.5t100 97.5t141.5 36t141.5 -36t100 -97.5t36.5 -137.5t-36.5 -137t-99.5 -97t-142 -36zM308 109q41 0 73.5 20t52 54.5t19.5 76.5q0 43 -19.5 77t-52 54.5t-73.5 20.5q-40 0 -73 -20.5t-52 -54.5t-19 -77
q0 -42 19 -76.5t52 -54.5t73 -20zM308 600q-68 0 -114 35.5t-61 99.5l84 22q24 -80 91 -80q34 0 57 20t34 60l84 -22q-15 -64 -61 -99.5t-114 -35.5z" />
    <glyph glyph-name="Ohungarumlaut" unicode="&#x150;" horiz-adv-x="813" 
d="M406 -11q-78 0 -145 27.5t-117.5 77t-79 115t-28.5 141.5t28.5 141.5t79 115t117.5 77t145 27.5t145.5 -27.5t118 -77t78.5 -115t28 -141.5t-28 -141.5t-78.5 -115t-118 -77t-145.5 -27.5zM406 122q48 0 88 17.5t70 48t47 72.5t17 90q0 49 -17 90.5t-47 72t-70 48
t-88 17.5q-47 0 -87 -17.5t-70 -48t-47 -72t-17 -89.5q0 -49 17 -91t47 -72.5t70 -48t87 -17.5zM238 789l101 127h136l-132 -127h-105zM445 789l101 127h138l-142 -127h-97z" />
    <glyph glyph-name="ohungarumlaut" unicode="&#x151;" horiz-adv-x="616" 
d="M308 -10q-78 0 -141 36t-100 97t-37 137t36.5 137.5t100 97.5t141.5 36t141.5 -36t100 -97.5t36.5 -137.5t-36.5 -137t-99.5 -97t-142 -36zM308 109q41 0 73.5 20t52 54.5t19.5 76.5q0 43 -19.5 77t-52 54.5t-73.5 20.5q-40 0 -73 -20.5t-52 -54.5t-19 -77
q0 -42 19 -76.5t52 -54.5t73 -20zM140 610l101 127h136l-132 -127h-105zM347 610l101 127h138l-142 -127h-97z" />
    <glyph glyph-name="OE" unicode="&#x152;" horiz-adv-x="1100" 
d="M400 0q-75 0 -140.5 27t-115 75t-77 111.5t-27.5 136.5t27.5 136.5t77 111.5t115 75t140.5 27h659v-126h-390q32 -31 53.5 -72t29.5 -88h183v-122h-182q-7 -48 -29 -90.5t-54 -75.5h389v-126h-659zM400 129q44 0 82 17t67 46.5t45.5 70t16.5 87.5t-16.5 87.5t-45.5 70
t-67 46.5t-82 17q-45 0 -83 -17t-67 -46.5t-45 -70t-16 -87.5t16 -87.5t45 -70t67 -46.5t83 -17z" />
    <glyph glyph-name="oe" unicode="&#x153;" horiz-adv-x="1010" 
d="M308 -10q-78 0 -141 36t-100 97t-37 137t37 137.5t100 97.5t141 36q65 0 119 -27t90 -73q35 45 88 72t117 27q74 0 132.5 -37t92 -100t33.5 -143v-36h-387q10 -31 30.5 -56t51 -39t65.5 -14t64.5 11t50.5 31l90 -82q-48 -39 -98.5 -57t-113.5 -18q-66 0 -122 27.5
t-93 73.5q-36 -46 -90.5 -73.5t-119.5 -27.5zM308 109q41 0 73.5 20t51.5 54.5t19 76.5q0 43 -19 77.5t-52 54.5t-73 20t-73 -20t-52 -54.5t-19 -77.5q0 -42 19 -76.5t52 -54.5t73 -20zM592 312h253q-7 31 -25.5 54.5t-44.5 37t-56 13.5q-32 0 -58 -13t-43.5 -36.5
t-25.5 -55.5z" />
    <glyph glyph-name="Racute" unicode="&#x154;" horiz-adv-x="679" 
d="M63 0v700h342q71 0 125.5 -27.5t85 -76.5t30.5 -113q0 -67 -37 -118t-99 -76l155 -289h-162l-137 268h-158v-268h-145zM208 387h184q49 0 78.5 26t29.5 68t-29.5 68t-78.5 26h-184v-188zM257 787l90 130h156l-135 -130h-111z" />
    <glyph glyph-name="racute" unicode="&#x155;" horiz-adv-x="408" 
d="M54 0v521h137v-58q25 34 60 52t79 18q38 -1 57 -12v-120q-15 7 -33 10.5t-37 3.5q-40 0 -73 -20t-53 -57v-338h-137zM150 608l90 130h156l-135 -130h-111z" />
    <glyph glyph-name="Rcommaaccent" unicode="&#x156;" horiz-adv-x="679" 
d="M63 0v700h342q71 0 125.5 -27.5t85 -76.5t30.5 -113q0 -67 -37 -118t-99 -76l155 -289h-162l-137 268h-158v-268h-145zM208 387h184q49 0 78.5 26t29.5 68t-29.5 68t-78.5 26h-184v-188zM232 -286l51 205h129l-81 -205h-99z" />
    <glyph glyph-name="rcommaaccent" unicode="&#x157;" horiz-adv-x="408" 
d="M54 0v521h137v-58q25 34 60 52t79 18q38 -1 57 -12v-120q-15 7 -33 10.5t-37 3.5q-40 0 -73 -20t-53 -57v-338h-137zM3 -286l51 205h129l-81 -205h-99z" />
    <glyph glyph-name="Rcaron" unicode="&#x158;" horiz-adv-x="679" 
d="M63 0v700h342q71 0 125.5 -27.5t85 -76.5t30.5 -113q0 -67 -37 -118t-99 -76l155 -289h-162l-137 268h-158v-268h-145zM208 387h184q49 0 78.5 26t29.5 68t-29.5 68t-78.5 26h-184v-188zM266 920l73 -73l74 73h110l-115 -135h-140l-115 135h113z" />
    <glyph glyph-name="rcaron" unicode="&#x159;" horiz-adv-x="408" 
d="M54 0v521h137v-58q25 34 60 52t79 18q38 -1 57 -12v-120q-15 7 -33 10.5t-37 3.5q-40 0 -73 -20t-53 -57v-338h-137zM159 741l73 -73l74 73h110l-115 -135h-140l-115 135h113z" />
    <glyph glyph-name="Sacute" unicode="&#x15a;" horiz-adv-x="631" 
d="M313 -10q-85 0 -166 31.5t-144 89.5l83 104q61 -54 117.5 -78t119.5 -24q44 0 76 10.5t49.5 30.5t17.5 47q0 36 -26 55.5t-89 30.5l-139 24q-89 15 -135.5 63t-46.5 124q0 65 33.5 113t95 73.5t146.5 25.5q77 0 153.5 -26t135.5 -72l-78 -108q-110 84 -221 84
q-39 0 -68 -10t-44.5 -27.5t-15.5 -41.5q0 -32 23 -49.5t77 -26.5l132 -22q105 -17 157 -66.5t52 -130.5q0 -68 -36 -118.5t-102.5 -78t-156.5 -27.5zM219 788l90 130h156l-135 -130h-111z" />
    <glyph glyph-name="sacute" unicode="&#x15b;" horiz-adv-x="491" 
d="M249 -10q-72 0 -133 18.5t-106 53.5l68 91q45 -30 86.5 -45t82.5 -15q46 0 73.5 15.5t27.5 40.5q0 20 -15.5 32t-49.5 17l-100 15q-78 12 -118 50.5t-40 101.5q0 51 26.5 87.5t75 57t115.5 20.5q57 0 111.5 -16t102.5 -49l-66 -89q-43 27 -82 39t-79 12q-37 0 -59.5 -14
t-22.5 -37q0 -21 16 -33t55 -17l99 -15q78 -11 119 -49.5t41 -99.5q0 -50 -30 -88.5t-81 -61t-117 -22.5zM160 608l90 130h156l-135 -130h-111z" />
    <glyph glyph-name="Scircumflex" unicode="&#x15c;" horiz-adv-x="631" 
d="M313 -10q-85 0 -166 31.5t-144 89.5l83 104q61 -54 117.5 -78t119.5 -24q44 0 76 10.5t49.5 30.5t17.5 47q0 36 -26 55.5t-89 30.5l-139 24q-89 15 -135.5 63t-46.5 124q0 65 33.5 113t95 73.5t146.5 25.5q77 0 153.5 -26t135.5 -72l-78 -108q-110 84 -221 84
q-39 0 -68 -10t-44.5 -27.5t-15.5 -41.5q0 -32 23 -49.5t77 -26.5l132 -22q105 -17 157 -66.5t52 -130.5q0 -68 -36 -118.5t-102.5 -78t-156.5 -27.5zM372 785l-74 74l-73 -74h-110l115 136h140l115 -136h-113z" />
    <glyph glyph-name="scircumflex" unicode="&#x15d;" horiz-adv-x="491" 
d="M249 -10q-72 0 -133 18.5t-106 53.5l68 91q45 -30 86.5 -45t82.5 -15q46 0 73.5 15.5t27.5 40.5q0 20 -15.5 32t-49.5 17l-100 15q-78 12 -118 50.5t-40 101.5q0 51 26.5 87.5t75 57t115.5 20.5q57 0 111.5 -16t102.5 -49l-66 -89q-43 27 -82 39t-79 12q-37 0 -59.5 -14
t-22.5 -37q0 -21 16 -33t55 -17l99 -15q78 -11 119 -49.5t41 -99.5q0 -50 -30 -88.5t-81 -61t-117 -22.5zM313 605l-74 74l-73 -74h-110l115 136h140l115 -136h-113z" />
    <glyph glyph-name="Scedilla" unicode="&#x15e;" horiz-adv-x="631" 
d="M290 -235q-75 0 -125 45l45 48q37 -29 78 -29q26 0 40 10t14 28q0 17 -14.5 27t-39.5 10h-42l26 88q-75 7 -144.5 37.5t-124.5 81.5l83 104q61 -54 117.5 -78t119.5 -24q44 0 76 10.5t49.5 30.5t17.5 47q0 36 -26 55.5t-89 30.5l-139 24q-89 15 -135.5 63t-46.5 124
q0 65 33.5 113t95 73.5t146.5 25.5q77 0 153.5 -26t135.5 -72l-78 -108q-110 84 -221 84q-39 0 -68 -10t-44.5 -27.5t-15.5 -41.5q0 -32 23 -49.5t77 -26.5l132 -22q105 -17 157 -66.5t52 -130.5q0 -65 -33 -114t-94 -77.5t-144 -31.5l-10 -36q44 -4 69.5 -28t25.5 -61
q0 -43 -38 -72t-94 -29z" />
    <glyph glyph-name="scedilla" unicode="&#x15f;" horiz-adv-x="491" 
d="M230 -236q-74 0 -125 45l45 48q37 -29 78 -29q27 0 41 10.5t14 27.5t-14.5 27t-40.5 10h-42l26 88q-60 5 -111.5 22.5t-90.5 48.5l68 91q45 -30 86.5 -44.5t82.5 -14.5q46 0 73.5 15t27.5 40q0 20 -15.5 32t-49.5 17l-100 15q-78 12 -118 50.5t-40 100.5q0 51 26.5 88
t75 57t115.5 20q57 0 111.5 -16t102.5 -49l-66 -88q-43 26 -82 38t-79 12q-37 0 -59.5 -14t-22.5 -37q0 -20 16 -32t55 -17l99 -15q78 -11 119 -49.5t41 -99.5q0 -45 -25.5 -82t-70.5 -60t-103 -28l-11 -38q44 -3 69.5 -27t25.5 -62q0 -43 -37.5 -72t-94.5 -29z" />
    <glyph glyph-name="Scaron" unicode="&#x160;" horiz-adv-x="631" 
d="M313 -10q-85 0 -166 31.5t-144 89.5l83 104q61 -54 117.5 -78t119.5 -24q44 0 76 10.5t49.5 30.5t17.5 47q0 36 -26 55.5t-89 30.5l-139 24q-89 15 -135.5 63t-46.5 124q0 65 33.5 113t95 73.5t146.5 25.5q77 0 153.5 -26t135.5 -72l-78 -108q-110 84 -221 84
q-39 0 -68 -10t-44.5 -27.5t-15.5 -41.5q0 -32 23 -49.5t77 -26.5l132 -22q105 -17 157 -66.5t52 -130.5q0 -68 -36 -118.5t-102.5 -78t-156.5 -27.5zM228 921l73 -73l74 73h110l-115 -135h-140l-115 135h113z" />
    <glyph glyph-name="scaron" unicode="&#x161;" horiz-adv-x="491" 
d="M249 -10q-72 0 -133 18.5t-106 53.5l68 91q45 -30 86.5 -45t82.5 -15q46 0 73.5 15.5t27.5 40.5q0 20 -15.5 32t-49.5 17l-100 15q-78 12 -118 50.5t-40 101.5q0 51 26.5 87.5t75 57t115.5 20.5q57 0 111.5 -16t102.5 -49l-66 -89q-43 27 -82 39t-79 12q-37 0 -59.5 -14
t-22.5 -37q0 -21 16 -33t55 -17l99 -15q78 -11 119 -49.5t41 -99.5q0 -50 -30 -88.5t-81 -61t-117 -22.5zM169 741l73 -73l74 73h110l-115 -135h-140l-115 135h113z" />
    <glyph glyph-name="Tcedilla" unicode="&#x162;" horiz-adv-x="652" 
d="M306 -236q-74 0 -125 45l45 48q38 -29 78 -29q27 0 41 10.5t14 27.5t-14.5 27t-40.5 10h-42l29 97h-37v572h-236v128h616v-128h-235v-572h-42l-13 -46q44 -3 69.5 -27t25.5 -62q0 -43 -38 -72t-95 -29z" />
    <glyph glyph-name="tcedilla" unicode="&#x163;" horiz-adv-x="424" 
d="M248 -236q-75 0 -125 45l45 48q37 -29 78 -29q26 0 40.5 10.5t14.5 27.5t-14.5 27t-40.5 10h-42l29 97q-108 27 -108 147v260h-107v114h107v133l137 31v-164h149v-114h-149v-232q0 -36 16 -51.5t56 -15.5q20 0 36.5 3t36.5 9v-112q-21 -7 -52.5 -11.5t-53.5 -4.5h-2h-2
l-12 -38q44 -3 69.5 -27t25.5 -62q0 -43 -37.5 -72t-94.5 -29z" />
    <glyph glyph-name="Tcaron" unicode="&#x164;" horiz-adv-x="652" 
d="M254 0v572h-236v128h616v-128h-235v-572h-145zM254 920l73 -73l74 73h110l-115 -135h-140l-115 135h113z" />
    <glyph glyph-name="tcaron" unicode="&#x165;" horiz-adv-x="424" 
d="M327 588l5 198l111 22l-35 -220h-81zM301 -8q-87 0 -131.5 39.5t-44.5 115.5v260h-107v114h107v133l137 31v-164h149v-114h-149v-232q0 -36 16 -51.5t56 -15.5q20 0 36.5 3t36.5 9v-112q-21 -7 -52.5 -11.5t-53.5 -4.5z" />
    <glyph glyph-name="Tbar" unicode="&#x166;" horiz-adv-x="652" 
d="M254 0v280h-137v115h137v177h-236v128h616v-128h-235v-177h136v-115h-136v-280h-145z" />
    <glyph glyph-name="tbar" unicode="&#x167;" horiz-adv-x="424" 
d="M301 -8q-87 0 -131.5 39.5t-44.5 115.5v82h-107v99h107v79h-107v114h107v133l137 31v-164h149v-114h-149v-79h149v-99h-149v-54q0 -36 16 -51.5t56 -15.5q20 0 36.5 2.5t36.5 9.5v-113q-21 -7 -52.5 -11t-53.5 -4z" />
    <glyph glyph-name="Utilde" unicode="&#x168;" horiz-adv-x="725" 
d="M362 -10q-95 0 -164.5 38t-107.5 108.5t-38 165.5v398h145v-398q0 -54 20.5 -94.5t58 -62t87.5 -21.5t87 21.5t57.5 62t20.5 94.5v398h144v-398q0 -94 -38 -164.5t-107.5 -109t-164.5 -38.5zM253 776l-84 18q27 121 114 121q28 0 54.5 -12.5t50.5 -25t42 -12.5
q17 0 27 12t17 42l82 -18q-12 -62 -40.5 -92t-72.5 -30q-27 0 -53.5 12.5t-50.5 25t-44 12.5q-16 0 -26 -12t-16 -41z" />
    <glyph glyph-name="utilde" unicode="&#x169;" horiz-adv-x="593" 
d="M256 -10q-60 0 -106.5 26.5t-73 73.5t-26.5 108v323h137v-303q0 -50 29.5 -80t79.5 -30q34 0 61.5 13.5t45.5 38.5v361h137v-521h-137v42q-60 -52 -147 -52zM187 597l-84 18q27 121 114 121q28 0 54.5 -12.5t50.5 -25t42 -12.5q17 0 27 12t17 42l82 -18
q-12 -62 -40.5 -92t-72.5 -30q-27 0 -53.5 12.5t-50.5 25t-44 12.5q-16 0 -26 -12t-16 -41z" />
    <glyph glyph-name="Umacron" unicode="&#x16a;" horiz-adv-x="725" 
d="M362 -10q-95 0 -164.5 38t-107.5 108.5t-38 165.5v398h145v-398q0 -54 20.5 -94.5t58 -62t87.5 -21.5t87 21.5t57.5 62t20.5 94.5v398h144v-398q0 -94 -38 -164.5t-107.5 -109t-164.5 -38.5zM203 804v86h320v-86h-320z" />
    <glyph glyph-name="umacron" unicode="&#x16b;" horiz-adv-x="593" 
d="M256 -10q-60 0 -106.5 26.5t-73 73.5t-26.5 108v323h137v-303q0 -50 29.5 -80t79.5 -30q34 0 61.5 13.5t45.5 38.5v361h137v-521h-137v42q-60 -52 -147 -52zM137 625v86h320v-86h-320z" />
    <glyph glyph-name="Ubreve" unicode="&#x16c;" horiz-adv-x="725" 
d="M362 -10q-95 0 -164.5 38t-107.5 108.5t-38 165.5v398h145v-398q0 -54 20.5 -94.5t58 -62t87.5 -21.5t87 21.5t57.5 62t20.5 94.5v398h144v-398q0 -94 -38 -164.5t-107.5 -109t-164.5 -38.5zM363 779q-68 0 -114 35.5t-61 99.5l84 22q24 -80 91 -80q34 0 57 20t34 60
l84 -22q-15 -64 -61 -99.5t-114 -35.5z" />
    <glyph glyph-name="ubreve" unicode="&#x16d;" horiz-adv-x="593" 
d="M256 -10q-60 0 -106.5 26.5t-73 73.5t-26.5 108v323h137v-303q0 -50 29.5 -80t79.5 -30q34 0 61.5 13.5t45.5 38.5v361h137v-521h-137v42q-60 -52 -147 -52zM297 600q-68 0 -114 35.5t-61 99.5l84 22q24 -80 91 -80q34 0 57 20t34 60l84 -22q-15 -64 -61 -99.5
t-114 -35.5z" />
    <glyph glyph-name="Uring" unicode="&#x16e;" horiz-adv-x="725" 
d="M362 -10q-95 0 -164.5 38t-107.5 108.5t-38 165.5v398h145v-398q0 -54 20.5 -94.5t58 -62t87.5 -21.5t87 21.5t57.5 62t20.5 94.5v398h144v-398q0 -94 -38 -164.5t-107.5 -109t-164.5 -38.5zM363 764q-34 0 -62 16.5t-44.5 44t-16.5 60.5q0 32 16.5 59.5t44.5 44t62 16.5
t62 -16.5t44.5 -44t16.5 -59.5q0 -33 -16.5 -60.5t-44.5 -44t-62 -16.5zM363 822q26 0 44.5 18t18.5 44q0 27 -18.5 45t-44.5 18t-44.5 -18t-18.5 -45q0 -26 18.5 -44t44.5 -18z" />
    <glyph glyph-name="uring" unicode="&#x16f;" horiz-adv-x="593" 
d="M256 -10q-60 0 -106.5 26.5t-73 73.5t-26.5 108v323h137v-303q0 -50 29.5 -80t79.5 -30q34 0 61.5 13.5t45.5 38.5v361h137v-521h-137v42q-60 -52 -147 -52zM297 585q-34 0 -62 16.5t-44.5 44t-16.5 60.5q0 32 16.5 59.5t44.5 44t62 16.5t62 -16.5t44.5 -44t16.5 -59.5
q0 -33 -16.5 -60.5t-44.5 -44t-62 -16.5zM297 643q26 0 44.5 18t18.5 44q0 27 -18.5 45t-44.5 18t-44.5 -18t-18.5 -45q0 -26 18.5 -44t44.5 -18z" />
    <glyph glyph-name="Uhungarumlaut" unicode="&#x170;" horiz-adv-x="725" 
d="M362 -10q-95 0 -164.5 38t-107.5 108.5t-38 165.5v398h145v-398q0 -54 20.5 -94.5t58 -62t87.5 -21.5t87 21.5t57.5 62t20.5 94.5v398h144v-398q0 -94 -38 -164.5t-107.5 -109t-164.5 -38.5zM195 789l101 127h136l-132 -127h-105zM402 789l101 127h138l-142 -127h-97z
" />
    <glyph glyph-name="uhungarumlaut" unicode="&#x171;" horiz-adv-x="593" 
d="M256 -10q-60 0 -106.5 26.5t-73 73.5t-26.5 108v323h137v-303q0 -50 29.5 -80t79.5 -30q34 0 61.5 13.5t45.5 38.5v361h137v-521h-137v42q-60 -52 -147 -52zM129 610l101 127h136l-132 -127h-105zM336 610l101 127h138l-142 -127h-97z" />
    <glyph glyph-name="Uogonek" unicode="&#x172;" horiz-adv-x="725" 
d="M382 -221q-48 0 -76.5 25.5t-28.5 66.5q0 33 18.5 62t58.5 57q-92 2 -160 41t-105 108t-37 163v398h145v-398q0 -54 20.5 -94.5t58 -62t87.5 -21.5t87 21.5t57.5 62t20.5 94.5v398h144v-398q0 -120 -61.5 -200.5t-167.5 -103.5q-45 -27 -66 -52t-21 -51q0 -21 13.5 -32.5
t36.5 -11.5q11 0 21.5 3t18.5 9l19 -62q-17 -10 -38.5 -16t-44.5 -6z" />
    <glyph glyph-name="uogonek" unicode="&#x173;" horiz-adv-x="593" 
d="M477 -221q-48 0 -77 25.5t-29 66.5q0 36 22 67.5t69 61.5h-59v42q-60 -52 -147 -52q-60 0 -106.5 26.5t-73 73.5t-26.5 108v323h137v-303q0 -50 29.5 -80t78.5 -30q35 0 62.5 13.5t45.5 38.5v361h137v-520q-47 -28 -68 -53.5t-21 -52.5q0 -21 13.5 -32.5t36.5 -11.5
q10 0 21 3t19 9l19 -62q-17 -10 -38.5 -16t-44.5 -6z" />
    <glyph glyph-name="Wcircumflex" unicode="&#x174;" horiz-adv-x="944" 
d="M181 0l-155 700h149l95 -474l136 474h137l136 -473l95 473h144l-154 -700h-153l-138 488l-140 -488h-152zM542 784l-74 74l-73 -74h-110l115 136h140l115 -136h-113z" />
    <glyph glyph-name="wcircumflex" unicode="&#x175;" horiz-adv-x="772" 
d="M153 0l-143 521h130l86 -336l104 336h115l103 -337l86 337h128l-144 -521h-131l-101 333l-101 -333h-132zM458 605l-74 74l-73 -74h-110l115 136h140l115 -136h-113z" />
    <glyph glyph-name="Ycircumflex" unicode="&#x176;" horiz-adv-x="706" 
d="M280 0v268l-286 432h167l196 -304l197 304h158l-287 -433v-267h-145zM425 784l-74 74l-73 -74h-110l115 136h140l115 -136h-113z" />
    <glyph glyph-name="ycircumflex" unicode="&#x177;" horiz-adv-x="577" 
d="M105 -215q-18 0 -34.5 1.5t-27.5 3.5v118q20 -4 48 -4q75 0 104 71l8 20l-203 526h151l130 -355l147 355h148l-240 -563q-27 -63 -59 -101t-73.5 -55t-98.5 -17zM358 605l-74 74l-73 -74h-110l115 136h140l115 -136h-113z" />
    <glyph glyph-name="Ydieresis" unicode="&#x178;" horiz-adv-x="706" 
d="M280 0v268l-286 432h167l196 -304l197 304h158l-287 -433v-267h-145zM241 784q-30 0 -51 20t-21 52q0 31 21 51.5t51 20.5q31 0 51.5 -20.5t20.5 -51.5q0 -32 -20.5 -52t-51.5 -20zM465 784q-30 0 -51 20t-21 52q0 31 21 51.5t51 20.5q31 0 51.5 -20.5t20.5 -51.5
q0 -32 -20.5 -52t-51.5 -20z" />
    <glyph glyph-name="Zacute" unicode="&#x179;" horiz-adv-x="617" 
d="M21 0v99l386 475h-383v126h572v-99l-386 -475h390v-126h-579zM236 787l90 130h156l-135 -130h-111z" />
    <glyph glyph-name="zacute" unicode="&#x17a;" horiz-adv-x="499" 
d="M27 0v97l262 309h-260v115h435v-97l-262 -309h269v-115h-444zM164 608l90 130h156l-135 -130h-111z" />
    <glyph glyph-name="Zdotaccent" unicode="&#x17b;" horiz-adv-x="617" 
d="M21 0v99l386 475h-383v126h572v-99l-386 -475h390v-126h-579zM317 781q-32 0 -53.5 21t-21.5 52q0 30 21.5 51t53.5 21t53.5 -21t21.5 -51q0 -31 -21.5 -52t-53.5 -21z" />
    <glyph glyph-name="zdotaccent" unicode="&#x17c;" horiz-adv-x="499" 
d="M27 0v97l262 309h-260v115h435v-97l-262 -309h269v-115h-444zM245 602q-32 0 -53.5 21t-21.5 52q0 30 21.5 51t53.5 21t53.5 -21t21.5 -51q0 -31 -21.5 -52t-53.5 -21z" />
    <glyph glyph-name="Zcaron" unicode="&#x17d;" horiz-adv-x="617" 
d="M21 0v99l386 475h-383v126h572v-99l-386 -475h390v-126h-579zM245 920l73 -73l74 73h110l-115 -135h-140l-115 135h113z" />
    <glyph glyph-name="zcaron" unicode="&#x17e;" horiz-adv-x="499" 
d="M27 0v97l262 309h-260v115h435v-97l-262 -309h269v-115h-444zM173 741l73 -73l74 73h110l-115 -135h-140l-115 135h113z" />
    <glyph glyph-name="Scommaaccent" unicode="&#x218;" horiz-adv-x="631" 
d="M313 -10q-85 0 -166 31.5t-144 89.5l83 104q61 -54 117.5 -78t119.5 -24q44 0 76 10.5t49.5 30.5t17.5 47q0 36 -26 55.5t-89 30.5l-139 24q-89 15 -135.5 63t-46.5 124q0 65 33.5 113t95 73.5t146.5 25.5q77 0 153.5 -26t135.5 -72l-78 -108q-110 84 -221 84
q-39 0 -68 -10t-44.5 -27.5t-15.5 -41.5q0 -32 23 -49.5t77 -26.5l132 -22q105 -17 157 -66.5t52 -130.5q0 -68 -36 -118.5t-102.5 -78t-156.5 -27.5zM194 -285l51 205h129l-81 -205h-99z" />
    <glyph glyph-name="scommaaccent" unicode="&#x219;" horiz-adv-x="491" 
d="M249 -10q-72 0 -133 18.5t-106 53.5l68 91q45 -30 86.5 -45t82.5 -15q46 0 73.5 15.5t27.5 40.5q0 20 -15.5 32t-49.5 17l-100 15q-78 12 -118 50.5t-40 101.5q0 51 26.5 87.5t75 57t115.5 20.5q57 0 111.5 -16t102.5 -49l-66 -89q-43 27 -82 39t-79 12q-37 0 -59.5 -14
t-22.5 -37q0 -21 16 -33t55 -17l99 -15q78 -11 119 -49.5t41 -99.5q0 -50 -30 -88.5t-81 -61t-117 -22.5zM134 -286l51 205h129l-81 -205h-99z" />
    <glyph glyph-name="uni021A" unicode="&#x21a;" horiz-adv-x="652" 
d="M254 0v572h-236v128h616v-128h-235v-572h-145zM211 -286l51 205h129l-81 -205h-99z" />
    <glyph glyph-name="uni021B" unicode="&#x21b;" horiz-adv-x="424" 
d="M301 -8q-87 0 -131.5 39.5t-44.5 115.5v260h-107v114h107v133l137 31v-164h149v-114h-149v-232q0 -36 16 -51.5t56 -15.5q20 0 36.5 2.5t36.5 9.5v-113q-21 -7 -52.5 -11t-53.5 -4zM143 -286l51 205h129l-81 -205h-99z" />
    <glyph glyph-name="dotlessj" unicode="&#x237;" horiz-adv-x="244" 
d="M23 -214q-19 0 -39 2.5t-33 6.5v105q19 -4 45 -4q30 0 44 12.5t14 40.5v572h137v-581q0 -73 -44 -113.5t-124 -40.5z" />
    <glyph glyph-name="uni02BB" unicode="&#x2bb;" horiz-adv-x="250" 
d="M235 741l-68 -263h-142l107 263h103z" />
    <glyph glyph-name="uni02BC" unicode="&#x2bc;" horiz-adv-x="250" 
d="M19 478l68 263h142l-107 -263h-103z" />
    <glyph glyph-name="circumflex" unicode="&#x2c6;" 
d="M372 605l-74 74l-73 -74h-110l115 136h140l115 -136h-113z" />
    <glyph glyph-name="caron" unicode="&#x2c7;" 
d="M228 741l73 -73l74 73h110l-115 -135h-140l-115 135h113z" />
    <glyph glyph-name="breve" unicode="&#x2d8;" 
d="M300 600q-68 0 -114 35.5t-61 99.5l84 22q24 -80 91 -80q34 0 57 20t34 60l84 -22q-15 -64 -61 -99.5t-114 -35.5z" />
    <glyph glyph-name="dotaccent" unicode="&#x2d9;" 
d="M300 602q-32 0 -53.5 21t-21.5 52q0 30 21.5 51t53.5 21t53.5 -21t21.5 -51q0 -31 -21.5 -52t-53.5 -21z" />
    <glyph glyph-name="ring" unicode="&#x2da;" 
d="M300 585q-34 0 -62 16.5t-44.5 44t-16.5 60.5q0 32 16.5 59.5t44.5 44t62 16.5t62 -16.5t44.5 -44t16.5 -59.5q0 -33 -16.5 -60.5t-44.5 -44t-62 -16.5zM300 643q26 0 44.5 18t18.5 44q0 27 -18.5 45t-44.5 18t-44.5 -18t-18.5 -45q0 -26 18.5 -44t44.5 -18z" />
    <glyph glyph-name="ogonek" unicode="&#x2db;" 
d="M301 -221q-47 0 -76 25.5t-29 66.5q0 42 30 77.5t95 71.5l45 -20q-47 -28 -68.5 -53t-21.5 -52q0 -21 13 -32.5t37 -11.5q10 0 20.5 3t18.5 9l19 -62q-16 -10 -38 -16t-45 -6z" />
    <glyph glyph-name="tilde" unicode="&#x2dc;" 
d="M190 597l-84 18q27 121 114 121q28 0 54.5 -12.5t50.5 -25t42 -12.5q17 0 27 12t17 42l82 -18q-12 -62 -40.5 -92t-72.5 -30q-27 0 -53.5 12.5t-50.5 25t-44 12.5q-16 0 -26 -12t-16 -41z" />
    <glyph glyph-name="hungarumlaut" unicode="&#x2dd;" 
d="M132 610l101 127h136l-132 -127h-105zM339 610l101 127h138l-142 -127h-97z" />
    <glyph glyph-name="uni0327" unicode="&#x327;" horiz-adv-x="0" 
d="M305 -236q-75 0 -125 45l45 48q37 -29 78 -29q26 0 40.5 10.5t14.5 27.5t-15 27t-40 10h-42l28 97h67l-14 -46q44 -3 69.5 -27t25.5 -62q0 -43 -38 -72t-94 -29z" />
    <glyph glyph-name="uni0328" unicode="&#x328;" horiz-adv-x="0" 
d="M301 -221q-47 0 -76 25.5t-29 66.5q0 42 30 77.5t95 71.5l45 -20q-47 -28 -68.5 -53t-21.5 -52q0 -21 13 -32.5t37 -11.5q10 0 20.5 3t18.5 9l19 -62q-16 -10 -38 -16t-45 -6z" />
    <glyph glyph-name="Wgrave" unicode="&#x1e80;" horiz-adv-x="944" 
d="M181 0l-155 700h149l95 -474l136 474h137l136 -473l95 473h144l-154 -700h-153l-138 488l-140 -488h-152zM429 787l-135 130h158l88 -130h-111z" />
    <glyph glyph-name="wgrave" unicode="&#x1e81;" horiz-adv-x="772" 
d="M153 0l-143 521h130l86 -336l104 336h115l103 -337l86 337h128l-144 -521h-131l-101 333l-101 -333h-132zM345 608l-135 130h158l88 -130h-111z" />
    <glyph glyph-name="Wacute" unicode="&#x1e82;" horiz-adv-x="944" 
d="M181 0l-155 700h149l95 -474l136 474h137l136 -473l95 473h144l-154 -700h-153l-138 488l-140 -488h-152zM389 787l90 130h156l-135 -130h-111z" />
    <glyph glyph-name="wacute" unicode="&#x1e83;" horiz-adv-x="772" 
d="M153 0l-143 521h130l86 -336l104 336h115l103 -337l86 337h128l-144 -521h-131l-101 333l-101 -333h-132zM305 608l90 130h156l-135 -130h-111z" />
    <glyph glyph-name="Wdieresis" unicode="&#x1e84;" horiz-adv-x="944" 
d="M181 0l-155 700h149l95 -474l136 474h137l136 -473l95 473h144l-154 -700h-153l-138 488l-140 -488h-152zM358 784q-30 0 -51 20t-21 52q0 31 21 51.5t51 20.5q31 0 51.5 -20.5t20.5 -51.5q0 -32 -20.5 -52t-51.5 -20zM582 784q-30 0 -51 20t-21 52q0 31 21 51.5t51 20.5
q31 0 51.5 -20.5t20.5 -51.5q0 -32 -20.5 -52t-51.5 -20z" />
    <glyph glyph-name="wdieresis" unicode="&#x1e85;" horiz-adv-x="772" 
d="M153 0l-143 521h130l86 -336l104 336h115l103 -337l86 337h128l-144 -521h-131l-101 333l-101 -333h-132zM274 605q-30 0 -51 20t-21 52q0 31 21 51.5t51 20.5q31 0 51.5 -20.5t20.5 -51.5q0 -32 -20.5 -52t-51.5 -20zM498 605q-30 0 -51 20t-21 52q0 31 21 51.5t51 20.5
q31 0 51.5 -20.5t20.5 -51.5q0 -32 -20.5 -52t-51.5 -20z" />
    <glyph glyph-name="Ygrave" unicode="&#x1ef2;" horiz-adv-x="706" 
d="M280 0v268l-286 432h167l196 -304l197 304h158l-287 -433v-267h-145zM312 787l-135 130h158l88 -130h-111z" />
    <glyph glyph-name="ygrave" unicode="&#x1ef3;" horiz-adv-x="577" 
d="M105 -215q-18 0 -34.5 1.5t-27.5 3.5v118q20 -4 48 -4q75 0 104 71l8 20l-203 526h151l130 -355l147 355h148l-240 -563q-27 -63 -59 -101t-73.5 -55t-98.5 -17zM245 608l-135 130h158l88 -130h-111z" />
    <glyph glyph-name="enspace" unicode="&#x2002;" horiz-adv-x="500" 
 />
    <glyph glyph-name="emspace" unicode="&#x2003;" horiz-adv-x="1000" 
 />
    <glyph glyph-name="thinspace" unicode="&#x2009;" horiz-adv-x="175" 
 />
    <glyph glyph-name="hairspace" unicode="&#x200a;" horiz-adv-x="100" 
 />
    <glyph glyph-name="zerowidthspace" unicode="&#x200b;" horiz-adv-x="0" 
 />
    <glyph glyph-name="endash" unicode="&#x2013;" horiz-adv-x="558" 
d="M41 227v116h476v-116h-476z" />
    <glyph glyph-name="emdash" unicode="&#x2014;" horiz-adv-x="708" 
d="M41 227v116h626v-116h-626z" />
    <glyph glyph-name="uni2015" unicode="&#x2015;" horiz-adv-x="958" 
d="M41 227v116h876v-116h-876z" />
    <glyph glyph-name="quoteleft" unicode="&#x2018;" horiz-adv-x="250" 
d="M235 741l-68 -263h-142l107 263h103z" />
    <glyph glyph-name="quoteright" unicode="&#x2019;" horiz-adv-x="250" 
d="M19 478l68 263h142l-107 -263h-103z" />
    <glyph glyph-name="quotesinglbase" unicode="&#x201a;" horiz-adv-x="250" 
d="M3 -151l68 263h142l-107 -263h-103z" />
    <glyph glyph-name="quotedblleft" unicode="&#x201c;" horiz-adv-x="442" 
d="M235 741l-68 -263h-142l107 263h103zM427 741l-68 -263h-142l107 263h103z" />
    <glyph glyph-name="quotedblright" unicode="&#x201d;" horiz-adv-x="442" 
d="M211 478l68 263h142l-107 -263h-103zM19 478l68 263h142l-107 -263h-103z" />
    <glyph glyph-name="quotedblbase" unicode="&#x201e;" horiz-adv-x="442" 
d="M195 -151l68 263h142l-107 -263h-103zM3 -151l68 263h142l-107 -263h-103z" />
    <glyph glyph-name="dagger" unicode="&#x2020;" horiz-adv-x="449" 
d="M169 0v413h-121v106h121v181h111v-181h121v-106h-121v-413h-111z" />
    <glyph glyph-name="daggerdbl" unicode="&#x2021;" horiz-adv-x="449" 
d="M169 0v181h-121v106h121v126h-121v106h121v181h111v-181h121v-106h-121v-126h121v-106h-121v-181h-111z" />
    <glyph glyph-name="bullet" unicode="&#x2022;" horiz-adv-x="355" 
d="M177 216q-32 0 -59 15.5t-42.5 41.5t-15.5 58q0 33 15.5 59t42.5 42t59 16q33 0 59.5 -16t42.5 -42t16 -59q0 -32 -16 -58t-42.5 -41.5t-59.5 -15.5z" />
    <glyph glyph-name="ellipsis" unicode="&#x2026;" horiz-adv-x="707" 
d="M125 -10q-33 0 -57 24t-24 57q0 34 24 58t57 24t57 -24t24 -58q0 -33 -24 -57t-57 -24zM354 -10q-33 0 -57 24t-24 57q0 34 24 58t57 24t57 -24t24 -58q0 -33 -24 -57t-57 -24zM582 -10q-33 0 -57 24t-24 57q0 34 24 58t57 24t57 -24t24 -58q0 -33 -24 -57t-57 -24z" />
    <glyph glyph-name="perthousand" unicode="&#x2030;" horiz-adv-x="1148" 
d="M182 345q-73 0 -116.5 49.5t-43.5 131.5q0 80 44 130t116 50q71 0 115 -50t44 -130q0 -82 -43.5 -131.5t-115.5 -49.5zM182 418q36 0 56.5 28.5t20.5 79.5q0 49 -21 78t-56 29q-36 0 -56.5 -29t-21.5 -78q1 -51 21 -79.5t57 -28.5zM143 0l396 700h102l-396 -700h-102z
M612 -5q-73 0 -116.5 49.5t-43.5 131.5q0 80 44 130t116 50q71 0 115 -50t44 -130q0 -82 -43.5 -131.5t-115.5 -49.5zM612 68q36 0 56.5 28.5t20.5 79.5q0 49 -21 78t-56 29q-36 0 -56.5 -29t-21.5 -78q1 -51 21 -79.5t57 -28.5zM967 -5q-73 0 -116.5 49.5t-43.5 131.5
q0 80 44 130t116 50q71 0 115 -50t44 -130q0 -82 -43.5 -131.5t-115.5 -49.5zM967 68q36 0 56.5 28.5t20.5 79.5q0 49 -21 78t-56 29q-36 0 -56.5 -29t-21.5 -78q1 -51 21 -79.5t57 -28.5z" />
    <glyph glyph-name="uni2032" unicode="&#x2032;" horiz-adv-x="250" 
d="M19 478l68 263h142l-107 -263h-103z" />
    <glyph glyph-name="uni2033" unicode="&#x2033;" horiz-adv-x="442" 
d="M211 478l68 263h142l-107 -263h-103zM19 478l68 263h142l-107 -263h-103z" />
    <glyph glyph-name="guilsinglleft" unicode="&#x2039;" horiz-adv-x="431" 
d="M261 0l-242 261l242 260h140l-236 -259l239 -262h-143z" />
    <glyph glyph-name="guilsinglright" unicode="&#x203a;" horiz-adv-x="431" 
d="M170 521l242 -261l-242 -260h-140l236 259l-239 262h143z" />
    <glyph glyph-name="fraction" unicode="&#x2044;" horiz-adv-x="577" 
d="M18 0l396 700h102l-396 -700h-102z" />
    <glyph glyph-name="uni2070" unicode="&#x2070;" horiz-adv-x="362" 
d="M182 345q-73 0 -116.5 49.5t-43.5 131.5q0 80 44 130t116 50q71 0 115 -50t44 -130q0 -82 -43.5 -131.5t-115.5 -49.5zM182 418q36 0 56.5 28.5t20.5 79.5q0 49 -21 78t-56 29q-36 0 -56.5 -29t-21.5 -78q1 -51 21 -79.5t57 -28.5z" />
    <glyph glyph-name="uni2074" unicode="&#x2074;" horiz-adv-x="356" 
d="M218 350v77h-197v68l183 205h98v-204h44v-69h-44v-77h-84zM116 496h102v113z" />
    <glyph glyph-name="uni2075" unicode="&#x2075;" horiz-adv-x="324" 
d="M153 344q-78 0 -133 47l51 59q22 -18 41.5 -26t43.5 -8q29 0 45 13t16 34q0 19 -17.5 32t-47.5 13q-13 0 -28 -3t-29 -10l-56 17l8 188h237v-71h-169l-3 -64q15 5 29.5 7t29.5 2q61 0 97 -30.5t36 -79.5q0 -54 -41.5 -87t-109.5 -33z" />
    <glyph glyph-name="uni2076" unicode="&#x2076;" horiz-adv-x="338" 
d="M182 344q-72 0 -116.5 49t-44.5 128q0 84 49 134.5t128 50.5q32 0 62.5 -10.5t51.5 -28.5l-50 -60q-16 14 -32.5 19.5t-38.5 5.5q-39 0 -61 -25.5t-25 -75.5q17 17 40.5 27t49.5 10q54 0 88.5 -30t34.5 -77q0 -50 -38.5 -83.5t-97.5 -33.5zM182 502q-21 0 -38.5 -7.5
t-31.5 -23.5q8 -26 25 -40.5t41 -14.5q25 0 41 12t16 31t-14.5 31t-38.5 12z" />
    <glyph glyph-name="uni2077" unicode="&#x2077;" horiz-adv-x="320" 
d="M60 350l151 277h-193v73h290v-62l-146 -288h-102z" />
    <glyph glyph-name="uni2078" unicode="&#x2078;" horiz-adv-x="336" 
d="M168 344q-65 0 -104.5 29.5t-39.5 76.5q0 26 15 46.5t39 31.5q-20 13 -32 32.5t-12 42.5q0 44 38 73.5t95 29.5q58 0 96.5 -29.5t38.5 -73.5q0 -23 -12 -42.5t-32 -32.5q25 -11 39.5 -31.5t14.5 -46.5q0 -47 -40 -76.5t-104 -29.5zM168 558q22 0 36.5 11t14.5 28
t-14.5 28.5t-36.5 11.5t-36.5 -11.5t-14.5 -28.5t14.5 -28t36.5 -11zM168 414q27 0 43.5 11.5t16.5 29.5t-16.5 29.5t-43.5 11.5q-26 0 -42.5 -11.5t-16.5 -29.5t16.5 -29.5t42.5 -11.5z" />
    <glyph glyph-name="uni2079" unicode="&#x2079;" horiz-adv-x="338" 
d="M156 706q72 0 117 -48.5t45 -127.5q0 -83 -49 -134.5t-129 -51.5q-31 0 -62 11t-51 29l49 59q16 -13 32.5 -19t38.5 -6q40 0 61.5 26t24.5 76q-17 -18 -40 -27.5t-50 -9.5q-54 0 -88.5 30t-34.5 77q0 50 38.5 83t97.5 33zM156 548q21 0 38.5 8t31.5 23q-8 26 -25 41
t-41 15q-25 0 -41 -12.5t-16 -31.5t15 -31t38 -12z" />
    <glyph glyph-name="uni2080" unicode="&#x2080;" horiz-adv-x="362" 
d="M182 -5q-73 0 -116.5 49.5t-43.5 131.5q0 80 44 130t116 50q71 0 115 -50t44 -130q0 -82 -43.5 -131.5t-115.5 -49.5zM182 68q36 0 56.5 28.5t20.5 79.5q0 49 -21 78t-56 29q-36 0 -56.5 -29t-21.5 -78q1 -51 21 -79.5t57 -28.5z" />
    <glyph glyph-name="uni2081" unicode="&#x2081;" horiz-adv-x="195" 
d="M89 0v265l-73 -29v72l105 42h53v-350h-85z" />
    <glyph glyph-name="uni2082" unicode="&#x2082;" horiz-adv-x="307" 
d="M27 0v60l141 121q17 16 26 29.5t9 27.5q0 20 -15.5 32.5t-39.5 12.5q-25 0 -46 -10t-47 -33l-47 56q32 28 68.5 43t74.5 16q59 -1 96.5 -31.5t37.5 -80.5q0 -30 -15.5 -56t-49.5 -55l-70 -62h138v-70h-261z" />
    <glyph glyph-name="uni2083" unicode="&#x2083;" horiz-adv-x="329" 
d="M159 -5q-43 0 -81.5 15t-62.5 42l57 52q21 -21 39 -29t47 -8t45.5 11t16.5 28q0 14 -14.5 22.5t-40.5 8.5h-33v67h24q25 0 40 11.5t15 29.5q0 17 -15 27t-38 10q-26 0 -43.5 -8.5t-39.5 -31.5l-57 52q26 28 64 45t79 17q60 0 98 -28t37 -73q1 -25 -12 -46t-36 -35
q27 -10 42.5 -29.5t15.5 -45.5q0 -46 -41.5 -75t-105.5 -29z" />
    <glyph glyph-name="uni2084" unicode="&#x2084;" horiz-adv-x="356" 
d="M218 0v77h-197v68l183 205h98v-204h44v-69h-44v-77h-84zM116 146h102v113z" />
    <glyph glyph-name="uni2085" unicode="&#x2085;" horiz-adv-x="324" 
d="M153 -6q-78 0 -133 47l51 59q22 -18 41.5 -26t43.5 -8q29 0 45 13t16 34q0 19 -17.5 32t-47.5 13q-13 0 -28 -3t-29 -10l-56 17l8 188h237v-71h-169l-3 -64q15 5 29.5 7t29.5 2q61 0 97 -30.5t36 -79.5q0 -54 -41.5 -87t-109.5 -33z" />
    <glyph glyph-name="uni2086" unicode="&#x2086;" horiz-adv-x="338" 
d="M182 -6q-72 0 -116.5 49t-44.5 128q0 84 49 134.5t128 50.5q32 0 62.5 -10.5t51.5 -28.5l-50 -60q-16 14 -32.5 19.5t-38.5 5.5q-39 0 -61 -25.5t-25 -75.5q17 17 40.5 27t49.5 10q54 0 88.5 -30t34.5 -77q0 -50 -38.5 -83.5t-97.5 -33.5zM182 152q-21 0 -38.5 -7.5
t-31.5 -23.5q8 -26 25 -40.5t41 -14.5q25 0 41 12t16 31t-14.5 31t-38.5 12z" />
    <glyph glyph-name="uni2087" unicode="&#x2087;" horiz-adv-x="320" 
d="M60 0l151 277h-193v73h290v-62l-146 -288h-102z" />
    <glyph glyph-name="uni2088" unicode="&#x2088;" horiz-adv-x="336" 
d="M168 -6q-65 0 -104.5 29.5t-39.5 76.5q0 26 15 46.5t39 31.5q-20 13 -32 32.5t-12 42.5q0 44 38 73.5t95 29.5q58 0 96.5 -29.5t38.5 -73.5q0 -23 -12 -42.5t-32 -32.5q25 -11 39.5 -31.5t14.5 -46.5q0 -47 -40 -76.5t-104 -29.5zM168 208q22 0 36.5 11t14.5 28
t-14.5 28.5t-36.5 11.5t-36.5 -11.5t-14.5 -28.5t14.5 -28t36.5 -11zM168 64q27 0 43.5 11.5t16.5 29.5t-16.5 29.5t-43.5 11.5q-26 0 -42.5 -11.5t-16.5 -29.5t16.5 -29.5t42.5 -11.5z" />
    <glyph glyph-name="uni2089" unicode="&#x2089;" horiz-adv-x="338" 
d="M156 356q72 0 116.5 -49t44.5 -128q0 -84 -49 -134.5t-128 -50.5q-32 0 -62.5 10.5t-51.5 28.5l50 60q16 -14 32.5 -19.5t38.5 -5.5q39 0 61 25.5t25 75.5q-17 -17 -40.5 -27t-49.5 -10q-54 0 -88.5 30t-34.5 77q0 50 38.5 83.5t97.5 33.5zM156 198q21 0 38.5 7.5
t31.5 23.5q-8 26 -25 40.5t-41 14.5q-25 0 -41 -12t-16 -31t14.5 -31t38.5 -12z" />
    <glyph glyph-name="Euro" unicode="&#x20ac;" horiz-adv-x="790" 
d="M472 -11q-88 0 -159 32t-120 91t-69 137h-89v70h79q-1 8 -1.5 15.5t-0.5 15.5t0.5 16t1.5 15h-79v71h90q20 78 68.5 136.5t120 90.5t158.5 32q92 0 164.5 -32.5t119.5 -96.5l-93 -70q-29 42 -79.5 64.5t-110.5 22.5q-52 0 -94.5 -18t-73 -51t-47.5 -78h256l-27 -71h-245
q-1 -7 -1 -15v-16v-15.5t1 -15.5h223l-27 -70h-180q17 -46 47.5 -79t72.5 -51t94 -18q60 0 111.5 23t80.5 63l91 -69q-48 -63 -120 -96t-163 -33z" />
    <glyph glyph-name="trademark" unicode="&#x2122;" horiz-adv-x="689" 
d="M328 421v279h85l73 -148l73 148h85v-279h-67l2 197l-93 -179l-95 178l1 -196h-64zM119 421v220h-93v59h257v-59h-93v-220h-71z" />
    <glyph glyph-name="uni2191" unicode="&#x2191;" horiz-adv-x="615" 
d="M243 0v514l-144 -179l-80 69l289 346l287 -345l-82 -72l-142 179v-512h-128z" />
    <glyph glyph-name="uni2193" unicode="&#x2193;" horiz-adv-x="615" 
d="M371 700v-514l144 179l80 -69l-289 -346l-287 345l82 72l142 -179v512h128z" />
    <glyph glyph-name="minus" unicode="&#x2212;" 
d="M83 307v103h434v-103h-434z" />
    <glyph glyph-name="uni2215" unicode="&#x2215;" horiz-adv-x="577" 
d="M19 0l396 700h100l-397 -700h-99z" />
    <glyph glyph-name="notequal" unicode="&#x2260;" 
d="M89 93l71 113h-77v103h139l56 88h-195v103h258l69 112h101l-69 -112h75v-103h-138l-55 -88h193v-103h-255l-71 -113h-102z" />
    <glyph glyph-name="fi" unicode="&#xfb01;" horiz-adv-x="672" 
d="M134 0v407h-116v114h116v50q0 88 51 134.5t147 46.5q21 0 43 -2t38 -7v-115q-19 4 -33 6t-31 2q-39 0 -58.5 -16.5t-19.5 -51.5v-47h142v-114h-142v-407h-137zM485 0v521h137v-521h-137zM553 583q-32 0 -55 23t-23 55q0 33 23 55.5t55 22.5q33 0 55.5 -22.5t22.5 -55.5
q0 -32 -22.5 -55t-55.5 -23z" />
    <glyph glyph-name="fl" unicode="&#xfb02;" horiz-adv-x="672" 
d="M134 0v407h-116v114h116v50q0 88 51 134.5t147 46.5q21 0 43 -2t38 -7v-115q-19 4 -33 6t-31 2q-39 0 -58.5 -16.5t-19.5 -51.5v-47h142v-114h-142v-407h-137zM485 0v700l137 23v-723h-137z" />
    <glyph glyph-name="uniFEFF" unicode="&#xfeff;" horiz-adv-x="0" 
 />
    <glyph glyph-name="uniFFFD" unicode="&#xfffd;" horiz-adv-x="538" 
d="M72 -100v850h394v-850h-394z" />
    <glyph glyph-name="NULL" horiz-adv-x="201" 
 />
    <glyph glyph-name="CR" horiz-adv-x="201" 
 />
    <glyph glyph-name="idotaccent" horiz-adv-x="241" 
d="M54 0v521h137v-521h-137zM122 583q-32 0 -55 23t-23 55q0 33 23 55.5t55 22.5q33 0 55.5 -22.5t22.5 -55.5q0 -32 -22.5 -55t-55.5 -23z" />
    <glyph glyph-name="a.school" horiz-adv-x="631" 
d="M295 -7q-74 0 -134 36t-95.5 96.5t-35.5 135.5t35.5 135.5t96.5 96t137 35.5q38 0 74.5 -10.5t67.5 -30.5v34h137v-521h-135v43q-64 -50 -148 -50zM317 110q38 0 69.5 12.5t54.5 37.5v203q-23 23 -55 36t-69 13q-43 0 -77.5 -19.5t-54.5 -54t-20 -77.5t20 -77t54.5 -54
t77.5 -20z" />
    <glyph glyph-name="aacute.school" horiz-adv-x="631" 
d="M295 -7q-74 0 -134 36t-95.5 96.5t-35.5 135.5t35.5 135.5t96.5 96t137 35.5q38 0 74.5 -10.5t67.5 -30.5v34h137v-521h-135v43q-64 -50 -148 -50zM317 110q38 0 69.5 12.5t54.5 37.5v203q-23 23 -55 36t-69 13q-43 0 -77.5 -19.5t-54.5 -54t-20 -77.5t20 -77t54.5 -54
t77.5 -20zM234 608l90 130h156l-135 -130h-111z" />
    <glyph glyph-name="abreve.school" horiz-adv-x="631" 
d="M295 -7q-74 0 -134 36t-95.5 96.5t-35.5 135.5t35.5 135.5t96.5 96t137 35.5q38 0 74.5 -10.5t67.5 -30.5v34h137v-521h-135v43q-64 -50 -148 -50zM317 110q38 0 69.5 12.5t54.5 37.5v203q-23 23 -55 36t-69 13q-43 0 -77.5 -19.5t-54.5 -54t-20 -77.5t20 -77t54.5 -54
t77.5 -20zM315 600q-68 0 -114 35.5t-61 99.5l84 22q24 -80 91 -80q34 0 57 20t34 60l84 -22q-15 -64 -61 -99.5t-114 -35.5z" />
    <glyph glyph-name="acircumflex.school" horiz-adv-x="631" 
d="M295 -7q-74 0 -134 36t-95.5 96.5t-35.5 135.5t35.5 135.5t96.5 96t137 35.5q38 0 74.5 -10.5t67.5 -30.5v34h137v-521h-135v43q-64 -50 -148 -50zM317 110q38 0 69.5 12.5t54.5 37.5v203q-23 23 -55 36t-69 13q-43 0 -77.5 -19.5t-54.5 -54t-20 -77.5t20 -77t54.5 -54
t77.5 -20zM387 605l-74 74l-73 -74h-110l115 136h140l115 -136h-113z" />
    <glyph glyph-name="adieresis.school" horiz-adv-x="631" 
d="M295 -7q-74 0 -134 36t-95.5 96.5t-35.5 135.5t35.5 135.5t96.5 96t137 35.5q38 0 74.5 -10.5t67.5 -30.5v34h137v-521h-135v43q-64 -50 -148 -50zM317 110q38 0 69.5 12.5t54.5 37.5v203q-23 23 -55 36t-69 13q-43 0 -77.5 -19.5t-54.5 -54t-20 -77.5t20 -77t54.5 -54
t77.5 -20zM203 605q-30 0 -51 20t-21 52q0 31 21 51.5t51 20.5q31 0 51.5 -20.5t20.5 -51.5q0 -32 -20.5 -52t-51.5 -20zM427 605q-30 0 -51 20t-21 52q0 31 21 51.5t51 20.5q31 0 51.5 -20.5t20.5 -51.5q0 -32 -20.5 -52t-51.5 -20z" />
    <glyph glyph-name="agrave.school" horiz-adv-x="631" 
d="M295 -7q-74 0 -134 36t-95.5 96.5t-35.5 135.5t35.5 135.5t96.5 96t137 35.5q38 0 74.5 -10.5t67.5 -30.5v34h137v-521h-135v43q-64 -50 -148 -50zM317 110q38 0 69.5 12.5t54.5 37.5v203q-23 23 -55 36t-69 13q-43 0 -77.5 -19.5t-54.5 -54t-20 -77.5t20 -77t54.5 -54
t77.5 -20zM274 608l-135 130h158l88 -130h-111z" />
    <glyph glyph-name="amacron.school" horiz-adv-x="631" 
d="M295 -7q-74 0 -134 36t-95.5 96.5t-35.5 135.5t35.5 135.5t96.5 96t137 35.5q38 0 74.5 -10.5t67.5 -30.5v34h137v-521h-135v43q-64 -50 -148 -50zM317 110q38 0 69.5 12.5t54.5 37.5v203q-23 23 -55 36t-69 13q-43 0 -77.5 -19.5t-54.5 -54t-20 -77.5t20 -77t54.5 -54
t77.5 -20zM155 625v86h320v-86h-320z" />
    <glyph glyph-name="aogonek.school" horiz-adv-x="631" 
d="M513 -221q-48 0 -76.5 25.5t-28.5 66.5q0 36 21.5 67.5t68.5 61.5h-55v43q-64 -50 -148 -50q-74 0 -134 36t-95.5 96.5t-35.5 135.5t35.5 135.5t96.5 96t137 35.5q39 0 75 -10.5t67 -30.5v34h137v-521q-47 -28 -68.5 -53t-21.5 -52q0 -21 13 -32.5t37 -11.5q10 0 20.5 3
t18.5 9l19 -62q-16 -10 -38 -16t-45 -6zM165 261q0 -43 20 -77t54.5 -54t77.5 -20q38 0 69.5 12.5t54.5 37.5v203q-23 23 -55 36t-69 13q-43 0 -77.5 -19.5t-54.5 -54t-20 -77.5z" />
    <glyph glyph-name="aring.school" horiz-adv-x="631" 
d="M295 -7q-74 0 -134 36t-95.5 96.5t-35.5 135.5t35.5 135.5t96.5 96t137 35.5q38 0 74.5 -10.5t67.5 -30.5v34h137v-521h-135v43q-64 -50 -148 -50zM317 110q38 0 69.5 12.5t54.5 37.5v203q-23 23 -55 36t-69 13q-43 0 -77.5 -19.5t-54.5 -54t-20 -77.5t20 -77t54.5 -54
t77.5 -20zM315 585q-34 0 -62 16.5t-44.5 44t-16.5 60.5q0 32 16.5 59.5t44.5 44t62 16.5t62 -16.5t44.5 -44t16.5 -59.5q0 -33 -16.5 -60.5t-44.5 -44t-62 -16.5zM315 643q26 0 44.5 18t18.5 44q0 27 -18.5 45t-44.5 18t-44.5 -18t-18.5 -45q0 -26 18.5 -44t44.5 -18z" />
    <glyph glyph-name="atilde.school" horiz-adv-x="631" 
d="M295 -7q-74 0 -134 36t-95.5 96.5t-35.5 135.5t35.5 135.5t96.5 96t137 35.5q38 0 74.5 -10.5t67.5 -30.5v34h137v-521h-135v43q-64 -50 -148 -50zM317 110q38 0 69.5 12.5t54.5 37.5v203q-23 23 -55 36t-69 13q-43 0 -77.5 -19.5t-54.5 -54t-20 -77.5t20 -77t54.5 -54
t77.5 -20zM205 597l-84 18q27 121 114 121q28 0 54.5 -12.5t50.5 -25t42 -12.5q17 0 27 12t17 42l82 -18q-12 -62 -40.5 -92t-72.5 -30q-27 0 -53.5 12.5t-50.5 25t-44 12.5q-16 0 -26 -12t-16 -41z" />
    <glyph glyph-name="g.alt" horiz-adv-x="599" 
d="M279 -214q-126 0 -192.5 31t-66.5 91q0 32 26.5 58t71.5 41q-34 27 -34 72q0 31 18 55.5t49 39.5q-44 26 -70.5 68t-26.5 92q0 56 31 100.5t84 70.5t119 26q43 0 82 -12t70 -33q23 35 54.5 53.5t67.5 18.5q10 0 18 -1.5t15 -3.5l2 -103q-7 2 -17 2.5t-20 0.5
q-42 0 -72 -15q16 -22 25 -48.5t9 -55.5q0 -54 -31.5 -99t-84 -71t-118.5 -26q-17 0 -33.5 2t-32.5 5q-20 -10 -20 -27q0 -32 55 -34l175 -4q74 -2 117 -34t43 -87q0 -53 -38.5 -92t-108.5 -60t-166 -21zM288 240q30 0 54 12t38 34t14 48q0 28 -14 49.5t-38 33.5t-54 12
t-54 -12t-38 -33.5t-14 -49.5q0 -26 14 -48t38 -34t54 -12zM277 -128q83 0 130.5 16t47.5 44q0 31 -45 31l-151 4q-17 1 -32 2.5t-29 3.5q-26 -5 -40.5 -17.5t-14.5 -30.5q0 -26 33.5 -39.5t100.5 -13.5z" />
    <glyph glyph-name="gbreve.alt" horiz-adv-x="599" 
d="M279 -214q-126 0 -192.5 31t-66.5 91q0 32 26.5 58t71.5 41q-34 27 -34 72q0 31 18 55.5t49 39.5q-44 26 -70.5 68t-26.5 92q0 56 31 100.5t84 70.5t119 26q43 0 82 -12t70 -33q23 35 54.5 53.5t67.5 18.5q10 0 18 -1.5t15 -3.5l2 -103q-7 2 -17 2.5t-20 0.5
q-42 0 -72 -15q16 -22 25 -48.5t9 -55.5q0 -54 -31.5 -99t-84 -71t-118.5 -26q-17 0 -33.5 2t-32.5 5q-20 -10 -20 -27q0 -32 55 -34l175 -4q74 -2 117 -34t43 -87q0 -53 -38.5 -92t-108.5 -60t-166 -21zM288 240q30 0 54 12t38 34t14 48q0 28 -14 49.5t-38 33.5t-54 12
t-54 -12t-38 -33.5t-14 -49.5q0 -26 14 -48t38 -34t54 -12zM277 -128q83 0 130.5 16t47.5 44q0 31 -45 31l-151 4q-17 1 -32 2.5t-29 3.5q-26 -5 -40.5 -17.5t-14.5 -30.5q0 -26 33.5 -39.5t100.5 -13.5zM289 600q-68 0 -114 35.5t-61 99.5l84 22q24 -80 91 -80q34 0 57 20
t34 60l84 -22q-15 -64 -61 -99.5t-114 -35.5z" />
    <glyph glyph-name="gcircumflex.alt" horiz-adv-x="599" 
d="M279 -214q-126 0 -192.5 31t-66.5 91q0 32 26.5 58t71.5 41q-34 27 -34 72q0 31 18 55.5t49 39.5q-44 26 -70.5 68t-26.5 92q0 56 31 100.5t84 70.5t119 26q43 0 82 -12t70 -33q23 35 54.5 53.5t67.5 18.5q10 0 18 -1.5t15 -3.5l2 -103q-7 2 -17 2.5t-20 0.5
q-42 0 -72 -15q16 -22 25 -48.5t9 -55.5q0 -54 -31.5 -99t-84 -71t-118.5 -26q-17 0 -33.5 2t-32.5 5q-20 -10 -20 -27q0 -32 55 -34l175 -4q74 -2 117 -34t43 -87q0 -53 -38.5 -92t-108.5 -60t-166 -21zM288 240q30 0 54 12t38 34t14 48q0 28 -14 49.5t-38 33.5t-54 12
t-54 -12t-38 -33.5t-14 -49.5q0 -26 14 -48t38 -34t54 -12zM277 -128q83 0 130.5 16t47.5 44q0 31 -45 31l-151 4q-17 1 -32 2.5t-29 3.5q-26 -5 -40.5 -17.5t-14.5 -30.5q0 -26 33.5 -39.5t100.5 -13.5zM361 605l-74 74l-73 -74h-110l115 136h140l115 -136h-113z" />
    <glyph glyph-name="gcommaaccent.alt" horiz-adv-x="599" 
d="M279 -214q-126 0 -192.5 31t-66.5 91q0 32 26.5 58t71.5 41q-34 27 -34 72q0 31 18 55.5t49 39.5q-44 26 -70.5 68t-26.5 92q0 56 31 100.5t84 70.5t119 26q43 0 82 -12t70 -33q23 35 54.5 53.5t67.5 18.5q10 0 18 -1.5t15 -3.5l2 -103q-7 2 -17 2.5t-20 0.5
q-42 0 -72 -15q16 -22 25 -48.5t9 -55.5q0 -54 -31.5 -99t-84 -71t-118.5 -26q-17 0 -33.5 2t-32.5 5q-20 -10 -20 -27q0 -32 55 -34l175 -4q74 -2 117 -34t43 -87q0 -53 -38.5 -92t-108.5 -60t-166 -21zM288 240q30 0 54 12t38 34t14 48q0 28 -14 49.5t-38 33.5t-54 12
t-54 -12t-38 -33.5t-14 -49.5q0 -26 14 -48t38 -34t54 -12zM277 -128q83 0 130.5 16t47.5 44q0 31 -45 31l-151 4q-17 1 -32 2.5t-29 3.5q-26 -5 -40.5 -17.5t-14.5 -30.5q0 -26 33.5 -39.5t100.5 -13.5zM414 817l-51 -205h-129l81 205h99z" />
    <glyph glyph-name="gdotaccent.alt" horiz-adv-x="599" 
d="M279 -214q-126 0 -192.5 31t-66.5 91q0 32 26.5 58t71.5 41q-34 27 -34 72q0 31 18 55.5t49 39.5q-44 26 -70.5 68t-26.5 92q0 56 31 100.5t84 70.5t119 26q43 0 82 -12t70 -33q23 35 54.5 53.5t67.5 18.5q10 0 18 -1.5t15 -3.5l2 -103q-7 2 -17 2.5t-20 0.5
q-42 0 -72 -15q16 -22 25 -48.5t9 -55.5q0 -54 -31.5 -99t-84 -71t-118.5 -26q-17 0 -33.5 2t-32.5 5q-20 -10 -20 -27q0 -32 55 -34l175 -4q74 -2 117 -34t43 -87q0 -53 -38.5 -92t-108.5 -60t-166 -21zM288 240q30 0 54 12t38 34t14 48q0 28 -14 49.5t-38 33.5t-54 12
t-54 -12t-38 -33.5t-14 -49.5q0 -26 14 -48t38 -34t54 -12zM277 -128q83 0 130.5 16t47.5 44q0 31 -45 31l-151 4q-17 1 -32 2.5t-29 3.5q-26 -5 -40.5 -17.5t-14.5 -30.5q0 -26 33.5 -39.5t100.5 -13.5zM289 602q-32 0 -53.5 21t-21.5 52q0 30 21.5 51t53.5 21t53.5 -21
t21.5 -51q0 -31 -21.5 -52t-53.5 -21z" />
    <glyph glyph-name="caronSlovak" 
d="M306 501l4 199l111 21l-36 -220h-79z" />
    <glyph glyph-name="commaaccent" 
d="M184 -286l51 205h129l-81 -205h-99z" />
    <glyph glyph-name="exclamdown.cap" horiz-adv-x="253" 
d="M185 490l17 -495h-139l17 495h105zM133 710q33 0 57 -24t24 -57q0 -34 -24 -58t-57 -24q-34 0 -58 24t-24 58q0 33 24 57t58 24z" />
    <glyph glyph-name="questiondown.cap" horiz-adv-x="528" 
d="M349 487q2 -46 -4 -78t-24 -57.5t-49 -48.5l-52 -37q-31 -23 -44.5 -42.5t-13.5 -40.5q0 -23 14 -40.5t38 -28t55 -10.5q45 0 83 23t58 62l110 -46q-22 -48 -60 -82t-88.5 -53t-107.5 -19q-68 0 -121 24.5t-84 66.5t-31 96q0 36 11.5 64.5t38.5 55.5t74 59l27 19
q32 21 44.5 47t10.5 66h115zM291 710q33 0 57 -24t24 -57q0 -34 -24 -58t-57 -24t-57 24t-24 58q0 33 24 57t57 24z" />
    <glyph glyph-name="periodcentered.cap" horiz-adv-x="256" 
d="M125 270q-33 0 -57 23.5t-24 57.5q0 33 24 57t57 24t57 -24t24 -57q0 -34 -24 -57.5t-57 -23.5z" />
    <glyph glyph-name="hyphen.cap" horiz-adv-x="458" 
d="M41 292v116h376v-116h-376z" />
    <glyph glyph-name="endash.cap" horiz-adv-x="558" 
d="M41 292v116h476v-116h-476z" />
    <glyph glyph-name="emdash.cap" horiz-adv-x="708" 
d="M41 292v116h626v-116h-626z" />
    <glyph glyph-name="uni2015.cap" horiz-adv-x="958" 
d="M41 292v116h876v-116h-876z" />
    <glyph glyph-name="at.cap" horiz-adv-x="789" 
d="M411 -13q-81 0 -149 26t-118 73.5t-77.5 111.5t-27.5 140q0 80 28 148.5t78 119.5t118 79t148 28q72 0 133.5 -23.5t107.5 -65t72 -96.5t26 -119q0 -68 -24.5 -120t-67.5 -81.5t-100 -29.5q-74 0 -104 41q-22 -20 -49 -30.5t-55 -10.5q-41 0 -74.5 21t-52.5 56.5
t-19 78.5q0 52 24 93t64 66t91 25q53 0 91 -32l4 19h97l-43 -206q-5 -25 6 -38.5t35 -13.5q30 0 54 20t37 55t13 80q0 72 -35.5 128t-96 89t-137.5 33q-62 0 -116.5 -23.5t-95 -65t-63 -98t-22.5 -121.5q0 -86 38 -151t105.5 -102t155.5 -37q91 0 164 35l26 -58
q-47 -22 -93.5 -33t-95.5 -11zM373 258q36 0 63 25q1 7 1.5 14t2.5 16l17 89q-12 17 -29.5 25.5t-41.5 8.5q-23 0 -43.5 -12.5t-32.5 -34t-12 -47.5q0 -37 21 -60.5t54 -23.5z" />
    <glyph glyph-name="zero.tab" 
d="M300 -11q-80 0 -140.5 43.5t-94.5 124t-34 193.5t34 193.5t94.5 124t140.5 43.5t140.5 -43.5t94.5 -124t34 -193.5t-34 -193.5t-94.5 -124t-140.5 -43.5zM182 214l190 353q-15 14 -33 21t-39 7q-42 0 -73.5 -30t-48.5 -85t-17 -130q0 -40 5.5 -74.5t15.5 -61.5zM300 105
q42 0 73.5 30t48.5 85t17 130q0 41 -5.5 75.5t-15.5 61.5l-190 -354q31 -28 72 -28z" />
    <glyph glyph-name="one.tab" 
d="M61 0v112h177v451l-177 -74v116l226 95h82v-588h180v-112h-488z" />
    <glyph glyph-name="two.tab" 
d="M56 0v94l292 296q21 22 33.5 41t18 37.5t5.5 37.5q0 39 -32.5 65t-82.5 26q-48 0 -89 -19.5t-90 -66.5l-74 90q59 55 123 82.5t134 27.5q71 0 125 -25t84 -69t30 -103q0 -34 -9.5 -64t-30.5 -60.5t-56 -65.5l-212 -213l319 1v-112h-488z" />
    <glyph glyph-name="three.tab" 
d="M289 -11q-81 0 -150.5 28.5t-116.5 80.5l88 82q40 -43 79.5 -59.5t97.5 -16.5q42 0 73.5 12.5t49 35.5t17.5 53q0 28 -14 48t-38 31.5t-57 11.5h-88v108h76q47 0 74 24.5t27 67.5q0 28 -16 50.5t-43.5 35.5t-62.5 13q-52 0 -89.5 -18t-78.5 -64l-89 82q49 55 117.5 85.5
t144.5 30.5q73 0 129 -25.5t88 -70.5t32 -103q0 -56 -37 -99.5t-96 -60.5q70 -14 111.5 -56t41.5 -101t-35 -106t-95.5 -73.5t-139.5 -26.5z" />
    <glyph glyph-name="four.tab" 
d="M376 0v166h-361v107l344 427h143v-423h84v-111h-84v-166h-126zM157 277h219v271z" />
    <glyph glyph-name="five.tab" 
d="M282 -11q-145 0 -251 94l78 91q45 -38 87 -55t92 -17q41 0 71 15t47.5 42t17.5 63q0 51 -39.5 84t-102.5 33q-31 0 -62 -9t-64 -27l-93 28l16 369h441v-112h-326l-8 -177q37 18 70.5 24t66.5 6q71 0 123.5 -26.5t81.5 -74.5t29 -112q0 -71 -34.5 -125t-96.5 -84t-144 -30
z" />
    <glyph glyph-name="six.tab" 
d="M324 -11q-89 0 -156 44t-104.5 121.5t-37.5 180.5q0 113 41.5 197.5t116 131.5t174.5 47q55 0 109 -18t90 -50l-74 -94q-29 23 -62 34t-73 11q-61 0 -104 -31t-65.5 -88.5t-23.5 -140.5q35 48 84 74.5t103 26.5q69 0 122 -27.5t83 -76t30 -110.5q0 -66 -33 -118.5
t-90 -83t-130 -30.5zM320 332q-46 0 -86.5 -19t-71.5 -54q10 -48 31.5 -83.5t53.5 -54.5t71 -19q37 0 66.5 15t46.5 41.5t17 59.5q0 34 -16 59.5t-44.5 40t-67.5 14.5z" />
    <glyph glyph-name="seven.tab" 
d="M111 0l314 585h-392v115h533v-98l-299 -602h-156z" />
    <glyph glyph-name="eight.tab" 
d="M300 -11q-78 0 -138 26.5t-94 73t-34 106.5q0 39 17.5 72.5t50 58t73.5 36.5q-53 19 -86 60t-33 92q0 56 32 100.5t87.5 70.5t124.5 26q70 0 125 -26t87 -70.5t32 -100.5q0 -51 -33 -92t-86 -60q63 -19 102 -63.5t39 -103.5q0 -60 -33.5 -106.5t-94 -73t-138.5 -26.5z
M300 408q33 0 59.5 12.5t41.5 34.5t15 50t-15 50.5t-41.5 35t-59.5 12.5t-59.5 -12.5t-41.5 -34.5t-15 -51q0 -28 15 -50t41.5 -34.5t59.5 -12.5zM300 98q40 0 70 13.5t47 38t17 54.5q0 31 -17 55t-47 38t-70 14q-39 0 -69.5 -14t-47.5 -38t-17 -55q0 -30 17 -54.5t47.5 -38
t69.5 -13.5z" />
    <glyph glyph-name="nine.tab" 
d="M277 711q89 0 156 -44t104.5 -121.5t37.5 -180.5q0 -113 -41.5 -197.5t-116 -131.5t-174.5 -47q-55 0 -109 18t-90 50l74 94q29 -23 62 -34t73 -11q61 0 104 31t65.5 88.5t23.5 140.5q-35 -48 -84 -74.5t-103 -26.5q-69 0 -122 27.5t-83 76t-30 110.5q0 66 33 118.5
t90 83t130 30.5zM281 368q46 0 86.5 19t71.5 54q-10 48 -31.5 83.5t-53.5 54.5t-71 19q-37 0 -66.5 -15t-46.5 -41.5t-17 -59.5q0 -34 16 -59.5t44.5 -40t67.5 -14.5z" />
    <glyph glyph-name="gravecomb" horiz-adv-x="0" 
d="M273 608l-135 130h158l88 -130h-111z" />
    <glyph glyph-name="acutecomb" horiz-adv-x="0" 
d="M219 608l90 130h156l-135 -130h-111z" />
    <glyph glyph-name="uni0302" horiz-adv-x="0" 
d="M372 605l-74 74l-73 -74h-110l115 136h140l115 -136h-113z" />
    <glyph glyph-name="tildecomb" horiz-adv-x="0" 
d="M190 597l-84 18q27 121 114 121q28 0 54.5 -12.5t50.5 -25t42 -12.5q17 0 27 12t17 42l82 -18q-12 -62 -40.5 -92t-72.5 -30q-27 0 -53.5 12.5t-50.5 25t-44 12.5q-16 0 -26 -12t-16 -41z" />
    <glyph glyph-name="uni0304" horiz-adv-x="0" 
d="M140 625v86h320v-86h-320z" />
    <glyph glyph-name="uni0306" horiz-adv-x="0" 
d="M300 600q-68 0 -114 35.5t-61 99.5l84 22q24 -80 91 -80q34 0 57 20t34 60l84 -22q-15 -64 -61 -99.5t-114 -35.5z" />
    <glyph glyph-name="uni0307" horiz-adv-x="0" 
d="M300 602q-32 0 -53.5 21t-21.5 52q0 30 21.5 51t53.5 21t53.5 -21t21.5 -51q0 -31 -21.5 -52t-53.5 -21z" />
    <glyph glyph-name="uni0308" horiz-adv-x="0" 
d="M188 605q-30 0 -51 20t-21 52q0 31 21 51.5t51 20.5q31 0 51.5 -20.5t20.5 -51.5q0 -32 -20.5 -52t-51.5 -20zM412 605q-30 0 -51 20t-21 52q0 31 21 51.5t51 20.5q31 0 51.5 -20.5t20.5 -51.5q0 -32 -20.5 -52t-51.5 -20z" />
    <glyph glyph-name="uni030A" horiz-adv-x="0" 
d="M300 585q-34 0 -62 16.5t-44.5 44t-16.5 60.5q0 32 16.5 59.5t44.5 44t62 16.5t62 -16.5t44.5 -44t16.5 -59.5q0 -33 -16.5 -60.5t-44.5 -44t-62 -16.5zM300 643q26 0 44.5 18t18.5 44q0 27 -18.5 45t-44.5 18t-44.5 -18t-18.5 -45q0 -26 18.5 -44t44.5 -18z" />
    <glyph glyph-name="uni030B" horiz-adv-x="0" 
d="M132 610l101 127h136l-132 -127h-105zM339 610l101 127h138l-142 -127h-97z" />
    <glyph glyph-name="uni030C" horiz-adv-x="0" 
d="M228 741l73 -73l74 73h110l-115 -135h-140l-115 135h113z" />
    <glyph glyph-name="uni0326" horiz-adv-x="0" 
d="M184 -286l51 205h129l-81 -205h-99z" />
    </font>
</defs>
</svg>
